#TITLE:Resonance;
#SUBTITLE:;
#ARTIST:T.M Revolution;
#TITLETRANSLIT:;
#SUBTITLETRANSLIT:;
#ARTISTTRANSLIT:;
#GENRE:J-Rock;
#CREDIT:;
#BANNER:Resonance.png;
#BACKGROUND:Resonance-bg.png;
#LYRICSPATH:;
#CDTITLE:cdtitle.png;
#MUSIC:Resonance.ogg;
#OFFSET:0.790801;
#SAMPLESTART:16.663746;
#SAMPLELENGTH:11.636364;
#SELECTABLE:YES;
#BPMS:0.000000=165.000000
;
#STOPS:
;
#BGCHANGES:2.500=Resonance.avi=1.000=1=0=1===CrossFade==,
99999=-nosongbg-=1.000=0=0=0 // don't automatically add -songbackground-
;
#KEYSOUNDS:;
#ATTACKS:;

//---------------dance-single - ----------------
#NOTES:
     dance-single:
     :
     Challenge:
     12:
     0.609394,0.678267,0.430996,0.442048,0.082884,386.000000,347.000000,39.000000,40.000000,0.000000,0.000000,0.609394,0.678267,0.430996,0.442048,0.082884,386.000000,347.000000,39.000000,40.000000,0.000000,0.000000:
// measure 0
0000
0000
0000
0000
,  // measure 1
0000
0000
0000
0000
,  // measure 2
0000
0000
0000
0000
,  // measure 3
0000
0000
0000
0000
,  // measure 4
1000
0100
1000
0002
0000
0103
0001
2000
,  // measure 5
0000
3001
0100
0001
0010
0100
1000
0001
,  // measure 6
1000
0100
1000
0020
0000
0130
0001
0020
,  // measure 7
0000
0031
0100
0010
1000
0001
0010
0001
,  // measure 8
1000
0100
0010
0002
0000
0103
0010
2000
,  // measure 9
0000
3001
1000
0100
0001
0100
1000
0010
,  // measure 10
0100
0001
0010
0200
0000
1300
0010
0100
,  // measure 11
0001
0000
0010
0000
0001
1000
0001
0000
1000
0001
1000
0000
1001
0000
0000
0000
,  // measure 12
1010
0000
0000
0000
1100
0000
0000
0000
0011
0000
0000
0000
1001
0000
0000
1000
,  // measure 13
0100
0001
0100
0010
0001
0100
0000
0001
,  // measure 14
0200
0000
1300
0200
0000
0301
0020
0000
,  // measure 15
0032
0000
0103
0001
0010
0100
1000
0001
,  // measure 16
0011
0101
1010
1001
,  // measure 17
0001
0100
1000
0100
0001
0010
0000
0100
,  // measure 18
2000
0000
3010
0002
0000
0013
2000
0000
,  // measure 19
3200
0000
0000
0000
4300
0004
0000
0000
0000
0000
0000
0000
0000
0000
3000
0003
,  // measure 20
1000
0100
0001
0100
1000
0100
0001
0100
,  // measure 21
1000
0010
0001
0010
1000
0010
0001
0010
,  // measure 22
1000
0100
0010
0100
1000
0100
0001
1000
,  // measure 23
0010
0001
0010
0100
0010
0001
1000
0001
,  // measure 24
0100
1000
0100
0001
0100
1000
0100
0001
,  // measure 25
0010
1000
0010
0001
0010
1000
0010
0001
,  // measure 26
0100
0010
0100
0001
0100
0010
0100
1000
,  // measure 27
0001
0010
1000
0010
0100
0010
1000
0001
,  // measure 28
1001
0000
1000
0100
0000
0100
0001
0100
,  // measure 29
1000
0000
1000
0010
0000
0010
0100
0001
,  // measure 30
0010
0100
0010
1000
0000
1000
0010
0000
,  // measure 31
0002
0000
0103
0020
0000
1030
0001
1000
,  // measure 32
0001
0010
0001
1000
0000
1000
0001
0100
,  // measure 33
1000
0100
0001
0010
0000
0010
0100
1000
,  // measure 34
0010
0100
0010
0001
0000
0001
0020
0000
,  // measure 35
2030
0000
3100
0010
0001
0100
0010
0000
,  // measure 36
1000
0000
0000
0010
0000
0000
0100
0000
0001
0000
0000
0000
1001
0000
0000
0000
,  // measure 37
0001
0000
0000
0010
0000
0000
0100
0000
1000
0000
0000
0000
0001
0000
0000
0000
,  // measure 38
0201
0000
0301
0100
1000
0100
0001
0000
,  // measure 39
2001
3100
0010
0001
,  // measure 40
1000
0000
0000
0010
0000
0000
0100
0000
0001
0000
0000
0000
1001
0000
0000
0000
,  // measure 41
0001
0000
0000
0100
0000
0000
1000
0000
0100
0000
0000
0000
0001
0000
0000
0000
,  // measure 42
0011
0011
0000
1100
1100
0000
1001
1001
,  // measure 43
0000
0000
0400
0040
0000
0000
0000
0000
0000
0000
0000
0000
0000
0300
0030
0000
,  // measure 44
1001
0000
0000
0000
1100
0000
0000
0000
0011
0000
0000
0000
0101
0000
0000
0100
,  // measure 45
1000
0100
0001
0010
0100
1000
0000
0010
,  // measure 46
2000
0000
3100
0002
0000
0103
2000
0000
,  // measure 47
3020
0000
1030
0010
0100
0001
0010
0100
,  // measure 48
0110
0011
1100
1010
,  // measure 49
1000
0010
0001
0010
1000
0100
0000
1000
,  // measure 50
0020
0000
0031
0020
0000
1030
0200
0000
,  // measure 51
0320
0000
0000
0000
0034
0400
0000
0000
0000
0000
0000
0000
0000
0003
0300
0000
,  // measure 52
1001
0000
0000
0000
1000
0000
0100
0000
0011
0000
0000
0000
1100
0000
0000
0010
,  // measure 53
0001
0000
0000
0000
0101
0000
0000
0010
1000
0000
0001
0000
0000
0000
1000
0000
,  // measure 54
0200
0000
0301
2000
0000
3010
0002
0000
,  // measure 55
0023
0000
0130
1000
0010
1000
0100
0010
,  // measure 56
0011
0000
0000
0000
1010
0000
0000
0000
1100
0000
0000
0000
0101
0000
0000
1000
,  // measure 57
0010
0001
0010
1000
0100
0001
0000
0100
,  // measure 58
2000
0000
3010
0002
0000
1003
0200
0000
,  // measure 59
0302
0000
0000
0000
0043
0400
0000
0000
0000
0000
0000
0000
0000
0030
0300
0000
,  // measure 60
1001
0001
0100
0120
0000
1030
0010
2002
,  // measure 61
0000
0000
0000
3003
0000
0000
0000
0000
;

//---------------dance-single - ----------------
#NOTES:
     dance-single:
     :
     Hard:
     11:
     0.546245,0.542613,0.066307,0.563611,0.022102,346.000000,340.000000,6.000000,51.000000,0.000000,0.000000,0.546245,0.542613,0.066307,0.563611,0.022102,346.000000,340.000000,6.000000,51.000000,0.000000,0.000000:
0000
0000
0000
0000
,
0000
0000
0000
0000
,
0000
0000
0000
0000
,
0000
0000
0000
0000
,
0001
0100
0001
0200
0000
0301
1000
0002
,
0000
0013
0001
0010
0001
0100
0010
1000
,
0100
1000
0100
2000
0000
3001
1000
0002
,
0000
1003
0010
1000
0010
0100
0001
0010
,
0001
1000
0001
2000
0000
3010
0100
0020
,
0000
1030
0001
1000
0001
0010
0100
1000
,
0001
0100
0001
0200
0000
0310
1000
0001
,
1000
0100
0001
0100
1000
0000
1001
0000
,
0001
0100
0010
1000
,
0001
0100
0010
0100
0001
1000
0000
0100
,
0020
0000
0031
2000
0000
3010
0200
0000
,
0302
0000
1003
0000
0100
0010
0001
1000
,
0010
0100
0001
1000
,
0100
1000
0001
1000
0100
0010
0000
0001
,
0200
0000
0310
2000
0000
3001
0020
0000
,
0230
0000
0310
0100
1000
0001
0100
0010
,
1000
0100
0010
0000
0010
0100
1000
0000
,
0001
0100
0010
1000
0000
0001
0010
0001
,
1000
0010
1000
0100
0000
0010
0001
1000
,
0001
0100
0010
0000
0010
0100
0001
0000
,
0001
0010
0100
0000
0100
0010
0001
0000
,
1000
0010
0100
0001
0000
0010
0001
0100
,
0010
1000
0100
0010
0000
0100
1000
0001
,
1000
0010
0100
0000
0100
0010
1000
0000
,
1001
0000
0001
0010
0000
0001
0100
0010
,
1000
0000
0100
1000
0000
0010
1000
0001
,
1000
0100
0010
0001
0000
0100
0010
0000
,
2000
0000
3001
0020
0000
0000
0130
0000
,
0010
0001
1000
0010
0000
0100
0010
0100
,
0001
1000
0001
0100
0000
0001
0100
0001
,
1000
0100
0010
0100
0000
0010
0002
0000
,
2003
0000
3001
0000
0100
0010
0100
0000
,
0002
0000
0000
2003
0000
0000
3100
0000
0010
0000
0001
0000
0100
0000
0000
0000
,
0020
0000
0000
0230
0000
0000
0301
0000
0010
0000
0100
0000
1000
0000
0000
0000
,
1020
0000
0130
0002
0000
1003
0200
0000
,
0320
0031
0101
1010
,
2000
0000
0000
3002
0000
0000
0013
0000
0001
0000
0100
0000
0010
0000
0000
0000
,
0200
0000
0000
0302
0000
0000
1003
0000
0200
0000
0000
0000
0320
0000
0000
0000
,
0031
0001
0000
1000
1000
0000
0010
0010
,
0100
0001
1000
0100
0010
0001
0100
0000
,
0001
0010
0100
1000
,
0100
0010
0001
0100
0010
1000
0000
0001
,
2000
0000
3100
0020
0000
0130
0002
0000
,
0203
0000
1300
0000
0010
0100
0001
1000
,
0010
1000
0001
0010
,
0100
1000
0001
0100
0010
1000
0000
0001
,
0200
0000
0310
0200
0000
1300
0200
0000
,
0302
0000
0013
0001
0100
0010
1000
0000
,
1001
0000
0001
0100
1000
0000
0100
0001
,
0010
0000
0100
0000
0010
0001
0000
0100
,
0002
0000
1003
0020
0000
0031
0020
0000
,
2030
0000
3100
0000
0010
0001
0100
0010
,
1000
0010
0100
0001
,
0100
0001
0010
0001
0100
0010
0000
1000
,
0002
0000
1003
0200
0000
0310
0002
0000
,
0203
0000
0310
1000
0100
0010
0001
0100
,
0010
0010
1000
0002
0000
1003
0100
0020
,
0000
0000
0000
0030
0000
0000
0000
0000
;

//---------------dance-single - ----------------
#NOTES:
     dance-single:
     :
     Medium:
     8:
     0.434154,0.440873,0.221024,0.530457,0.022102,275.000000,255.000000,20.000000,48.000000,0.000000,0.000000,0.434154,0.440873,0.221024,0.530457,0.022102,275.000000,255.000000,20.000000,48.000000,0.000000,0.000000:
0000
0000
0000
0000
,
0000
0000
0000
0000
,
0000
0000
0000
0000
,
0000
0000
0000
0000
,
1000
0000
0001
0200
0000
0000
0301
2000
,
0000
3001
0010
0010
,
0001
0000
1000
0200
0000
0000
1300
0002
,
0000
1003
0010
0010
,
1001
0000
1000
0200
0000
0000
0310
0002
,
0000
0103
0010
1000
,
0100
0000
0010
0002
0000
0000
1003
0000
,
0001
0010
0100
1000
0001
0000
1001
0000
,
0001
0100
0010
1000
,
0001
0000
0010
0100
0010
0100
0000
0010
,
0200
0000
1300
0002
0000
1003
0020
0000
,
0230
0001
0301
1000
,
0010
1000
0001
0010
,
0100
0000
1000
0001
1000
0001
0000
1000
,
0002
0000
1003
0200
0000
0310
0002
0000
,
0100
0100
0103
0010
,
2001
0010
0001
3010
,
1002
0010
1000
0013
,
2100
0001
3100
1100
,
0201
0010
0001
0310
,
1002
0010
1000
0013
,
2001
0010
0001
3010
,
0102
1000
0103
1010
,
0012
1000
0010
1003
,
1001
0000
0001
0100
0000
0001
0100
0000
,
0010
0000
1000
0100
0000
1000
0100
0000
,
0010
0000
0001
0100
0000
0010
1000
0000
,
0001
0000
1000
0200
0000
0000
1300
0000
,
0001
0000
0100
0010
0000
0100
0010
0000
,
1000
0000
0100
0010
0000
0100
0010
0000
,
0001
0000
0100
0010
0000
1000
0001
0000
,
1002
0100
0100
1003
,
0001
0000
0000
0100
0000
0000
0001
0000
1000
0000
0000
0000
0000
0000
0000
0000
,
1000
0000
0000
0100
0000
0000
1000
0000
0001
0000
0000
0000
0001
0000
0000
0000
,
1002
0000
0000
0023
0000
0000
0230
0000
,
2300
3000
1001
0110
,
1000
0000
0000
0010
0000
0000
1000
0000
0001
0000
0000
0000
0000
0000
0000
0000
,
0001
0000
0000
0010
0000
0000
0100
0000
1000
0000
0000
0000
0001
0000
0000
0000
,
1000
0010
0000
0100
0001
0000
1000
0100
,
0000
2002
0000
0000
0000
0000
3003
0000
,
1000
0100
0010
0001
,
0100
0000
0010
1000
0010
1000
0000
0010
,
2000
0000
3001
0020
0000
0130
2000
0000
,
3002
0100
0103
0001
,
0100
0010
1000
0001
,
0010
0000
0100
1000
0100
1000
0000
0100
,
2000
0000
3010
0200
0000
0301
2000
0000
,
3002
0010
0010
0013
,
1001
0000
0001
1000
0001
0000
0010
0000
,
0100
0000
1000
0000
0001
0100
0000
0010
,
2000
0000
3100
0020
0000
0031
2000
0000
,
3002
0100
0103
0010
,
1000
0100
0010
0001
,
0100
0000
0001
1000
0001
1000
0000
0100
,
0020
0000
0031
0200
0000
0310
2000
0000
,
3200
0010
0010
0310
,
1001
0000
0001
0200
0000
0310
1000
0002
,
0000
0000
0000
0003
0000
0000
0000
0000
;

//---------------dance-single - ----------------
#NOTES:
     dance-single:
     :
     Easy:
     5:
     0.328378,0.440873,0.232075,0.221024,0.000000,208.000000,187.000000,21.000000,20.000000,0.000000,0.000000,0.328378,0.440873,0.232075,0.221024,0.000000,208.000000,187.000000,21.000000,20.000000,0.000000,0.000000:
0000
0000
0000
0000
,
0000
0000
0000
0000
,
0000
0000
0000
0000
,
0000
0000
0000
0000
,
1000
0000
0001
0000
,
1000
0000
0010
0100
,
0001
0000
1000
0000
,
0001
0000
0010
0100
,
1000
0000
0010
0000
,
0100
0000
0001
0010
,
0100
0000
0010
0000
,
1001
0000
0000
0110
,
1001
1000
0100
0100
,
0010
0001
0100
0000
,
0001
0100
1000
0100
,
0002
0003
0001
0010
,
0001
0001
0100
0100
,
0010
1000
0100
0000
,
1000
0100
0001
0100
,
2000
3000
1000
0010
,
1001
1000
1000
0100
,
0011
0001
0001
0100
,
1010
1000
1000
1100
,
0101
0001
0001
1000
,
1001
0001
0001
0100
,
1010
1000
1000
0100
,
0011
0001
0001
0011
,
1010
1000
0100
0010
,
1001
0001
0100
0010
,
1000
1000
0100
0010
,
0001
0100
0010
1000
,
0100
0010
0002
0003
,
1000
1000
0100
0010
,
0001
0001
0100
0010
,
1000
0010
0100
0001
,
2000
0000
3010
1000
,
1002
0000
0103
0000
,
2001
0000
3100
0010
,
0002
0000
0000
0003
0200
0000
0320
0000
,
2030
0000
3010
1000
,
2001
0000
3010
0000
,
1002
0000
0013
0100
,
1000
0000
0000
0001
0000
0000
1000
0000
,
0000
0020
0000
0030
,
1001
1000
0001
0001
,
0010
0001
0100
0000
,
0001
0100
1000
0100
,
0002
0003
0001
0010
,
0001
0001
1000
1000
,
0010
1000
0100
0000
,
1000
0100
0001
0100
,
2000
3000
0100
0010
,
1001
0000
0001
0001
,
1000
0010
1000
0000
,
0001
0010
1000
0010
,
0002
0003
0001
0100
,
0010
0010
1000
1000
,
0001
0010
0001
0000
,
1000
0010
0001
0010
,
2000
3000
1000
0001
,
0100
0000
0000
0020
0000
0030
0000
2002
,
0000
0000
0000
3003
0000
0000
0000
0000
;

//---------------dance-single - ----------------
#NOTES:
     dance-single:
     :
     Beginner:
     2:
     0.129457,0.168185,0.055256,0.187870,0.000000,82.000000,77.000000,5.000000,17.000000,0.000000,0.000000,0.129457,0.168185,0.055256,0.187870,0.000000,82.000000,77.000000,5.000000,17.000000,0.000000,0.000000:
0000
0000
0000
0000
,
0000
0000
0000
0000
,
0000
0000
0000
0000
,
0000
0000
0000
0000
,
1000
0000
0000
0000
,
0100
0000
0000
0000
,
0010
0000
0000
0000
,
0001
0000
0000
0000
,
0100
0000
0100
0000
,
0010
0000
0010
0000
,
1000
0000
0001
0000
,
1000
0000
0000
0000
,
0001
0000
0001
0000
,
0100
0000
0000
0000
,
0010
0000
1000
0000
,
0002
0000
0003
0000
,
1000
0000
1000
0000
,
0100
0000
0000
0000
,
0010
0000
0001
0000
,
2000
0000
3000
0000
,
0200
0000
0300
0000
,
0020
0000
0030
0000
,
0002
0000
0003
1000
,
2000
0000
3000
0000
,
0020
0000
0030
0000
,
0200
0000
0300
0000
,
0002
0000
0003
0010
,
0020
0000
0030
0000
,
0001
0000
0000
0000
,
0100
0000
0000
0000
,
0001
0000
1000
0000
,
0001
0000
0000
0000
,
1000
0000
0000
0000
,
0100
0000
0000
0000
,
0010
0000
0001
0000
,
2000
0000
3000
0000
,
1001
0000
0000
0000
,
1001
0000
0000
0000
,
0100
0000
0100
0000
,
0100
0000
0000
0000
,
1001
0000
0000
0000
,
1001
0000
0000
0000
,
0010
0000
0000
0000
,
0100
0000
0000
0000
,
1000
0000
1000
0000
,
0010
0000
0000
0000
,
0100
0000
0001
0000
,
2000
0000
3000
0000
,
0001
0000
0001
0000
,
0010
0000
0000
0000
,
0001
0000
1000
0000
,
0020
0000
0030
0000
,
0001
0000
1000
0000
,
0001
0000
0000
0000
,
0100
0000
0010
0000
,
2000
0000
3000
0000
,
0001
0000
0010
0000
,
0100
0000
0000
0000
,
1000
0000
0010
0000
,
0200
0000
0300
0000
,
2002
0000
0000
0000
0000
0000
0000
3003
;
