#VERSION:0.83;
#TITLE:Resonance (English Cover);
#SUBTITLE:;
#ARTIST:Nathan Sharp;
#TITLETRANSLIT:;
#SUBTITLETRANSLIT:;
#ARTISTTRANSLIT:;
#GENRE:Rock;
#ORIGIN:;
#CREDIT:;
#BANNER:Resonance (English Cover).png;
#BACKGROUND:Resonance (English Cover)-bg.png;
#PREVIEWVID:;
#JACKET:Resonance (English Cover)-jacket.png;
#CDIMAGE:;
#DISCIMAGE:;
#LYRICSPATH:;
#CDTITLE:cdtitle.png;
#MUSIC:Resonance (English Cover).ogg;
#OFFSET:0.797184;
#SAMPLESTART:16.657362;
#SAMPLELENGTH:11.616364;
#SELECTABLE:YES;
#BPMS:0.000=165.000;
#STOPS:;
#DELAYS:;
#WARPS:;
#TIMESIGNATURES:0.000=4=4;
#TICKCOUNTS:0.000=4;
#COMBOS:0.000=1;
#SPEEDS:0.000=1.000=0.000=0;
#SCROLLS:0.000=1.000;
#FAKES:;
#LABELS:0.000=Song Start;
#BGCHANGES:2.500=Resonance (English Cover).avi=1.000=1=0=1===CrossFade==,
99999=-nosongbg-=1.000=0=0=0 // don't automatically add -songbackground-
;
#KEYSOUNDS:;
#ATTACKS:
;

//---------------dance-single - ----------------
#NOTEDATA:;
#CHARTNAME:;
#STEPSTYPE:dance-single;
#DESCRIPTION:;
#CHARTSTYLE:;
#DIFFICULTY:Challenge;
#METER:13;
#RADARVALUES:0.678675,0.781613,0.287923,0.343293,0.232553,429.000000,403.000000,26.000000,31.000000,0.000000,0.000000,0.000000,0.000000,0.000000,0.678675,0.781613,0.287923,0.343293,0.232553,429.000000,403.000000,26.000000,31.000000,0.000000,0.000000,0.000000,0.000000,0.000000;
#CREDIT:;
#NOTES:
// measure 0
0000
0000
0000
0000
,  // measure 1
0000
0000
0000
0000
,  // measure 2
0000
0000
0000
0000
,  // measure 3
0000
0000
0000
0000
,  // measure 4
0001
0100
0001
2000
0000
3100
1000
0020
,  // measure 5
0000
0130
0001
0010
1000
0010
0001
0100
,  // measure 6
0001
1000
0100
2000
0000
3010
0100
0002
,  // measure 7
0000
0013
0001
0100
1000
0100
0001
0010
,  // measure 8
0001
0100
0010
2000
0000
3100
0010
0002
,  // measure 9
0000
0103
0010
1000
0100
0001
0100
1000
,  // measure 10
0010
0100
0001
0020
0000
0130
1000
0010
,  // measure 11
0100
0000
0001
0000
1000
0100
1000
0000
0001
0100
0001
0000
1001
0000
0000
0000
,  // measure 12
1010
0101
0011
1100
,  // measure 13
1000
0000
0100
0000
0001
0000
0100
1000
0100
0000
0010
0000
0001
0000
0100
0000
,  // measure 14
0020
0000
0031
0010
1000
0100
0002
0000
,  // measure 15
0203
0000
0000
0000
1300
0000
0000
1000
0010
0000
0100
0000
0001
0000
0010
0000
,  // measure 16
0011
1100
1010
0101
,  // measure 17
0001
0000
0100
0000
1000
0000
0100
0001
0100
0000
0010
0000
1000
0000
0100
0000
,  // measure 18
0020
0000
1030
0010
0001
0100
2000
0000
,  // measure 19
3200
0000
0000
0000
0301
0000
0000
0001
1000
0000
0001
0000
1000
0001
1000
0001
,  // measure 20
1000
0100
0010
0100
1000
0100
0010
0100
,  // measure 21
1000
0010
0001
0010
1000
0010
0001
0010
,  // measure 22
1000
0100
0001
0100
1000
0100
0010
0001
,  // measure 23
0100
0001
0010
0001
0100
0010
1000
0100
,  // measure 24
0010
0001
0100
0001
0010
0001
0100
0001
,  // measure 25
0010
1000
0010
0001
0010
1000
0010
0001
,  // measure 26
0100
1000
0100
0001
0100
1000
0100
0010
,  // measure 27
1000
0100
1000
0010
1000
0100
0010
0001
,  // measure 28
0100
0000
0010
1000
0000
0010
0100
0001
,  // measure 29
1000
0000
0100
0010
0001
0001
1000
1000
,  // measure 30
0010
1000
0100
0001
0000
0100
1000
0000
,  // measure 31
0010
0000
0000
0000
0100
0000
0001
0000
1000
0100
1000
0100
1000
0100
1000
0100
,  // measure 32
0010
0000
0001
0100
0000
0010
1000
0001
,  // measure 33
0010
0000
0100
1000
0010
1000
0100
0010
,  // measure 34
0001
0000
0100
1000
0100
0001
0010
0000
,  // measure 35
1002
0000
0000
0000
1003
0000
0000
0000
0001
0100
0001
0100
0001
0100
0001
0100
,  // measure 36
0010
0000
0000
0000
1000
0000
0000
0000
0001
0000
0000
0000
0010
0000
0000
0000
0000
0000
0100
0000
0000
0010
0000
0000
,  // measure 37
0001
0000
0000
1000
0000
0000
0010
0000
0001
0000
0000
0000
0010
0000
0000
0000
,  // measure 38
2010
0000
0000
3200
0000
0000
0310
0000
,  // measure 39
0012
0000
0103
0010
,  // measure 40
0100
0000
0000
0001
0000
0000
1000
0000
0100
0000
0000
0000
0010
0000
0001
0000
,  // measure 41
0100
0000
1000
0000
0100
0000
0001
0000
0000
0010
0000
0000
,  // measure 42
0001
0000
0001
0000
1000
0010
1000
0000
1000
0000
0001
0010
0001
0000
0001
0000
,  // measure 43
1000
0000
0010
0100
0010
0100
0010
0000
1000
0001
1000
0001
1000
0000
0000
0000
,  // measure 44
1100
0011
0101
1010
,  // measure 45
1000
0000
0010
0000
0001
0000
0010
1000
0010
0000
0100
0000
0001
0000
0010
0000
,  // measure 46
0200
0000
0301
0100
1000
0010
0002
0000
,  // measure 47
0023
0000
0000
0000
1030
0000
0000
1000
0100
0000
0010
0000
0001
0000
0100
0000
,  // measure 48
0101
1010
1100
0011
,  // measure 49
0001
0000
0010
0000
1000
0000
0010
0001
0010
0000
0100
0000
1000
0000
0010
0000
,  // measure 50
0200
0000
1300
0100
0001
0010
2000
0000
,  // measure 51
3020
0000
0000
0000
0031
0000
0000
0001
0100
0000
0010
0000
1000
0001
1000
0001
,  // measure 52
0010
0010
1000
0010
0001
0000
0101
0000
,  // measure 53
1000
0000
0100
0000
0001
0000
0100
0010
0100
0000
1000
0000
0010
0000
1000
0000
,  // measure 54
0001
0010
1000
0020
0000
0031
0200
0000
,  // measure 55
0320
0000
0000
0000
1030
0000
0000
1000
0100
0000
0010
0000
0001
0000
1000
0000
,  // measure 56
1010
1100
0011
0101
,  // measure 57
0100
0000
1000
0000
0100
0000
0001
0010
0001
0000
1000
0000
0010
0000
1000
0000
,  // measure 58
0200
0000
0301
0100
1000
0010
0002
0000
,  // measure 59
0023
0000
0000
0000
1030
0000
0000
1000
0100
0000
0010
0000
0001
0100
0001
0100
,  // measure 60
0010
0000
1000
0000
0001
0000
2001
0000
0000
0000
3100
0010
0100
0010
0002
0000
,  // measure 61
0000
0000
0000
0003
0000
0000
0000
0000
;

//---------------dance-single - ----------------
#NOTEDATA:;
#CHARTNAME:;
#STEPSTYPE:dance-single;
#DESCRIPTION:;
#CHARTSTYLE:;
#DIFFICULTY:Hard;
#METER:11;
#RADARVALUES:0.599575,0.611697,0.321145,0.442958,0.033222,379.000000,350.000000,29.000000,40.000000,0.000000,0.000000,0.000000,0.000000,0.000000,0.599575,0.611697,0.321145,0.442958,0.033222,379.000000,350.000000,29.000000,40.000000,0.000000,0.000000,0.000000,0.000000,0.000000;
#CREDIT:;
#NOTES:
0000
0000
0000
0000
,
0000
0000
0000
0000
,
0000
0000
0000
0000
,
0000
0000
0000
0000
,
0001
0100
0001
0200
0000
0301
1000
0002
,
0000
0013
0010
0001
1000
0010
0100
0001
,
1000
0100
1000
0200
0000
1300
0001
2000
,
0000
3010
0010
1000
0001
0010
0100
1000
,
0001
0100
0010
2000
0000
3100
0010
0002
,
0000
0103
0100
0010
1000
0100
0010
0001
,
1000
0010
0100
0002
0000
0013
0100
1000
,
0001
0100
0010
0100
1000
0100
0110
0000
,
0101
0011
1100
1010
,
1000
0100
0010
0100
1000
0001
0000
0001
,
0200
0000
0310
0200
0000
1300
0200
0000
,
0320
0000
0000
0000
0130
0000
0000
0100
0001
0000
0010
0000
0100
0000
1000
0000
,
1100
1010
0101
0011
,
0001
0100
0010
0100
0001
1000
0000
1000
,
0200
0000
0310
0200
0000
0301
0200
0000
,
2300
0000
0000
0000
3100
0000
0000
0100
0010
0000
0001
0000
0100
0000
0010
0000
,
1000
0001
1000
0001
1000
0001
1000
0001
,
0010
0001
0010
0001
0010
0001
0010
0001
,
1000
0001
1000
0001
1000
0001
0100
0001
,
1000
0010
1000
0010
1000
0010
1000
0010
,
1000
0100
1000
0100
1000
0100
1000
0100
,
0010
0001
0010
0001
0010
0001
0010
0001
,
1000
0010
1000
0010
1000
0010
0100
0001
,
0010
0100
0010
0100
0010
0100
0010
0100
,
1000
0000
0001
0100
0000
0001
0100
0001
,
1000
0000
0001
0010
0100
0100
0010
0000
,
0001
0100
0010
0100
0000
0100
1000
0000
,
0100
0000
0100
0010
0100
0001
1001
0000
,
0001
0000
1000
0100
0000
1000
0100
1000
,
0001
0000
1000
0010
0000
1000
0100
0010
,
0001
0000
0100
0010
0000
1000
0001
0000
,
0020
0000
0130
0000
1000
0100
0001
0100
,
2000
0100
3100
0000
,
0002
0100
0103
0000
,
2000
0000
0000
3020
0000
0000
0032
0000
,
0203
0000
1000
1300
,
0001
0000
0100
0000
0100
0000
1000
0100
,
0001
0000
0010
0100
1000
0000
0001
0000
,
1000
1010
0000
0001
0011
0000
1000
1001
,
0000
0100
0010
0100
0010
0100
1001
0000
,
1100
1010
0101
0011
,
0010
0001
1000
0010
0100
0001
0000
1000
,
0200
0000
0310
0200
0000
0301
0200
0000
,
0320
0000
0000
0000
0130
0000
0000
0100
1000
0000
0010
0000
0100
0000
0001
0000
,
0101
0011
1100
1010
,
0010
1000
0001
0010
0100
1000
0000
0001
,
0200
0000
0310
0200
0000
1300
0200
0000
,
0302
0000
0000
0000
0103
0000
0000
0100
0010
0000
1000
0000
0100
0000
0010
0000
,
0001
0100
1000
0100
0001
0000
1001
0000
,
0001
0010
1000
0010
0001
0100
0010
1000
,
0001
0010
0100
2000
0000
3010
0200
0000
,
0302
0000
0000
0000
1003
0000
0000
1000
0100
0000
0010
0000
0001
0000
1000
0000
,
1010
0101
0011
1100
,
1000
0100
0010
0001
0100
0010
0000
1000
,
0200
0000
0310
0200
0000
0301
0200
0000
,
2300
0000
0000
0000
3001
0000
0000
0001
0100
0000
0010
0000
1000
0000
1000
0000
,
0100
0010
0100
1002
0000
0103
0010
2002
,
0000
0000
0000
3003
0000
0000
0000
0000
;

//---------------dance-single - ----------------
#NOTEDATA:;
#CHARTNAME:;
#STEPSTYPE:dance-single;
#DESCRIPTION:;
#CHARTSTYLE:;
#DIFFICULTY:Medium;
#METER:8;
#RADARVALUES:0.425556,0.475765,0.155035,0.332219,0.000000,269.000000,255.000000,14.000000,30.000000,0.000000,0.000000,0.000000,0.000000,0.000000,0.425556,0.475765,0.155035,0.332219,0.000000,269.000000,255.000000,14.000000,30.000000,0.000000,0.000000,0.000000,0.000000,0.000000;
#CREDIT:;
#NOTES:
0000
0000
0000
0000
,
0000
0000
0000
0000
,
0000
0000
0000
0000
,
0000
0000
0000
0000
,
0001
0000
1000
0200
0000
0300
1000
0020
,
0000
0030
1000
0000
0001
0010
0001
0000
,
1000
0000
0001
0200
0000
0300
0001
0020
,
0000
0030
0001
0000
1000
0010
1000
0000
,
0100
0100
1000
1000
,
0001
0000
0001
0000
0100
0010
1000
0001
,
0010
0010
0100
0100
,
0010
0001
0100
0010
1000
0000
0001
0000
,
1000
1100
0001
0101
,
1000
0000
0100
0000
1000
0100
0000
0100
,
1000
0010
0001
0010
,
2000
0000
3000
0000
0010
1000
0010
0100
,
0001
0011
1000
1010
,
0001
0000
0100
0000
0001
0100
0000
0100
,
0001
0010
1000
0010
,
0002
0000
0003
0000
0010
0001
0100
0010
,
2000
0010
0010
0010
,
3002
0010
0010
0010
,
2003
0100
0100
3002
,
0203
0010
1000
0010
,
0302
0100
0100
0100
,
2003
0100
0100
0100
,
3002
0010
0010
2003
,
3020
0001
0100
1030
,
0110
0000
0001
0100
0000
0100
0001
0000
,
1000
0000
0001
0010
0000
0010
0001
0000
,
0110
0000
1000
0100
0000
0100
1000
0000
,
0001
0000
1000
0010
0000
0010
1000
0000
,
0110
0000
0001
1000
0000
1000
0100
0000
,
0010
0000
0100
1000
0000
1000
0001
0000
,
0100
0000
0010
1000
0000
0001
0010
0000
,
0220
0000
0330
0000
1000
0100
0010
0001
,
2000
0000
3100
0000
,
1000
0100
0010
0001
,
0200
0000
0000
0320
0000
0000
2030
0000
,
3002
0000
1000
1003
,
0002
0000
0103
0000
,
0001
0100
0010
1000
,
0001
0010
0000
0001
1000
0000
0001
0100
,
0000
0010
0100
0010
0100
0000
0001
0000
,
1000
1100
0001
0011
,
1000
0000
0100
0000
0010
0001
0000
0001
,
0100
1000
0100
0001
,
0020
0000
0030
0000
0001
0010
0100
1000
,
0001
0101
1000
1010
,
0001
0000
0100
0000
0010
1000
0000
1000
,
0100
0001
0100
1000
,
0020
0000
0030
0000
1000
0010
0100
0000
,
0001
1000
0001
1000
0001
0000
0010
0000
,
0001
1000
0001
1000
0001
0000
0100
0000
,
0010
1000
0100
0001
,
0200
0000
0300
0000
1000
0100
0010
0001
,
0100
1010
0100
0011
,
1000
0000
0001
0000
0100
0010
0000
1000
,
0001
0010
1000
0010
,
0002
0000
0003
0000
0100
0010
1000
0000
,
0100
0010
0100
0020
0000
0031
1000
0002
,
0000
0000
0000
0003
0000
0000
0000
0000
;

//---------------dance-single - ----------------
#NOTEDATA:;
#CHARTNAME:;
#STEPSTYPE:dance-single;
#DESCRIPTION:;
#CHARTSTYLE:;
#DIFFICULTY:Easy;
#METER:5;
#RADARVALUES:0.300579,0.305849,0.066444,0.343293,0.000000,190.000000,184.000000,6.000000,31.000000,0.000000,0.000000,0.000000,0.000000,0.000000,0.300579,0.305849,0.066444,0.343293,0.000000,190.000000,184.000000,6.000000,31.000000,0.000000,0.000000,0.000000,0.000000,0.000000;
#CREDIT:;
#NOTES:
0000
0000
0000
0000
,
0000
0000
0000
0000
,
0000
0000
0000
0000
,
0000
0000
0000
0000
,
1000
0000
0100
0000
,
0010
0000
0100
0010
,
0001
0000
0100
0000
,
0010
0000
0100
0010
,
1000
1000
0001
0001
,
1000
1000
0001
0001
,
1000
0100
0010
0001
,
0100
0000
0000
0000
,
0001
0010
0001
1000
,
0001
0100
0100
0000
,
0001
0100
0010
1000
,
0200
0300
0100
0100
,
1000
0010
1000
0001
,
1000
0100
0100
0000
,
1000
0100
0010
0001
,
0200
0300
0010
0010
,
2000
0100
0100
0100
,
3002
0010
0010
0010
,
2003
0010
0010
0001
,
3002
0100
0100
0103
,
0002
0010
0010
0010
,
2003
0100
0100
0100
,
3002
0100
0100
1000
,
2003
0010
0010
3010
,
1000
0100
0001
0100
,
1000
0010
0100
0000
,
0001
0100
1000
0100
,
0001
0010
0100
0000
,
0010
0001
1000
1000
,
0010
1000
0001
0001
,
1000
0100
0001
0100
,
2000
3000
0001
0100
,
0220
0000
0330
0000
,
2002
0000
3003
0000
,
2000
0000
3200
0000
,
0320
0000
0031
0001
,
0022
0000
0033
0000
,
2020
0000
3030
0000
,
0001
0000
0000
1000
0000
0000
0200
0000
,
0000
0000
0000
0300
,
1000
0010
1000
0100
,
0010
0001
0001
0000
,
0001
0100
1000
0100
,
0002
0003
0001
0100
,
0001
0010
0001
0100
,
0010
1000
1000
0000
,
1000
0100
0001
0100
,
2000
3000
1000
1000
,
0010
0001
0010
1000
,
0100
0001
0100
1000
,
0001
0100
0010
1000
,
0200
0300
1000
0100
,
0010
0001
1000
0001
,
0100
1000
1000
0000
,
1000
0100
0010
0100
,
0002
0003
1000
1000
,
0100
0000
0000
0220
0000
0330
0000
2002
,
0000
0000
0000
3003
0000
0000
0000
0000
;

//---------------dance-single - ----------------
#NOTEDATA:;
#CHARTNAME:;
#STEPSTYPE:dance-single;
#DESCRIPTION:;
#CHARTSTYLE:;
#DIFFICULTY:Beginner;
#METER:2;
#RADARVALUES:0.150289,0.202238,0.022148,0.276849,0.000000,95.000000,93.000000,2.000000,25.000000,0.000000,0.000000,0.000000,0.000000,0.000000,0.150289,0.202238,0.022148,0.276849,0.000000,95.000000,93.000000,2.000000,25.000000,0.000000,0.000000,0.000000,0.000000,0.000000;
#CREDIT:;
#NOTES:
0000
0000
0000
0000
,
0000
0000
0000
0000
,
0000
0000
0000
0000
,
0000
0000
0000
0000
,
0001
0000
0000
0000
,
0100
0000
0000
0000
,
0010
0000
0000
0000
,
1000
0000
0000
0000
,
0001
0000
0001
0000
,
1000
0000
1000
0000
,
0001
0000
0001
0000
,
0010
0000
0000
0000
,
0001
0000
0001
0000
,
0100
0100
0100
0000
,
0010
0000
1000
0000
,
0002
0000
0003
0000
,
1000
0000
1000
0000
,
0100
0100
0100
0000
,
0010
0000
0001
0000
,
2000
0000
3000
0000
,
0002
0000
0003
0000
,
0200
0000
0300
0000
,
0020
0000
0030
1000
,
2000
0000
3000
0000
,
0002
0000
0003
0000
,
0020
0000
0030
0000
,
0200
0000
0300
1000
,
2000
0000
3000
0000
,
0001
0000
1000
0000
,
0100
0000
0100
0000
,
1000
0000
0001
0000
,
0100
0000
0100
0000
,
0010
0000
1000
0000
,
0001
0000
0010
0000
,
0001
0000
0100
0000
,
0020
0000
0030
0000
,
2000
0000
3000
0000
,
0002
0000
0003
0000
,
0020
0000
0030
0000
,
0200
0000
0300
0000
,
0020
0000
0030
0000
,
0002
0000
0003
0000
,
2002
0000
0000
0000
0000
0000
0000
3003
,
0000
0000
0000
0000
,
1000
0000
0010
0000
,
0100
0100
0100
0000
,
0010
0000
1000
0000
,
0002
0000
0003
0000
,
0001
0000
0010
0000
,
0100
0100
0100
0000
,
0010
0000
0001
0000
,
2000
0000
3000
0000
,
0010
0010
0010
0000
,
1000
0000
0001
0000
,
0010
0010
0010
0000
,
0200
0000
0300
0000
,
0010
0000
0001
0000
,
1000
1000
1000
0000
,
0001
0000
0100
0000
,
0020
0000
0030
0000
,
2002
0000
0000
0000
0000
0000
0000
3003
;
