#TITLE:Reggaetron;
#SUBTITLE:;
#ARTIST:Savant;
#TITLETRANSLIT:;
#SUBTITLETRANSLIT:;
#ARTISTTRANSLIT:;
#GENRE:Complextro;
#CREDIT:;
#BANNER:Reggaetron.png;
#BACKGROUND:Reggaetron-bg.png;
#LYRICSPATH:;
#CDTITLE:cdtitle.png;
#MUSIC:Reggaetron.ogg;
#OFFSET:-0.090875;
#SAMPLESTART:30.810877;
#SAMPLELENGTH:15.360003;
#SELECTABLE:YES;
#BPMS:0.000000=124.999992
,178.000000=62.499996
,180.000000=124.999992
;
#STOPS:60.000000=1.440000,
105.000000=1.440000,
208.000000=1.440000,
237.000000=1.440000
;
#BGCHANGES:;
#KEYSOUNDS:;
#ATTACKS:;

//---------------dance-single - ----------------
#NOTES:
     dance-single:
     :
     Challenge:
     12:
     0.557078,0.554636,0.372865,0.629209,0.337909,502.000000,454.000000,48.000000,81.000000,4.000000,0.000000,0.557078,0.554636,0.372865,0.629209,0.337909,502.000000,454.000000,48.000000,81.000000,4.000000,0.000000:
// measure 0
0000
0000
0000
0000
,  // measure 1
0000
0000
0000
0000
,  // measure 2
0000
0000
0000
0000
,  // measure 3
0000
0000
0000
0000
,  // measure 4
1000
0100
1000
0100
0220
0330
0220
0330
,  // measure 5
0001
0000
0010
0000
0001
0000
0100
0002
0000
0000
1003
0100
0000
0000
0010
0000
,  // measure 6
0001
0100
0001
0100
0220
0330
0220
0330
,  // measure 7
0010
1000
0010
1000
0100
0010
0001
0100
0001
0100
0010
1000
,  // measure 8
0002
1003
0020
1030
0002
1003
0200
1300
,  // measure 9
0002
0103
2000
3100
0020
1030
0200
0310
,  // measure 10
0002
1003
0020
1030
0200
0301
0200
1300
,  // measure 11
0020
0130
0020
2030
3002
1003
0200
0320
,  // measure 12
0032
0103
0020
0032
0023
1030
0200
0320
,  // measure 13
2030
3010
0200
2300
3020
0130
0010
0100
,  // measure 14
0002
1003
0100
1000
0200
0310
0001
1000
,  // measure 15
1001
0000
0000
0000
0011
0000
0000
0010
0001
0000
0100
0000
1000
0000
1000
0000
,  // measure 16
0100
0000
0010
0000
1010
0000
0000
0010
1000
0000
0100
0000
0010
0001
0010
0000
,  // measure 17
1000
0000
0010
0000
0110
0000
0000
0100
1000
0000
0010
0000
0001
0000
0001
0000
,  // measure 18
0010
0000
0000
0000
0000
0000
1000
0000
0000
0000
0000
0000
1010
0000
0000
0000
0000
0000
0000
0000
0000
1000
0000
0000
0100
0000
0000
0000
0000
0000
0010
0000
0000
0000
0000
0000
0001
0000
0000
0000
0010
0000
0000
0000
0001
0000
0000
0000
,  // measure 19
0100
0000
0010
0000
1010
0000
0000
0010
1000
0000
0100
0000
0001
0000
0001
0000
,  // measure 20
0100
0000
0010
0000
0011
0000
0000
0010
0001
0000
0100
0000
0010
1000
0010
1000
,  // measure 21
0100
0000
0010
0000
0110
0000
0000
1000
0100
0000
0001
0000
0100
0000
0100
0000
,  // measure 22
1000
0000
0010
0000
0110
0000
0000
0100
0010
0000
0000
0100
0010
0000
0100
0000
,  // measure 23
1001
0000
MMMM
0000
1010
0000
0000
0010
1000
0000
0100
0000
0011
0000
0000
0010
,  // measure 24
0001
0000
0100
0000
1010
0000
0000
0010
1000
0000
0100
0000
0010
0001
0100
0000
,  // measure 25
1000
0000
0100
0000
0110
0000
0000
0010
1000
0000
0100
0000
0110
0000
0000
0010
,  // measure 26
0001
0000
0100
0000
1001
0000
0000
0000
1100
0000
0000
0100
1000
0000
0010
0000
,  // measure 27
0101
0000
0000
0100
0001
0000
0010
0000
1100
0000
0000
0100
1000
0000
0010
0000
,  // measure 28
0100
0001
0010
0000
1000
0000
0010
0000
0110
0000
0000
0100
1000
0000
0010
0000
,  // measure 29
0110
0000
0000
0100
0001
0000
0010
0000
0110
0000
0010
0001
0100
0000
1000
0000
,  // measure 30
0100
0001
0100
0001
0020
0000
0031
0000
1001
0000
0000
0000
1000
0000
0020
0030
,  // measure 31
0100
0000
0100
0000
0001
0000
0020
0030
0001
0000
0000
0000
0001
0000
0020
0030
,  // measure 32
0100
0000
0100
0000
1000
0000
0002
0000
1003
0000
0000
0000
0001
0000
0200
0300
,  // measure 33
0010
0000
0010
0000
1000
0000
0200
0300
0000
0000
0000
0100
1000
0000
0200
0300
,  // measure 34
0000
0000
0010
0000
0010
0000
0002
0003
1000
0000
0000
0010
0100
0000
0100
0000
,  // measure 35
0002
0000
1000
0000
1003
0000
0001
0010
0200
0000
0000
0310
0001
0000
0001
0000
,  // measure 36
0000
0000
0001
0000
1000
0000
0010
0000
0100
0000
0000
0100
0010
0000
0010
0000
,  // measure 37
2000
0000
0001
0000
3001
0000
1000
0100
0020
0000
0000
0031
1000
0000
1000
0000
,  // measure 38
0000
0000
0010
0000
0100
0000
0100
0000
0001
0000
0000
0001
0100
0000
0010
0000
,  // measure 39
2000
0000
0100
0000
3100
0000
0010
0001
2000
0000
0000
3001
0100
0000
0010
0000
,  // measure 40
0000
0000
0010
0000
1000
0000
0001
0000
1000
0000
0000
1000
0100
0000
0010
0000
,  // measure 41
0002
0000
0100
0000
0103
0000
0010
1000
0002
0000
0000
0013
0100
0000
1000
0000
,  // measure 42
0000
0000
1000
0000
0010
0000
0100
0000
0002
0000
0000
0013
0100
1000
0000
1000
,  // measure 43
0010
0100
0001
1000
0100
0010
0002
0000
0000
0203
0000
0000
,  // measure 44
2300
0000
0000
0000
0000
0000
0000
0000
3100
0000
0000
0000
0010
0000
0100
0000
0002
0000
0000
0000
0000
0000
0000
0000
0013
0001
1000
0010
0100
0000
0001
0000
,  // measure 45
2001
0000
3000
0100
0002
0000
0103
0000
2000
0000
3100
0000
0010
0000
0010
0000
,  // measure 46
0120
0000
0000
0031
0200
0000
1300
0000
0200
0000
0310
0000
1000
0000
1000
0000
,  // measure 47
1002
0000
0003
0100
2000
0000
3100
0000
0002
0000
0103
0000
0010
0000
0010
0000
,  // measure 48
0120
0000
0000
1030
0200
0000
0301
0000
0200
0000
1300
0000
0100
0000
1000
0000
,  // measure 49
2001
0000
3000
0001
0100
0000
0001
0000
2001
0000
3010
0000
1000
0000
1000
0000
,  // measure 50
1002
0000
0003
1000
0100
0000
1000
0000
1002
0000
0013
0000
0001
0000
0100
0000
,  // measure 51
0210
0000
0300
0001
0200
0000
1300
0000
0200
0000
0301
0000
0200
0000
0310
0000
,  // measure 52
0110
0000
0000
0000
1010
0000
0000
0010
1000
0000
0100
0000
0001
0100
0001
0000
,  // measure 53
0100
0000
0010
0000
0011
0000
0000
0010
0001
0000
0100
0000
0010
1000
0010
0000
,  // measure 54
0001
0000
0010
0000
0110
0000
0000
0100
0001
0000
0010
0000
1000
0010
1000
0000
,  // measure 55
0010
0000
0000
0000
0000
0000
0001
0000
0000
0000
0000
0000
0011
0000
0000
0000
0000
0000
0000
0000
0000
0001
0000
0000
0100
0000
0000
0000
0000
0000
0010
0000
0000
0000
0000
0000
1000
0000
0000
0000
0010
0000
0000
0000
1000
0000
0000
0000
,  // measure 56
0100
0000
0010
0000
0011
0000
0000
0010
0001
0000
0100
0000
1010
0000
0000
0010
,  // measure 57
1000
0000
0100
0000
0011
0000
0000
0010
0001
0000
0100
0000
1000
0100
1000
0100
,  // measure 58
0010
0000
0100
0000
0101
0000
0000
0010
1000
0000
1000
0000
1100
0000
0000
0010
,  // measure 59
0001
0001
0101
0000
1001
0000
0000
0000
;

//---------------dance-single - ----------------
#NOTES:
     dance-single:
     :
     Medium:
     7:
     0.328476,0.369758,0.256345,0.225272,0.000000,296.000000,263.000000,33.000000,29.000000,4.000000,0.000000,0.328476,0.369758,0.256345,0.225272,0.000000,296.000000,263.000000,33.000000,29.000000,4.000000,0.000000:
0000
0000
0000
0000
,
0000
0000
0000
0000
,
0000
0000
0000
0000
,
0000
0000
0000
0000
,
1000
0000
0100
0000
0020
0030
0020
0030
,
0001
0100
1000
0100
,
0001
0000
0100
0000
0020
0030
0020
0030
,
1000
0100
0010
0001
,
1000
0010
0100
0001
,
1000
0100
0010
0001
,
1000
0010
2000
3200
,
0320
0000
0031
1000
0002
0000
1003
0010
,
0200
0000
0301
0010
0200
0000
0310
0001
,
2000
0000
3001
0100
0020
0000
1030
0000
,
0002
0013
0200
1300
,
1001
0000
0001
0000
0101
0000
0001
0100
,
0010
1000
0100
0000
0110
0000
0010
0001
,
0100
0010
1000
0000
1010
0000
1000
0100
,
0010
0001
0100
0000
1010
0000
0001
0001
,
0001
0000
1000
0000
1100
0000
1000
0100
,
0010
0001
0100
0000
0110
0000
0100
0001
,
1000
0100
0010
0000
0010
0000
0100
0000
,
0100
1001
0110
1001
,
MMMM
0000
1000
0000
0010
1000
0100
0000
,
0010
0001
0100
0000
0010
1000
0100
1000
,
0100
0000
0010
0000
0001
0100
0010
0000
,
1000
0100
0010
0000
0001
0000
0100
0001
,
0010
0000
0100
1000
0010
0000
1000
0010
,
0100
0001
1000
0000
0001
0000
0010
0001
,
0100
0000
0010
1000
0100
0000
0110
0000
,
1000
0001
1000
0000
1001
0000
0001
0000
,
0100
0100
1000
1000
,
0010
0010
0001
0001
,
0100
0100
0000
0010
,
0000
1000
0001
0000
,
0020
0000
0000
0031
2000
0000
0000
0000
,
3010
0100
0001
0000
,
2000
0000
0000
3100
0020
0000
0000
0000
,
0130
0100
1000
0000
,
0020
0000
0000
1030
0002
0000
0000
0000
,
0103
0010
1000
0000
,
0200
0000
0000
0310
0002
0000
0000
0000
,
1003
0000
0001
0100
0020
0000
0000
1030
,
0001
0001
2000
3200
,
0320
0000
0031
0100
0020
0000
0100
0130
,
1001
0000
1100
0000
1001
0000
1000
0010
,
0100
0110
1001
0010
,
1001
0000
0101
0000
1001
0000
0001
0010
,
0100
0110
1001
1000
,
0002
0000
0103
0000
0100
0010
0010
0010
,
2000
0000
3100
0000
0100
0010
0010
0010
,
0001
0101
1010
1100
,
0011
0000
1000
0000
1010
0000
1000
0100
,
0010
0001
0100
0000
0110
0000
0010
1000
,
0100
0010
0001
0000
0101
0000
0001
0100
,
0010
1000
0100
0000
0011
0000
1000
1000
,
1000
0000
0101
0000
0010
1000
0100
0000
,
0010
0001
0100
0000
0010
1000
0001
1000
,
0100
0000
0011
0000
0100
1000
0010
0000
,
0100
0001
0010
0000
1001
0000
0000
0000
;

//---------------dance-single - ----------------
#NOTES:
     dance-single:
     :
     Hard:
     10:
     0.412815,0.462197,0.163128,0.435009,0.174780,372.000000,351.000000,21.000000,56.000000,4.000000,0.000000,0.412815,0.462197,0.163128,0.435009,0.174780,372.000000,351.000000,21.000000,56.000000,4.000000,0.000000:
0000
0000
0000
0000
,
0000
0000
0000
0000
,
0000
0000
0000
0000
,
0000
0000
0000
0000
,
0001
0100
0001
0100
0020
0030
0020
0030
,
0010
1000
0001
1000
0100
0010
0100
0000
,
1000
0100
1000
0100
0020
0030
0020
0030
,
0001
0000
0000
0001
0100
0000
0010
0000
0000
0000
0010
0000
0100
0000
0001
0000
,
2000
3000
0200
0300
0020
0030
0200
0300
,
2000
3000
0020
0030
0200
0300
0002
0003
,
2000
3000
0200
0300
0020
0000
0032
0000
,
0203
0000
0320
2030
3020
0000
0230
0302
,
2003
0000
3020
2030
3200
0000
0302
0203
,
2300
0000
3020
0230
0302
0000
0013
0000
,
0002
0103
0020
1030
,
1001
0000
0000
0000
1000
0000
0000
0100
0000
0000
1000
0000
0100
0000
0001
0000
,
0100
0000
1000
0000
0001
0000
0000
0100
0000
0000
0010
0000
1000
0000
1000
0000
,
0100
0000
0010
0000
0001
0000
0000
0100
0000
0000
0001
0000
0100
0000
1000
0000
,
0100
0000
0001
0000
1000
0000
0000
0100
0000
0000
0010
0000
0001
0000
1000
0000
,
1000
0000
1000
0000
0001
0000
0000
0100
0000
0000
0001
0000
0010
0000
1000
0000
,
0010
0000
0001
0000
1000
0000
0000
0010
0000
0000
0100
0000
0001
0000
0001
0000
,
1000
0000
0100
0000
0010
0000
0000
0001
0000
0000
1000
0000
0001
0000
0100
0000
,
0010
1000
1001
0000
0110
0000
1001
0000
,
MMMM
0000
0000
0000
1000
0000
0000
0100
0000
0000
0010
0000
0001
0000
0000
0100
,
0000
0000
0010
0000
1000
0000
0000
0100
0000
0000
0010
0000
0001
0000
0100
0000
,
1000
0000
0100
0000
0001
0000
0000
0010
0000
0000
0100
0000
1000
0000
0000
0010
,
0000
0000
0100
0000
0101
0000
0000
0000
1000
0000
0000
0100
0000
0000
0001
0000
,
0100
0000
0000
1000
0000
0000
0010
0000
0100
0000
0000
0001
0000
0000
1000
0000
,
0010
0000
0001
0000
0010
0000
1000
0000
0100
0000
0000
0010
0000
0000
0001
0000
,
1000
0000
0000
0010
0000
0000
0100
0000
0100
0000
0001
0000
0010
0000
1000
0000
,
0010
0001
0100
0000
1001
0000
1000
0100
,
1000
0000
1000
0100
1000
0000
1000
0100
,
1000
0000
1000
0002
0103
0000
0001
0100
,
0001
0000
0000
0000
0001
0000
0100
0000
0000
0000
0000
0100
0001
0000
0100
0000
,
0000
0000
0100
0000
0001
0000
1000
0000
0100
0000
0000
0010
0000
0000
0001
0000
,
2000
0000
0001
0000
3001
0000
0200
0000
0320
0000
0000
1000
0000
0000
0130
0000
,
0001
0000
1000
0000
1000
0000
0100
0000
0010
0000
0000
0100
0000
0000
1000
0000
,
0002
0000
0100
0000
0103
0000
0020
0000
2030
0000
0000
0001
0000
0000
3100
0000
,
0010
0000
0001
0000
0001
0000
1000
0000
0010
0000
0000
0100
0000
0000
0001
0000
,
0020
0000
0100
0000
0130
0000
2000
0000
3002
0000
0000
0100
0000
0000
1003
0000
,
0100
0000
0010
0000
0010
0000
0001
0000
1000
0000
0000
0010
0000
0000
1000
0000
,
0200
0000
0010
0000
0310
0000
0002
0000
0203
0000
0000
0010
0000
0000
0301
0000
,
0100
0000
0010
0000
0010
0000
2000
0000
3200
0000
0000
0310
0000
0001
0000
0100
,
0010
1000
0100
0010
0002
0000
0203
0000
,
2300
0000
0000
0000
3100
0000
0010
0000
0200
0000
0000
0000
0310
1000
0100
0010
,
0011
0000
1100
0000
0011
0001
0100
0010
,
2000
0000
0000
3001
0010
0000
0000
0000
0011
0000
0001
0000
1000
0000
0010
0000
,
1010
0000
0101
0000
1010
1000
0100
0010
,
0002
0000
0000
1003
0010
0000
0000
0000
1010
0000
0010
0000
0200
0000
0000
0000
,
0301
0000
0000
0001
0100
0000
0010
0000
1000
0000
0100
0000
0001
0000
0100
0000
,
1000
0000
0000
1000
0100
0000
0010
0000
0001
0000
0100
0000
0010
0000
1000
0000
,
1001
1100
0011
0101
,
1010
0000
0000
0000
0001
0000
0000
0100
0000
0000
1000
0000
0100
0000
0001
0000
,
0100
0000
0010
0000
1000
0000
0000
0100
0000
0000
0010
0000
0001
0000
0001
0000
,
0100
0000
0010
0000
1000
0000
0000
0100
0000
0000
0001
0000
0100
0000
1000
0000
,
0100
0000
0010
0000
0001
0000
0000
0100
0000
0000
0010
0000
1000
0000
0001
0000
,
0001
0000
0001
0000
1000
0000
0000
0100
0000
0000
0010
0000
1000
0000
0000
0010
,
0000
0000
0100
0000
1000
0000
0000
0100
0000
0000
0010
0000
0001
0000
0100
0000
,
1000
0000
0100
0000
0001
0000
0000
0100
0000
0000
0010
0000
0001
0000
0000
0010
,
0000
1000
1010
0000
1001
0000
0000
0000
;

//---------------dance-single - ----------------
#NOTES:
     dance-single:
     :
     Easy:
     5:
     0.236370,0.369758,0.194200,0.139824,0.000000,213.000000,188.000000,25.000000,18.000000,4.000000,0.000000,0.236370,0.369758,0.194200,0.139824,0.000000,213.000000,188.000000,25.000000,18.000000,4.000000,0.000000:
0000
0000
0000
0000
,
0000
0000
0000
0000
,
0000
0000
0000
0000
,
0000
0000
0000
0000
,
0001
0100
0010
0010
,
1000
0001
1000
0001
,
1000
0100
0010
0010
,
0001
0100
0010
1000
,
0001
0000
0100
0000
,
0010
0000
1000
0000
,
0001
0000
0010
0100
,
1000
0001
0200
0300
,
0010
0010
1000
1000
,
0001
0001
0020
0000
,
0230
0000
2300
0000
,
3001
1000
1000
0010
,
0010
0001
0001
0010
,
1000
0001
0001
0010
,
0010
1000
1000
0100
,
0001
0010
0010
0001
,
0001
0100
0100
1000
,
0100
0010
0010
1000
,
0001
1001
1001
0110
,
MMMM
0001
0100
1000
,
0100
0001
0100
0010
,
0010
1000
0100
0001
,
0100
1001
1000
0010
,
0001
0010
1000
0010
,
0100
0100
0001
0010
,
1000
0010
0001
0100
,
0010
1000
0001
0000
,
0001
0000
0001
0000
,
0001
0000
1000
0000
,
1000
0000
0000
1000
,
0000
1000
1000
0000
,
0200
0000
0320
0000
,
0031
0000
1000
0000
,
0020
0000
0230
0000
,
0301
0000
0010
0000
,
0200
0000
2300
0000
,
3001
0000
0100
0000
,
0020
0000
2030
0000
,
3001
1000
0200
0000
,
0310
0010
0002
0203
,
0320
2030
0002
3003
,
1001
0110
1001
1000
,
1000
1100
0011
0001
,
1001
0110
1001
0001
,
0001
0101
1010
0001
,
1100
0100
1100
0010
,
0101
0100
0101
0010
,
1001
0110
1001
0110
,
1001
1000
1000
0100
,
0100
0001
0001
0100
,
0010
0001
0001
0100
,
0100
1000
1000
0010
,
0001
0100
1000
0100
,
0001
0100
1000
0100
,
0010
1000
0100
0001
,
0100
1001
1001
0000
;

//---------------dance-single - ----------------
#NOTES:
     dance-single:
     :
     Beginner:
     2:
     0.160909,0.207989,0.093216,0.046608,0.000000,145.000000,133.000000,12.000000,6.000000,0.000000,0.000000,0.160909,0.207989,0.093216,0.046608,0.000000,145.000000,133.000000,12.000000,6.000000,0.000000,0.000000:
0000
0000
0000
0000
,
0000
0000
0000
0000
,
0000
0000
0000
0000
,
0000
0000
0000
0000
,
1000
1000
1000
0000
,
0100
0100
0100
0000
,
0010
0010
0010
0000
,
0001
0001
0001
0000
,
1000
0000
0010
0000
,
0100
0000
0001
0000
,
1000
0000
0001
0000
,
0010
0000
0010
0000
,
0001
0001
0001
0000
,
1000
1000
1000
0000
,
0010
0000
0100
0000
,
0110
1001
0000
0001
,
0001
0001
0000
0100
,
0100
0100
0000
0010
,
0010
0010
0000
1000
,
0000
1001
0000
1000
,
1000
1000
0000
0100
,
0100
0100
0000
0010
,
0000
0001
0001
0001
,
0000
1001
0000
1000
,
0000
1000
0000
0001
,
0001
0001
0000
0001
,
0000
0110
1001
0000
,
0001
0000
0001
0000
,
1000
1000
1000
0000
,
1000
0000
0100
0100
,
0100
0000
1001
0000
,
1000
0000
1000
0000
,
1000
0000
0001
0000
,
0001
0000
0000
0001
,
0000
0000
0001
0000
,
0100
0000
0002
0000
,
0003
0000
1000
0000
,
0010
0000
2000
0000
,
3000
0000
0001
0000
,
0010
0000
0002
0000
,
0003
0000
1000
0000
,
0100
0000
2000
0000
,
3000
0000
0010
0000
,
0100
0100
0100
0000
,
0001
0000
2002
3003
,
1000
1000
1000
0000
,
0000
1000
1000
0000
,
0001
0001
0001
0000
,
0000
0001
0001
0000
,
0100
0000
0010
0010
,
0010
0000
1000
1000
,
1000
0000
0001
0000
,
0110
1001
0000
0001
,
0001
0001
0000
0010
,
0010
0010
0000
0100
,
0100
0100
0000
1000
,
0000
0010
0000
0010
,
0000
0010
0000
0100
,
0100
0100
0000
0100
,
0000
1001
1001
0000
;
