#TITLE:Rebellio;
#SUBTITLE:;
#ARTIST:MAX MAXIMIZER VS DJ TOTTO;
#TITLETRANSLIT:;
#SUBTITLETRANSLIT:;
#ARTISTTRANSLIT:;
#GENRE:Eccentric Hardcore;
#CREDIT:;
#BANNER:Rebellio.png;
#BACKGROUND:Rebellio-bg.png;
#LYRICSPATH:;
#CDTITLE:cdtitle.png;
#MUSIC:Rebellio.ogg;
#OFFSET:-0.219036;
#SAMPLESTART:76.116814;
#SAMPLELENGTH:16.410255;
#SELECTABLE:YES;
#DISPLAYBPM:59.000000:234.000000;
#BPMS:0.000000=234.000000
,16.000000=117.000000
,32.000000=58.500000
,34.000000=234.000000
,64.000000=468.000000
,66.000000=234.000000
,97.000000=117.000000
,97.250000=234.000000
,97.500000=468.000000
,98.000000=234.000000
,112.000000=468.000000
,114.000000=234.000000
,128.000000=117.000000
,129.000000=234.000000
,174.000000=468.000000
,176.000000=234.000000
,192.000000=117.000000
,224.000000=58.500000
,228.000000=234.000000
,246.000000=468.000000
,248.000000=234.000000
,250.000000=468.000000
,252.000000=234.000000
,278.000000=468.000000
,280.000000=234.000000
,282.000000=468.000000
,284.000000=234.000000
,306.000000=117.000000
,307.000000=234.000000
,369.000000=468.000000
,369.500000=234.000000
,369.750000=117.000000
,370.000000=234.000000
,375.000000=468.000000
,376.500000=234.000000
,388.000000=468.000000
,389.500000=234.000000
;
#STOPS:64.000000=0.032000,
64.250000=0.032000,
64.500000=0.032000,
64.750000=0.032000,
65.000000=0.032000,
65.250000=0.032000,
65.500000=0.032000,
65.750000=0.032000,
112.000000=0.097000,
112.750000=0.096000,
113.500000=0.064000,
159.000000=0.128000,
159.500000=0.128000,
174.000000=0.096000,
174.750000=0.097000,
175.500000=0.064000,
246.000000=0.096000,
246.750000=0.096000,
247.500000=0.064000,
250.000000=0.096000,
250.750000=0.096000,
251.500000=0.064000,
278.000000=0.097000,
278.750000=0.096000,
279.500000=0.064000,
282.000000=0.096000,
282.750000=0.096000,
283.500000=0.064000,
337.500000=0.257000,
370.500000=0.128000,
372.000000=0.128000,
375.000000=0.096000,
375.750000=0.096000,
376.500000=0.129000,
377.000000=0.128000,
378.500000=0.128000,
381.000000=0.128000,
383.500000=0.128000,
385.000000=0.129000,
388.000000=0.096000,
388.750000=0.096000,
389.500000=0.128000,
390.500000=0.128000
;
#BGCHANGES:;
#KEYSOUNDS:;
#ATTACKS:;

//---------------dance-single - ----------------
#NOTES:
     dance-single:
     :
     Challenge:
     19:
     1.204862,1.869193,0.658537,0.174552,1.102851,1063.000000,980.000000,83.000000,22.000000,0.000000,0.000000,1.204862,1.869193,0.658537,0.174552,1.102851,1063.000000,980.000000,83.000000,22.000000,0.000000,0.000000:
// measure 0
0000
0000
0000
0000
,  // measure 1
0000
0000
0000
0000
,  // measure 2
0000
0000
0000
0000
,  // measure 3
0000
0000
0000
0000
,  // measure 4
1002
0000
0000
0000
0010
0000
0000
0100
0000
0000
0100
0000
0010
0000
0000
0000
,  // measure 5
2003
0000
0010
0000
0010
0000
0000
0100
0000
0000
0100
0000
3010
0000
0000
0000
,  // measure 6
0102
0100
0010
0000
0013
1100
0011
0000
,  // measure 7
2100
0000
0000
0000
0100
0000
0000
0000
0010
0000
0000
0000
0000
0000
0000
0000
3010
0000
0000
0000
0101
0000
0000
0000
1010
0000
0000
0000
0010
1000
0001
0010
,  // measure 8
0200
0000
0000
0000
0000
0000
0000
0000
1300
0001
1000
0001
0100
0010
0100
0010
1001
0000
0000
0000
0000
0000
1100
0000
0000
0000
0000
0000
0011
0000
0000
0000
,  // measure 9
0000
0000
0110
1001
0000
1000
0100
1000
,  // measure 10
0010
0000
0100
0000
0001
0000
1000
0100
1000
0000
0000
1001
0000
0000
0101
0000
,  // measure 11
0000
1010
1001
0011
0000
0001
0100
0010
,  // measure 12
1010
0000
0000
0000
0101
0000
0000
0000
0011
0000
0000
1100
0000
0000
1010
0000
,  // measure 13
0000
0000
1100
0011
0000
0010
0001
0100
,  // measure 14
0010
0000
1000
0000
0001
1000
0001
1000
0200
0000
0000
0000
1300
0001
1000
0001
,  // measure 15
0200
0000
0000
0000
0301
1000
0001
1000
0100
0000
1000
0001
0100
0000
0100
0000
,  // measure 16
0001
1000
0001
1000
0100
0010
0100
0010
0001
0000
0100
0000
0010
0000
0100
0000
,  // measure 17
1000
0000
0100
0000
0010
0000
0100
0000
0001
0000
1000
0100
1000
0000
0001
0000
,  // measure 18
0100
0000
0010
0000
1000
0100
0010
0100
1000
0000
0100
0000
0010
0000
0100
0000
,  // measure 19
0001
0000
0100
0000
0010
0000
0100
0000
1000
0000
0001
0100
0001
0000
0010
0000
,  // measure 20
0100
0000
0010
0001
1000
0000
0010
0000
0100
0000
0010
0000
0001
0000
0010
0000
,  // measure 21
0100
0000
0010
0000
1000
0000
0001
0000
1000
0000
0100
0010
0100
0000
0001
0000
,  // measure 22
0100
0000
0010
0000
0100
1000
0001
1000
0010
0000
1000
0000
0001
0000
0010
0000
,  // measure 23
0100
0000
0010
0000
1000
0000
0010
0000
0100
0000
0010
0001
0010
0000
0001
0000
,  // measure 24
0100
0010
1000
0000
0001
0010
1000
0010
,  // measure 25
0001
0000
0100
0000
1000
0000
0100
0000
0001
0000
0010
0100
0010
0000
0001
0000
,  // measure 26
1000
0000
0010
0000
0100
0010
0100
0001
1000
0000
0100
0000
0001
0000
0100
0000
,  // measure 27
1000
0000
0010
0000
0001
0000
0010
0000
1000
0000
0100
0010
0100
0000
0010
0001
,  // measure 28
1000
0000
0000
0011
0000
0000
1010
0000
0001
0000
0100
0000
1000
0000
0100
0000
,  // measure 29
0001
0000
0010
0000
1000
0000
0010
0000
0001
0000
0100
0010
0100
0000
1000
0000
,  // measure 30
0100
0000
0010
0000
0100
0001
1000
0100
0010
0000
0001
0000
0100
0000
1000
0000
,  // measure 31
0100
0000
0001
1000
0001
0000
0010
0000
1000
0000
0010
0000
0001
0000
0100
0000
,  // measure 32
0020
0000
1030
1000
0010
0010
0100
0100
,  // measure 33
0001
0000
0001
0000
1000
0000
0100
0010
0100
0000
1000
0000
0010
0000
0100
0000
,  // measure 34
0001
0010
0100
1000
0001
0000
0001
0000
0100
0000
0100
0000
0010
0000
0010
0000
,  // measure 35
1000
0000
1000
0000
0001
0000
0010
0100
0010
0000
0001
0000
0100
0000
0010
1000
,  // measure 36
0001
1000
0100
0100
1000
1000
0010
0010
,  // measure 37
0100
0000
0100
0000
0001
0000
0010
0100
0010
0000
0001
0000
1000
0000
0010
0000
,  // measure 38
0100
0001
1000
0100
0010
0000
0010
0000
0001
0000
0001
0000
0100
0000
0100
0000
,  // measure 39
0010
0000
0010
0000
1000
0000
0001
0010
0100
0000
0010
0000
1001
0000
0110
0000
,  // measure 40
1000
1000
0010
0010
0001
0001
0010
0010
,  // measure 41
1000
0000
0100
0010
0100
0000
1000
0000
0010
0000
0100
0000
0001
0010
0100
1000
,  // measure 42
0001
0001
0010
0010
1000
1000
0010
0010
,  // measure 43
0001
0000
1000
0010
1000
0000
0001
1000
0100
0000
0000
0011
0000
0000
1100
0000
,  // measure 44
0001
0001
0100
0100
1000
1000
0001
0010
,  // measure 45
1000
0000
0100
0000
0001
0000
1000
0000
0010
0000
0001
0000
0010
0100
1000
0001
,  // measure 46
0100
0100
1000
1000
0100
0100
0010
1000
,  // measure 47
0100
0000
0001
0000
0100
0000
1000
0000
0010
0100
0001
0000
0100
0000
0001
0000
,  // measure 48
2001
0000
3000
1002
0000
0003
1000
0100
0010
0100
0001
0100
0010
0100
1000
0010
,  // measure 49
0120
0000
0030
0210
0000
0300
0001
0100
0010
0100
1000
0100
0010
0100
0001
1000
,  // measure 50
1200
0000
0300
0021
0000
0030
0001
0010
1000
0010
0001
0100
1000
0100
0001
1000
,  // measure 51
2010
0000
3000
0102
0000
0003
1000
0010
0001
0010
1000
0100
0001
0100
1000
0001
,  // measure 52
0100
0000
0100
0010
1010
0000
0010
0100
0001
1000
1100
0000
0011
0000
0100
1000
,  // measure 53
0001
0000
0000
0000
0001
0000
0100
0000
0110
0000
0000
0000
0010
0000
1000
0000
0001
0000
1000
0000
1100
0000
0000
0000
0011
0000
0000
0000
0001
0100
0010
1000
,  // measure 54
0001
0000
1000
0100
0110
0000
0001
0100
0010
0100
1100
0000
0101
0000
0010
1000
,  // measure 55
0001
0000
0001
0100
0110
0000
1000
0100
0010
0100
0101
0000
1100
0000
0010
0001
,  // measure 56
2000
0000
0000
0000
3001
0000
0100
0000
0010
0000
1000
0000
0100
0000
0010
0000
0001
0000
0000
1000
0001
0100
0001
0100
0010
1000
0010
1000
0001
0100
0001
0100
0020
0000
0000
0000
0000
0000
0000
0000
0000
0000
0000
0000
0000
0000
0000
0000
1030
0000
0000
0001
0000
0000
1000
0000
0100
0000
0010
0001
1000
0000
0001
0000
,  // measure 57
0100
0001
1000
0000
0100
0000
0010
0000
0100
1000
0001
0000
0100
0000
0010
0000
,  // measure 58
1000
0000
0001
0010
0100
0000
0001
0000
0100
0000
0010
0001
1000
0000
0001
0000
,  // measure 59
1000
0010
0100
0001
1000
0000
0001
0010
0100
1000
0001
0000
0100
0000
1000
0000
,  // measure 60
0001
0000
1000
0000
0100
0000
0001
0000
0010
0000
0100
1000
0100
1000
0001
0100
,  // measure 61
0010
0000
1000
0000
0100
0010
0001
1000
0010
0000
0000
0110
0000
0000
0101
0000
,  // measure 62
1001
0000
1000
0000
0010
1000
0001
0010
0100
0000
0000
1100
0000
0000
0011
0000
,  // measure 63
1001
0000
0001
0100
0001
0000
1000
0000
0001
0010
0100
1000
0001
0010
0100
1000
,  // measure 64
0001
0000
1000
0010
0100
0000
0001
0000
0010
0100
1000
0000
0001
0000
1000
0000
,  // measure 65
0100
1000
0001
0000
0100
0000
0010
0000
0100
0001
1000
0000
0100
0000
0010
0000
,  // measure 66
0001
0000
1000
0010
0100
0000
1000
0000
0100
0000
0010
1000
0001
0000
1000
0000
,  // measure 67
0001
0010
0100
1000
0001
0000
1000
0010
0100
0001
1000
0000
0100
0000
0001
0000
,  // measure 68
1000
0000
0001
0000
0100
0000
1000
0000
0010
0000
0100
0001
0100
0001
1000
0100
,  // measure 69
0010
0000
0001
0000
0100
0010
1000
0001
0010
0000
0000
0110
0000
0000
1100
0000
,  // measure 70
1001
0000
0001
0000
0010
0001
1000
0010
0100
0000
0000
0101
0000
0000
1010
0000
,  // measure 71
1001
0000
1000
0100
1000
0000
0001
0100
0010
0000
0100
0000
0010
0000
2001
0000
,  // measure 72
0000
0000
3100
0000
0010
0000
0001
0000
1000
0010
0100
0000
0001
0010
0100
1000
,  // measure 73
0001
0010
1000
0010
0001
0100
1000
0100
,  // measure 74
0001
0010
1000
0010
0001
0100
1000
0100
,  // measure 75
0001
0010
0100
0010
0001
0000
0100
0000
0010
1000
0001
1000
0010
0000
0100
0000
,  // measure 76
0001
0010
0100
1000
0001
1000
0100
0010
0002
0000
0000
0000
1003
0000
0010
0000
,  // measure 77
0001
0000
0010
0000
1000
0000
0100
0000
0001
0000
0100
0000
0010
0000
0001
1000
,  // measure 78
0001
0000
0100
0000
0010
0000
1000
0000
0001
0010
0100
1000
0001
0000
0100
0000
,  // measure 79
1000
0000
0100
0000
0001
0000
0010
0000
1000
0000
0010
0000
0100
0000
1000
0001
,  // measure 80
1000
0000
0010
0000
0100
0000
0010
1000
0001
0000
1000
0000
0100
0000
0001
0000
,  // measure 81
0100
0000
1000
0000
0010
0000
0001
0000
0010
0000
0100
0000
0001
0000
0010
0100
,  // measure 82
0010
0000
0001
0000
1000
0000
0010
0000
0100
0001
1000
0100
0010
0001
0010
0001
,  // measure 83
1000
0001
1000
0001
1000
0010
1000
0010
1000
0001
1000
0001
1000
0100
0010
0001
,  // measure 84
1000
0100
0010
0001
1000
0000
1001
0000
0001
1000
0001
1000
0010
1000
0010
1000
,  // measure 85
0001
1000
0001
1000
0100
1000
0100
1000
0001
1000
0001
1000
0010
1000
0010
1000
,  // measure 86
0001
1000
0100
1000
0001
0000
0000
0000
0100
0001
0100
0001
1000
0001
1000
0001
,  // measure 87
0010
0001
0010
0001
1000
0001
1000
0001
0100
0001
0100
0001
1000
0001
1000
0001
,  // measure 88
0010
0001
1000
0010
1000
0000
0001
0000
1000
0100
1000
0100
0010
0100
0010
0100
,  // measure 89
0010
0001
0010
0001
1000
0001
1000
0001
0100
0001
0100
0001
0100
0010
0100
0010
,  // measure 90
1000
0010
1000
0010
0100
0000
0000
0000
0001
0010
0100
1000
0001
1000
0100
0010
,  // measure 91
0001
0010
0100
1000
0001
1000
0100
0010
0001
0010
0100
1000
0001
1000
0100
0010
,  // measure 92
0001
1000
0010
0100
0002
0000
0003
0000
1001
0000
1001
0000
0100
0010
0100
0000
,  // measure 93
1001
0000
1100
0000
0010
0000
0001
0100
0001
0000
1000
0000
0110
0000
0000
0110
,  // measure 94
0000
0000
0110
0000
1001
0000
0001
1000
0001
0000
0110
0000
1100
0000
0010
0000
,  // measure 95
0001
0000
0100
0000
1010
0000
0001
0100
0001
0100
0001
0100
0010
0000
1010
0000
,  // measure 96
1000
0100
1000
0000
0011
0000
0101
0000
0010
0000
1000
0100
1000
0000
0001
0000
,  // measure 97
0110
0000
0000
0110
0000
0000
0110
0000
1001
0000
1001
0000
1000
0010
0100
0001
,  // measure 98
1000
0000
0100
0000
0010
0100
1000
0001
1000
0010
0100
0001
1000
0001
0010
0100
,  // measure 99
1000
0001
1000
0010
0200
0000
0000
0000
0000
0000
0000
0000
0000
0000
0000
0000
,  // measure 100
0000
0300
0000
0000
;

//---------------dance-single - ----------------
#NOTES:
     dance-single:
     :
     Hard:
     18:
     1.092650,1.551033,0.531590,0.166618,0.817220,964.000000,897.000000,67.000000,21.000000,0.000000,0.000000,1.092650,1.551033,0.531590,0.166618,0.817220,964.000000,897.000000,67.000000,21.000000,0.000000,0.000000:
0000
0000
0000
0000
,
0000
0000
0000
0000
,
0000
0000
0000
0000
,
0000
0000
0000
0000
,
2001
0000
0000
0000
0010
0000
0000
0100
0000
0000
0100
0000
0010
0000
0000
0000
,
3002
0000
0010
0000
0010
0000
0000
0100
0000
0000
0100
0000
0013
0000
0000
0000
,
2100
0100
0010
0000
3010
0101
1010
0000
,
0102
0000
0100
0000
0010
0000
0000
0000
0013
0000
1100
0000
0011
0000
0001
0100
,
0120
0000
0000
0000
0000
0000
0000
0000
1030
0010
1000
0010
0100
0001
0100
0001
1001
0000
0000
0000
0000
0000
1001
0000
0000
0000
0000
0000
1100
0000
0000
0000
,
0000
0000
1001
1001
0000
0000
1000
0000
,
1000
0000
0000
0000
1000
0000
0001
0100
0001
0000
0000
1001
0000
0000
1001
0000
,
0000
1000
0100
0011
0000
0000
0001
0000
,
0101
0000
0000
0000
1010
0000
0000
0000
1001
0000
0000
1001
0000
0000
0011
0000
,
0000
0000
1001
1001
0000
0000
0001
0000
,
0001
0000
0000
0000
1000
0100
1000
0100
2000
0000
0000
0000
3001
0100
0001
0100
,
0002
0000
0000
0000
1003
0010
1000
0010
1000
0000
0001
0010
0001
0000
1000
0000
,
0040
0000
0000
0000
1030
0010
1000
0010
,
0100
0001
0100
0001
1000
0100
0001
0100
,
1000
0000
0010
0000
1000
0001
1000
0001
1000
0000
0100
0000
1000
0000
0100
0000
,
0010
0001
0010
0001
0100
1000
0100
0001
,
1000
0000
0100
0010
0100
0000
0010
0000
0001
0000
0010
0000
0001
0000
0010
0000
,
0100
1000
0100
1000
0001
0100
1000
0100
,
0001
0000
0010
0000
0001
1000
0001
1000
0001
0000
0100
0000
0001
0000
0100
0000
,
0010
1000
0010
1000
0100
0001
0100
1000
,
0010
0100
0001
0000
1000
0010
1000
0010
,
1000
0100
1000
0100
1000
0010
0001
1000
,
0100
0000
0001
0000
0010
0100
0010
0100
0010
0000
0001
0000
0010
0000
0001
0000
,
1000
0000
0010
0000
1000
0000
0010
0000
0001
0000
0010
0000
1000
0000
0001
0010
,
0001
0000
0000
0110
0000
0000
1100
0000
0001
0000
0010
0000
0001
0000
0010
0000
,
0001
0100
0001
0100
0001
0010
1000
0001
,
0100
0000
1000
0000
0010
0100
0010
0100
0010
0000
1000
0000
0010
0000
1000
0000
,
0100
0001
0100
1000
0001
0100
0010
1000
,
0200
0000
1300
0100
0010
1000
0010
0001
,
1000
0010
0100
1000
0100
0001
1000
0100
,
0010
0001
0010
0001
0010
0000
0001
0000
0100
0000
0010
0000
0001
0000
0010
0000
,
1000
0000
0001
0000
0010
0000
0100
0000
0001
0000
0100
0000
1000
0000
0001
1000
,
0001
0100
0010
1000
0100
0010
1000
0010
,
0001
0100
1000
0100
0001
0010
0100
1000
,
0010
0100
0010
0100
0010
0000
1000
0000
0010
0000
0001
0000
0010
0000
0100
0000
,
0001
0010
0100
0001
0100
1000
1001
0110
,
0001
0100
0010
0001
0010
1000
0100
0001
,
0100
0000
0010
0000
0001
0000
0100
0000
1000
0000
0100
0000
0010
1000
0010
1000
,
0010
0100
0001
0010
1000
0010
0100
1000
,
0010
0000
0100
0000
0001
0000
1000
0001
1000
0000
0000
1100
0000
0000
0011
0000
,
1000
0010
0100
0010
0001
0010
1000
0100
,
0001
0000
1000
0000
0010
0000
0001
0000
0100
0000
0010
0000
1000
0001
1000
0001
,
1000
0100
0010
0001
0100
1000
0100
0001
,
0100
0000
0010
0000
1000
0000
0001
0000
1000
0100
1000
0000
0100
0000
0010
0000
,
0012
0000
0003
1002
0000
0000
1003
0010
0100
0001
0010
0001
0100
0010
1000
0100
,
2100
0000
3000
2001
0000
0000
3010
1000
0100
1000
0010
0100
0001
0010
0001
0100
,
0102
0000
0003
1002
0000
0000
0013
0100
1000
0010
0100
0001
0010
0001
0100
0010
,
2010
0000
3000
2001
0000
0000
3100
0010
0001
0100
0010
1000
0100
1000
0010
0100
,
0001
0000
1000
0100
0011
0000
0010
0100
1000
0000
1010
0000
0101
0000
0001
0000
,
1000
0000
0000
0000
0001
0000
0010
0000
1100
0000
0000
0000
0100
0000
0010
0000
0001
0000
0000
0000
0101
0000
0000
0000
1010
0000
0000
0000
1000
0001
1000
0001
,
1000
0000
0001
0100
1010
0000
1000
0100
0010
0000
0011
0000
0101
0000
0010
1000
,
0001
0000
1000
0100
0011
0000
0001
0100
0010
0000
1010
0000
1100
0000
0010
0001
,
2000
0000
0000
0000
3001
0000
0100
0000
0010
0000
1000
0000
0100
0000
0010
0000
0001
0000
0000
0000
0001
0000
0100
0000
1000
0000
0100
0000
0001
0000
0010
0000
0200
0000
0000
0000
0000
0000
0000
0000
0000
0000
0000
0000
0000
0000
0000
0000
0310
0000
0000
0001
0000
0000
1000
0000
0010
0000
0100
0001
0100
0000
0001
0000
,
1000
0100
1000
0000
0100
0000
0010
0000
0001
0100
0001
0000
0100
0000
0010
0000
,
1000
0000
0001
0010
0001
0000
0100
0000
0001
0000
1000
0010
1000
0000
0001
0000
,
1000
0100
1000
0100
1000
0000
0001
0100
0001
0100
0001
0000
1000
0000
0100
0000
,
0010
0000
0001
0000
0100
0000
0010
0000
1000
0000
0001
0010
0001
0010
0001
0000
,
1000
0000
0010
0000
1000
0010
1000
0010
0100
0000
0000
0101
0000
0000
1010
0000
,
0001
0000
0010
0000
0001
0010
0001
0010
0100
0000
0000
1100
0000
0000
0011
0000
,
1000
0000
0001
0100
0001
0000
1000
0000
0001
0010
0001
0010
0001
0010
0001
0010
,
0100
0000
1000
0001
1000
0000
0010
0000
1000
0010
0100
0000
0001
0000
1000
0000
,
0001
0100
0001
0000
0100
0000
0010
0000
1000
0100
1000
0000
0100
0000
0010
0000
,
0001
0000
1000
0010
1000
0000
0100
0000
1000
0000
0001
0010
0001
0000
1000
0000
,
0001
0100
0001
0100
0001
0000
1000
0100
1000
0100
1000
0000
0001
0000
0100
0000
,
0010
0000
1000
0000
0100
0000
0010
0000
0001
0000
1000
0010
1000
0010
1000
0000
,
0001
0000
0010
0000
0001
0010
0001
0010
0100
0000
0000
1100
0000
0000
0011
0000
,
1000
0000
0010
0000
1000
0010
1000
0010
0100
0000
0000
0101
0000
0000
1010
0000
,
0001
0000
1000
0100
1000
0000
0001
0100
0001
0000
0100
0000
0010
0000
2010
0000
,
0000
0000
3100
0000
0010
0000
0001
0000
1000
0010
1000
0000
0001
0010
0001
0010
,
0001
0010
0001
0010
1000
0010
1000
0010
,
0001
0100
0001
0100
1000
0100
1000
0100
,
0001
0100
0001
0100
0001
0000
1000
0000
0100
1000
0100
1000
0100
0000
0010
0000
,
0001
1000
0001
1000
0001
1000
0001
1000
0002
0000
0000
0000
1003
0000
0010
0000
,
0100
0010
0001
0010
1000
0100
0010
0001
,
0100
0000
1000
0000
0100
0000
0001
0000
1000
0100
1000
0100
1000
0000
0001
0000
,
0100
0010
0100
1000
0100
0001
0010
1000
,
0010
0000
0001
0000
0100
0000
0010
1000
0010
0000
0100
0000
0001
0000
0010
0000
,
0100
0010
1000
0010
0001
0100
0010
1000
,
0100
0000
0001
0000
0100
0000
1000
0000
0001
0100
0001
0100
0010
0000
1000
0000
,
0100
0001
1000
0010
0001
0100
1000
0001
,
0010
0000
1000
0000
0100
0000
0110
0000
0001
0000
0010
0001
0010
0000
0001
1000
,
0001
0000
0100
0001
0100
0000
0001
1000
0001
0000
0010
0001
0010
0000
0001
1000
,
0001
0000
1000
0010
1000
0000
0000
0000
1000
0000
0010
1000
0010
0000
1000
0001
,
1000
0000
0100
1000
0100
0000
1000
0001
1000
0000
0010
1000
0010
0000
1000
0001
,
1000
0000
0001
0010
0100
0000
0010
0000
0001
0000
1000
0010
1000
0000
0001
0100
,
0001
0000
1000
0100
1000
0000
0001
0010
0001
0000
1000
0010
1000
0000
0001
0100
,
0001
0000
1000
0001
1000
0000
0000
0000
0001
0100
0001
0100
0001
0100
0001
0100
,
0010
1000
0010
1000
0010
1000
0010
1000
0001
0100
0001
0100
0001
0100
0001
0100
,
0010
0000
1000
0000
0110
0000
0000
0000
1000
0000
1000
0000
0001
0010
0001
0000
,
1000
0000
0001
0000
0010
0000
0001
0100
0001
0000
0100
0000
1010
0000
0000
1010
,
0000
0000
1010
0000
0101
0000
1000
0010
1000
0000
0001
0000
1000
0000
0100
0000
,
0100
0000
1000
0000
0001
0000
1000
0010
1000
0010
1000
0010
0100
0000
0100
0000
,
0001
1000
0001
0000
0010
0000
0001
0000
1000
0000
0001
1000
0001
0000
0100
0000
,
0110
0000
0000
0110
0000
0000
0110
0000
1000
0000
1000
0000
0001
0100
0001
0100
,
0001
0000
0010
0000
0100
1000
0100
1000
0100
1000
0100
1000
0100
1000
0100
1000
,
0100
1000
0100
1000
0002
0000
0000
0000
0000
0000
0000
0000
0000
0000
0000
0000
,
0000
0003
0000
0000
;

//---------------dance-single - ----------------
#NOTES:
     dance-single:
     :
     Medium:
     15:
     0.820621,1.073792,0.253894,0.198354,0.115046,724.000000,692.000000,32.000000,25.000000,0.000000,0.000000,0.820621,1.073792,0.253894,0.198354,0.115046,724.000000,692.000000,32.000000,25.000000,0.000000,0.000000:
0000
0000
0000
0000
,
0000
0000
0000
0000
,
0000
0000
0000
0000
,
0000
0000
0000
0000
,
1002
0000
0000
0000
0010
0000
0000
1000
0000
0000
1000
0000
0103
0000
0000
0000
,
2001
0000
0010
0000
0010
0000
0000
0001
0000
0000
0001
0000
3100
0000
0000
0000
,
0021
0100
0100
0000
0130
0110
1001
0000
,
1020
0000
0100
0000
0100
0000
0000
0000
0130
0000
0110
0000
1001
0000
0001
1000
,
0200
0000
0000
0000
0000
0000
0300
0000
1000
0000
0000
1000
0000
0000
1000
0000
,
0000
0000
1000
1000
0000
0000
0000
0000
,
0000
0000
0000
0000
0000
0000
1000
0000
0001
0000
0000
0001
0000
0000
0001
0000
,
0000
0001
1000
0001
0000
0000
0000
0000
,
0110
0000
0000
0000
1001
0000
0000
0000
0010
0000
0000
0010
0000
0000
0010
0000
,
0000
0000
0010
0010
0000
0000
0000
0000
,
0000
0000
1000
0100
0001
0000
0001
0100
,
1000
0000
1000
0100
0001
0100
1000
0010
,
0400
0000
0000
0000
0301
0010
0001
0010
,
0001
1000
0001
1000
0001
0100
0010
0100
,
0001
1000
0100
0010
0001
0100
0001
0100
,
0001
1000
0001
1000
0001
0010
1000
0010
,
0001
1000
0010
0100
0010
1000
0010
1000
,
0001
1000
0001
1000
0100
0010
0100
1000
,
0010
0100
0001
0010
0100
1000
0100
1000
,
0001
1000
0001
1000
0010
0001
0010
1000
,
0100
0010
0001
0000
1000
0010
1000
0010
,
1000
0100
1000
0100
1000
0010
0100
0001
,
0010
0001
0100
0010
1000
0100
1000
0100
,
1000
0010
1000
0010
0001
0010
0100
0010
,
1000
0000
0000
1000
0000
0000
1000
0000
0001
0000
0010
0000
0001
0000
0010
0000
,
0001
0100
0001
0100
0001
0010
0100
1000
,
0010
1000
0100
0010
0001
0100
0001
0100
,
0001
0010
0001
0010
1000
0010
0001
0100
,
0020
0000
1030
0010
1000
0010
0001
0010
,
0001
0010
1000
0010
0100
0001
1000
0100
,
0010
0001
1000
0100
1000
0100
0001
0100
,
0001
0100
0010
0001
0100
0010
1000
0100
,
1000
0010
0100
0001
0100
0001
0100
1000
,
0100
1000
0100
0010
1000
0001
0010
0100
,
1000
0010
0001
0010
0001
0010
1000
0010
,
1000
0100
0010
0001
0100
0010
1010
0101
,
0001
0010
0001
0010
1000
0010
1000
0010
,
0001
0010
0100
1000
0001
0100
0010
1000
,
0001
0100
0001
0100
1000
0100
1000
0100
,
0010
0000
1000
0000
0100
0000
0010
0000
0001
0000
0000
0001
0000
0000
0001
0000
,
1000
0010
1000
0010
1000
0100
0001
0100
,
1000
0100
0001
0100
1000
0010
0100
0001
,
0010
1000
0010
1000
0010
0001
0010
0001
,
1000
0001
0100
1000
0100
0001
0010
0100
,
1100
0000
0000
2100
0000
0000
3010
0000
0001
0000
0010
0000
1000
0000
0001
0000
,
0101
0000
0000
0102
0000
0000
0013
0000
1000
0000
0010
0000
0001
0000
1000
0000
,
1010
0000
0000
2010
0000
0000
3100
0000
0001
0000
0100
0000
1000
0000
0010
0000
,
0011
0000
0000
0012
0000
0000
0103
0000
1000
0000
0100
0000
0001
0000
0010
0000
,
1010
0000
0000
1000
0100
0000
0010
0000
0100
0000
1100
0000
0011
0000
0001
0000
,
1001
0000
0000
0001
0100
0000
0010
0000
0100
0000
0101
0000
1010
0000
0010
1000
,
0100
0000
0000
0100
0010
0000
0001
0000
0100
0000
1010
0000
1100
0000
0001
0000
,
0101
0000
0000
0100
0010
0000
1000
0000
0100
0000
0011
0000
0101
0000
1000
0000
,
1200
0320
0032
2003
3020
0032
0023
2030
3200
0000
0000
0000
0020
0000
0000
0330
,
0001
0100
0010
0000
0100
0010
1000
0100
,
0000
0010
0100
1000
0000
0001
0100
0001
,
0010
1000
0001
0100
1000
0001
1000
0010
,
0000
0010
0000
0010
1000
0100
0010
0100
,
1000
0000
0010
0000
1000
0000
0010
0000
0100
0000
0000
0100
0000
0000
0100
0000
,
0001
0000
0010
0000
0001
0000
0010
0000
0100
0000
0000
0100
0000
0000
0100
0000
,
1000
0000
0000
0001
0000
0000
0100
0000
0010
0000
0100
0000
1000
0000
0100
0000
,
0010
0000
0000
1000
0000
0000
0100
0000
0010
0000
0001
0000
0100
0000
0010
0000
,
1000
0100
0010
0000
0100
0010
0001
0100
,
0000
0010
0100
0001
0000
1000
0100
1000
,
0010
0001
1000
0100
0001
1000
0001
0010
,
0000
0010
0000
0010
0001
0100
0010
0100
,
0001
0000
0010
0000
0001
0000
0010
0000
0100
0000
0000
0100
0000
0000
0100
0000
,
1000
0000
0010
0000
1000
0000
0010
0000
0100
0000
0000
0100
0000
0000
0100
0000
,
0001
1000
0001
1000
0100
0001
0100
2000
,
0000
3010
1000
0010
0001
0010
0100
0010
,
1000
0100
1000
0100
0010
0001
0010
0001
,
0100
0001
0100
0001
1000
0010
1000
0010
,
1000
0100
0001
0100
1000
0100
0001
0100
,
1000
0010
0100
0001
0020
0000
0031
0100
,
0001
0100
1000
0100
1000
0100
0010
1000
,
0001
0100
0001
0010
0100
1000
0001
0010
,
0001
0010
1000
0010
1000
0010
0001
1000
,
0010
0100
0001
0010
0001
0100
0010
1000
,
0010
1000
0010
0001
0010
0001
1000
0100
,
0001
1000
0001
0010
0100
0010
0001
0100
,
1000
0100
0001
0100
1000
0100
0001
0010
,
1000
0010
0001
0100
0010
1000
0001
1000
,
0100
1000
0001
1000
0010
1000
0001
1000
,
0100
1000
0001
0000
0010
0001
1000
0001
,
0100
0001
1000
0001
0010
0001
1000
0001
,
0100
0001
1000
0100
1000
0010
0100
0010
,
0001
0010
0100
0010
1000
0010
0100
0010
,
0001
0010
1000
0000
0001
0010
1000
0010
,
0001
0010
1000
0010
0001
1000
0001
0100
,
1000
0100
0002
0000
1003
0001
1000
1000
,
0001
0000
1000
0000
0100
0000
0010
0000
0100
0000
1000
0000
0001
0000
0000
0001
,
0000
0001
0100
0010
0010
0100
0010
1000
,
0001
0010
0100
1000
0100
0001
0100
1000
,
0001
0001
1000
0001
0100
0010
0100
0001
,
1000
0000
0000
1000
0000
0000
1000
0000
0100
0000
0100
0000
0010
0000
0001
0000
,
0200
0000
0301
0100
1000
0100
0001
0010
,
1000
0010
0002
0000
0000
0000
0000
0000
,
0000
0003
0000
0000
;

//---------------dance-single - ----------------
#NOTES:
     dance-single:
     :
     Easy:
     12:
     0.584862,0.795401,0.230091,0.301499,0.035704,516.000000,487.000000,29.000000,38.000000,0.000000,0.000000,0.584862,0.795401,0.230091,0.301499,0.035704,516.000000,487.000000,29.000000,38.000000,0.000000,0.000000:
0000
0000
0000
0000
,
0000
0000
0000
0000
,
0000
0000
0000
0000
,
0000
0000
0000
0000
,
2001
0100
0001
3100
,
1002
0100
1000
0103
,
2010
0001
0010
3001
,
0012
1000
0103
0110
,
2002
0000
0000
3003
1100
0000
0000
1100
,
0000
0000
0001
0100
0000
0000
0000
0000
,
0000
0000
0000
0001
0100
0000
0000
0101
,
0000
1000
0100
1000
0000
0000
0000
0000
,
1010
0000
1001
0000
0011
0000
0000
0011
,
0000
0000
1000
0010
0000
0000
0000
0000
,
0000
0000
1000
0010
1000
0000
0001
0010
,
0001
0000
1000
0010
0100
0001
1000
0000
,
0200
0000
0310
0001
,
1000
0001
0100
0010
,
1000
0010
0100
0001
1000
0000
0100
0000
,
0010
0100
1000
0010
,
0100
0010
1000
0001
1000
0000
0100
0000
,
0010
0001
0100
0010
,
1000
0100
0010
0001
1000
0000
0010
0000
,
0100
0000
0010
1000
0001
0000
1000
0100
,
0010
0001
0100
0000
0010
0000
1000
0000
,
0001
1000
0100
0010
,
0001
0010
0100
1000
0001
0000
0100
0000
,
0010
0000
0100
0000
0001
0000
1000
0001
,
2002
3003
0001
0100
,
0010
1000
0100
0010
,
0001
0100
0010
1000
0001
0000
0010
0000
,
0100
0000
0010
0001
0100
0010
1000
0000
,
0002
1003
0100
0010
,
1000
0000
0010
0000
0100
0000
1000
0100
,
0010
0001
0100
0000
1000
0000
0100
0000
,
0010
0000
1000
0000
0001
0000
0010
0100
,
1000
0001
0100
0000
0010
0000
0001
0000
,
0010
0000
0100
0000
0001
0000
1000
0100
,
0010
0001
0100
0000
0001
0000
0010
0000
,
1000
0010
1000
0000
0010
0000
0011
1100
,
0001
0100
0010
0001
,
0010
0000
0100
0000
0001
0100
0010
1000
,
0100
0001
0100
0010
,
0001
1000
2002
3003
,
0001
0100
1000
0001
,
0010
0000
1000
0000
0001
0010
0100
1000
,
0001
0000
0100
0000
1000
0000
0100
1000
,
0100
0000
0001
0000
1000
0100
0010
0001
,
0100
0000
0000
2001
0000
0000
0010
0000
0001
0000
0001
0000
0010
0000
0001
0000
,
3100
0000
0000
1002
0000
0000
0010
0000
1000
0000
1000
0000
0010
0000
1000
0000
,
0103
0000
0000
2010
0000
0000
0010
0000
0001
0000
0001
0000
0100
0000
0010
0000
,
3100
0000
0000
0012
0000
0000
0010
0000
1000
0000
1000
0000
0100
0000
0010
0000
,
0103
0000
0000
0100
0001
0000
1000
0000
0100
0000
0001
0000
0100
0000
0010
0000
,
0110
0000
0000
0100
1000
0000
0001
0000
0100
0000
1000
0000
0100
0000
0010
0100
,
0001
0000
0000
1000
0100
0000
0010
0000
1000
0000
0010
0000
0100
0000
1000
0000
,
1001
0000
0000
0001
0100
0000
0010
0000
0001
0000
0010
0000
0100
0000
0001
0000
,
2000
3200
0020
0330
,
0001
0000
0100
0000
0010
1000
0010
1000
,
0000
0001
0010
0001
0000
1000
0010
0000
,
1000
0000
1000
0100
0000
0100
0001
0000
,
0100
0000
1000
0000
0010
0100
0001
0000
,
1000
0100
1000
0100
2000
0000
3000
0000
,
0001
0100
0001
0100
0002
0000
0003
0000
,
1000
0000
0100
0000
0010
0001
0100
0010
,
1000
0000
0010
0000
0100
0001
1000
0001
,
1000
0000
0100
0000
0010
0001
0010
0001
,
0000
1000
0010
1000
0000
0001
0010
0000
,
0001
0000
0001
0100
0000
0100
1000
0000
,
0100
0000
0001
0000
0010
0100
1000
0000
,
0001
0100
0001
0100
0002
0000
0003
0000
,
1000
0100
1000
0100
2000
0000
3000
0000
,
0001
0000
0100
0000
0010
1000
0001
0020
,
0000
0000
0130
0000
0010
0100
1000
0001
,
0200
0010
0010
0010
,
0010
0010
0010
0310
,
1000
0100
1000
0000
0001
0100
0001
0000
,
1000
0100
0010
0001
2000
0000
3001
0000
,
0100
1000
0100
0001
,
0010
0000
0100
1000
0001
0010
0100
0000
,
1000
0010
0001
0010
,
1000
0000
0001
0010
0100
0010
0001
0000
,
0010
1000
0001
0100
,
1000
0000
0001
0100
0010
0100
0001
1000
,
0001
1000
0001
1000
0001
1000
0001
1000
,
0001
1000
0001
1000
2100
0000
0100
0000
,
0100
0100
0100
0100
,
0100
3100
0102
0100
,
0100
0100
0100
0100
,
0100
0000
1003
0010
2010
0000
0010
0000
,
0010
0010
0010
0010
,
0010
0000
3010
0000
1000
0001
1000
0001
,
1000
0001
1000
0001
1000
0001
1000
0001
,
1000
0001
2000
0000
3100
0100
0000
0100
,
0100
1000
0100
0022
,
0000
0033
0001
0000
0100
0100
0000
0010
,
0000
0100
0010
2002
0000
3003
1000
1000
,
0000
0001
0001
0000
0100
0000
0001
0000
,
2020
0000
0000
3030
1000
0001
0001
1000
,
0200
0000
1300
0001
1000
0001
1000
0001
,
1000
0001
0200
0000
0000
0000
0000
0000
,
0000
0300
0000
0000
;

//---------------dance-single - ----------------
#NOTES:
     dance-single:
     :
     Beginner:
     9:
     0.429579,0.636321,0.333235,0.269762,0.000000,379.000000,337.000000,42.000000,34.000000,0.000000,0.000000,0.429579,0.636321,0.333235,0.269762,0.000000,379.000000,337.000000,42.000000,34.000000,0.000000,0.000000:
0000
0000
0000
0000
,
0000
0000
0000
0000
,
0000
0000
0000
0000
,
0000
0000
0000
0000
,
2002
0000
0000
3003
,
0220
0000
0000
0330
,
1001
0100
0000
0100
,
1001
0010
0000
0010
,
2002
0000
3003
0000
1000
0000
0000
1000
,
0000
0000
0000
1000
0000
0000
0000
0000
,
0000
0000
0000
0000
0001
0000
0000
0001
,
0000
0001
0000
0001
0000
0000
0000
0000
,
0010
0000
0010
0000
0010
0000
0000
0010
,
0000
0000
0000
0010
0000
0000
0000
0000
,
0000
0001
0001
1000
,
1000
0001
1000
0001
,
0200
0000
0310
1000
,
0010
1000
0001
1000
,
0100
0100
0010
0001
,
0010
0001
1000
0001
,
0100
0010
1000
0100
,
1000
0100
1000
0010
,
0100
0100
0001
0100
,
0001
0100
0001
0010
,
0100
1000
0001
0100
,
0001
0100
0010
1000
,
0001
0001
1000
0100
,
1000
0100
0010
0001
,
2000
3000
0010
1000
,
0010
1000
0100
0010
,
0100
1000
0001
0010
,
0001
0010
0001
0100
,
0020
1030
0010
0100
,
0001
1000
0010
1000
,
0001
1000
0100
0010
,
0001
0010
0100
1000
,
0001
0100
0010
1000
,
0001
0100
0010
1000
,
0001
1000
0100
0010
,
0001
1000
0100
1001
,
0001
0100
0010
1000
,
0010
0100
0001
1000
,
0001
0010
0100
1000
,
0100
0010
0002
0003
,
1000
0010
0100
0001
,
0010
0100
1000
0010
,
1000
0001
1000
0001
,
1000
0100
0010
0001
,
0201
0000
0010
0301
,
1200
0000
0010
1300
,
0012
0000
1000
0103
,
2010
0000
0001
3100
,
1000
0000
1100
0000
1000
0100
1100
0000
,
0001
0000
0101
0000
0001
0100
0101
0000
,
1000
0000
1010
0000
1000
0010
1010
0000
,
0001
0000
0011
0000
0001
0010
0011
0000
,
2000
3002
0200
0303
,
0001
0100
0001
0100
,
1000
0100
1000
0100
,
0001
0001
1000
1000
,
0001
0010
0100
1000
,
0001
0100
2020
3030
,
1000
0100
0022
0033
,
0010
0001
0100
0010
,
1000
0010
0100
0001
,
1000
0100
1000
0100
,
0001
0100
0001
0100
,
1000
1000
0001
0001
,
1000
0010
0100
0001
,
1000
0100
0022
0033
,
0001
0100
2020
3030
,
0010
0000
1000
0000
0001
0000
0000
1000
,
0000
0001
0010
0100
,
0220
0000
0000
0000
,
0000
0000
0000
0330
,
1001
0100
1001
0010
,
1001
0000
0100
0000
2002
3003
0001
0000
,
0100
0010
1000
0100
,
0010
0100
1000
0010
,
0100
0001
0010
0001
,
0100
0010
1000
0001
,
0010
0100
1000
0010
,
0100
0001
1000
0100
,
0100
0010
0010
0001
,
1000
1001
0001
0100
,
0001
0100
0001
0100
,
0001
0000
1000
0100
,
1000
0100
1000
0100
,
1000
0000
0010
0100
,
0010
0100
0010
0100
,
0010
0000
1000
0100
,
0001
0100
1000
0010
,
0100
0000
0002
0003
0101
0000
0000
1100
,
0000
0010
0010
1001
,
0000
0000
1100
0000
0101
0000
0000
0100
,
0000
0100
0000
1001
0000
0000
1010
0000
,
0000
0011
0000
0000
0100
0000
0100
0000
,
1001
0000
0110
2002
,
3003
1001
0100
1001
,
0010
0220
0000
0000
,
0000
0330
0000
0000
;
