#VERSION:0.83;
#TITLE:Razor Sharp;
#SUBTITLE:;
#ARTIST:Pegboard Nerds & Tristam;
#TITLETRANSLIT:;
#SUBTITLETRANSLIT:;
#ARTISTTRANSLIT:;
#GENRE:Glitch Hop;
#ORIGIN:;
#CREDIT:;
#BANNER:Razor Sharp.png;
#BACKGROUND:Razor Sharp-bg.png;
#PREVIEWVID:;
#JACKET:Razor Sharp-jacket.png;
#CDIMAGE:;
#DISCIMAGE:;
#LYRICSPATH:;
#CDTITLE:cdtitle.png;
#MUSIC:Razor Sharp.ogg;
#OFFSET:-0.030418;
#SAMPLESTART:52.383900;
#SAMPLELENGTH:17.454544;
#SELECTABLE:YES;
#DISPLAYBPM:110.000000;
#BPMS:0.000=110.000,
94.000=55.000,
95.000=110.000,
155.000=55.000,
157.000=110.000,
185.000=55.000,
187.000=110.000,
215.000=55.000;
#STOPS:;
#DELAYS:;
#WARPS:;
#TIMESIGNATURES:0.000=4=4;
#TICKCOUNTS:0.000=4;
#COMBOS:0.000=1;
#SPEEDS:0.000=1.000=0.000=0;
#SCROLLS:0.000=1.000;
#FAKES:;
#LABELS:0.000=Song Start;
#BGCHANGES:;
#KEYSOUNDS:;
#ATTACKS:
;

//---------------dance-single - ----------------
#NOTEDATA:;
#CHARTNAME:;
#STEPSTYPE:dance-single;
#DESCRIPTION:;
#CHARTSTYLE:;
#DIFFICULTY:Challenge;
#METER:14;
#RADARVALUES:0.729272,0.832087,0.861656,0.666564,1.028296,628.000000,522.000000,106.000000,82.000000,68.000000,1.000000,0.000000,0.000000,0.000000,0.729272,0.832087,0.861656,0.666564,1.028296,628.000000,522.000000,106.000000,82.000000,68.000000,1.000000,0.000000,0.000000,0.000000;
#CREDIT:;
#OFFSET:-0.020264;
#BPMS:0.000000=110.000000
,94.000000=55.000000
,95.000000=110.000000
,155.000000=55.000000
,157.000000=110.000000
,185.000000=55.000000
,187.000000=110.000000
,215.000000=55.000000
;
#STOPS:;
#DELAYS:;
#WARPS:;
#TIMESIGNATURES:0.000000=4=4
;
#TICKCOUNTS:0.000000=4
;
#COMBOS:0.000000=1
;
#SPEEDS:0.000000=1.000000=0.000000=0
;
#SCROLLS:0.000000=1.000000
;
#FAKES:;
#LABELS:0.000000=Song Start
;
#DISPLAYBPM:110.000000;
#NOTES:
// measure 0
0000
0000
0000
0000
,  // measure 1
0000
0000
0000
0000
,  // measure 2
0000
0000
0000
0000
,  // measure 3
0000
0000
0000
0000
,  // measure 4
1000
0000
1000
0020
0000
0000
0000
0130
0000
0100
0001
0000
0001
0000
0001
1000
,  // measure 5
0100
0010
0100
2000
0000
3010
0100
0001
0000
0001
1000
0200
0000
0310
0100
0010
,  // measure 6
0001
0000
0001
0100
0000
0100
0000
0010
0000
0010
1000
0000
1000
0000
0001
1000
,  // measure 7
0200
0320
0032
2003
0000
3002
2003
3020
0000
2030
3002
0023
0000
0032
2003
3002
,  // measure 8
1003
0000
0000
0000
0010
0000
0100
0000
0000
0000
0010
0000
0000
0000
0001
0000
0000
0000
0010
0000
0100
0000
0000
0000
0010
0000
0000
0000
1000
0000
0000
0001
,  // measure 9
0010
0001
0100
0010
0000
0100
0001
0010
0000
0100
1000
0000
1000
0001
0100
0100
,  // measure 10
0001
0000
0000
0000
0010
0000
0100
0000
0000
0000
0010
0000
0000
0000
1000
0000
0000
0000
0010
0000
0100
0000
0000
0000
0010
0000
0000
0000
0001
0000
0000
1000
,  // measure 11
0010
1000
0100
0010
0000
0100
1000
0010
0000
0100
0001
0000
0001
1000
0100
0100
,  // measure 12
1000
0000
0010
0001
0000
0010
0000
1000
0000
0100
0010
0000
0010
0000
0100
0010
,  // measure 13
0001
0100
0010
1000
0000
1000
0001
0010
0000
0010
0001
0100
0000
0100
0010
1000
,  // measure 14
0001
0000
0010
1000
0000
0010
0000
0001
0000
0100
0010
0000
0010
0000
0100
0010
,  // measure 15
1000
0100
0010
0001
0000
0100
0001
0010
0000
0100
2000
0010
0000
3010
1000
0100
,  // measure 16
1100
MM01
0100
0001
0011
10MM
0020
0130
,  // measure 17
0110
0000
0MM1
0000
1000
0100
1000
0100
0010
0000
00M1
0100
0000
0M10
1010
0000
,  // measure 18
0101
0000
1M0M
0000
0100
0000
1000
0000
1010
0000
M0M1
0000
0100
0001
0100
0001
,  // measure 19
2001
3000
0000
2000
3000
0000
0000
1000
11MM
0000
0010
0001
MM00
0001
1000
0000
,  // measure 20
1010
M0M1
0101
1M0M
1100
MM01
0011
10MM
,  // measure 21
1010
M11M
0101
1MM1
0011
M11M
1100
1MM1
,  // measure 22
0001
M100
0010
1000
0M01
0010
1000
00M1
0100
1000
001M
0100
1000
0M01
0010
0100
,  // measure 23
M110
0000
0101
0000
1001
0000
1100
0000
0110
0000
0011
0000
10M1
0000
0M00
00M0
0000
0000
2002
0000
0000
0000
0000
3003
,  // measure 24
0011
0000
0000
0000
0100
0000
0000
0000
1000
0000
0000
0000
0011
0000
0000
0000
0100
0000
0000
0000
1000
0000
0000
0000
0011
0000
0000
0000
0100
0000
0000
0000
1000
0000
0000
0000
2002
0000
0000
0000
0000
0000
0000
0000
0000
0000
0000
3003
,  // measure 25
1010
0000
0100
0000
0001
0000
1010
0000
0100
0000
0001
0000
1010
0000
0100
0000
0001
0000
2002
0000
0000
0000
0000
3003
,  // measure 26
1100
0000
0010
0000
0001
0000
1100
0000
0010
0000
0001
0000
1100
0000
0010
0000
0001
0000
2002
0000
0000
0000
0000
3003
,  // measure 27
0101
0000
0010
0000
1000
0000
0101
0000
0010
0000
1000
0000
0101
0000
0010
0000
1000
0000
2002
0000
0000
0000
0000
3003
,  // measure 28
1100
0000
0010
0000
0001
0000
0011
0000
0100
0000
1000
0000
1100
0000
0010
0000
0001
0000
2002
0000
0000
0000
0000
3003
,  // measure 29
0101
0000
0010
0000
1000
0000
1010
0000
0100
0000
0001
0000
0101
0000
0010
0000
1000
0000
2002
0000
0000
0000
0000
3003
,  // measure 30
1100
0010
0001
1100
0010
0001
1100
0010
0001
1001
0100
0100
,  // measure 31
1001
0000
0000
0000
0010
0000
0000
0000
0010
0000
0000
0000
1001
0000
0000
0000
1010
0000
0000
0000
0101
0000
0000
0000
0220
0000
0000
0000
0330
0000
0000
0000
0000
0MM0
0000
0000
2002
0000
0000
0000
0000
0000
0000
0000
0000
0000
3003
0000
,  // measure 32
1010
0001
0100
1010
0100
0001
1010
0001
0100
2002
0000
3003
,  // measure 33
0011
1000
0100
0011
0100
1000
0011
1000
0100
2002
0000
3003
,  // measure 34
0101
1000
0010
0101
0010
1000
0101
1000
0010
2002
0000
3003
,  // measure 35
1100
0001
0010
1100
0010
0001
1100
0001
0010
2002
0000
3003
,  // measure 36
0101
1000
0010
1010
0001
0010
0011
1000
0100
2002
0000
3003
,  // measure 37
1100
0001
0010
0011
1000
0010
1010
0001
0100
2002
0000
3003
,  // measure 38
1100
0000
0010
0000
0001
0000
0101
0000
0010
0000
1000
0000
1100
0000
0010
0000
0001
1000
0001
0000
0000
2000
0000
0000
,  // measure 39
0002
0000
0000
0000
0010
0000
0000
3003
2002
0000
0000
0000
3003
0000
0000
0000
0202
0000
0000
0000
0303
0000
0000
0000
0120
0000
0000
0000
1030
0000
0100
0000
,  // measure 40
0000
0010
0001
0000
2002
0000
0003
0000
3001
0100
1000
0100
0001
0000
0001
0010
,  // measure 41
MM0M
0010
1000
0000
1200
0000
0000
0310
0001
0000
0001
0000
0100
0000
0100
0010
,  // measure 42
0000
0000
0010
0000
1000
0001
1000
0000
0200
0000
0000
0000
0000
0000
0000
0000
0301
0000
0100
0000
1000
0000
0010
0000
0001
0000
0000
0000
0001
0000
0010
0000
,  // measure 43
1000
0100
0010
0000
0021
0000
0130
1000
0001
0100
0010
0100
2000
0000
3100
0001
,  // measure 44
0000
0001
0010
0000
2200
0000
3000
0000
1300
0100
0001
0100
1000
0000
1000
0010
,  // measure 45
MM0M
0010
0001
0000
0201
0000
0310
1000
0100
0000
0100
0000
0001
0000
0100
1000
,  // measure 46
0000
0000
1000
0000
0010
0000
0000
0000
0120
0000
0000
0000
1030
0001
1000
0001
2000
0000
3001
1000
0MM0
1000
0000
1000
2002
0000
0000
0000
0003
0000
0000
0000
,  // measure 47
3001
0010
1000
0010
0100
0000
0100
1000
0000
1000
0010
0000
0202
0000
0003
0000
,  // measure 48
031M
1000
0100
1000
001M
0000
1000
0100
M00M
0100
00M1
0000
2M01
0000
3010
1000
,  // measure 49
0100
0000
0000
0000
0001
0000
0000
0000
1000
0000
0000
0000
0010
0000
0001
0000
0000
0000
0010
0000
0001
1000
0001
0000
0200
0000
0000
0000
0000
0000
0000
0000
,  // measure 50
M301
0010
0100
0010
M001
0000
0001
0100
M010
0000
100M
0000
1M20
0000
0031
0010
,  // measure 51
1000
0100
0010
0100
1000
0000
0010
0100
0000
0100
0001
0000
2002
0000
0003
0000
,  // measure 52
301M
0100
1000
0100
001M
0000
1000
0100
20M2
0M00
30M3
0M00
0012
0000
0000
0013
,  // measure 53
1000
0000
0010
0000
0001
0000
0100
0010
0000
0010
1000
0000
2002
0000
3003
0000
;

//---------------dance-single - ----------------
#NOTEDATA:;
#CHARTNAME:;
#STEPSTYPE:dance-single;
#DESCRIPTION:;
#CHARTSTYLE:;
#DIFFICULTY:Hard;
#METER:12;
#RADARVALUES:0.600372,0.635014,0.406441,0.471472,0.829140,517.000000,467.000000,50.000000,58.000000,31.000000,0.000000,0.000000,0.000000,0.000000,0.600372,0.635014,0.406441,0.471472,0.829140,517.000000,467.000000,50.000000,58.000000,31.000000,0.000000,0.000000,0.000000,0.000000;
#CREDIT:;
#OFFSET:-0.020264;
#BPMS:0.000000=110.000000
,94.000000=55.000000
,95.000000=110.000000
,155.000000=55.000000
,157.000000=110.000000
,185.000000=55.000000
,187.000000=110.000000
,215.000000=55.000000
;
#STOPS:;
#DELAYS:;
#WARPS:;
#TIMESIGNATURES:0.000000=4=4
;
#TICKCOUNTS:0.000000=4
;
#COMBOS:0.000000=1
;
#SPEEDS:0.000000=1.000000=0.000000=0
;
#SCROLLS:0.000000=1.000000
;
#FAKES:;
#LABELS:0.000000=Song Start
;
#DISPLAYBPM:110.000000;
#NOTES:
0000
0000
0000
0000
,
0000
0000
0000
0000
,
0000
0000
0000
0000
,
0000
0000
0000
0000
,
0001
0000
0001
0020
0000
0000
0000
0130
0000
0100
1000
0000
1000
0000
1000
0000
,
0001
0000
0100
0020
0000
1030
0001
1000
0000
0100
0010
0200
0000
1300
0001
0000
,
1000
0000
1000
0010
0000
0010
0000
0100
0000
0100
0001
0000
0001
0000
0010
0100
,
2000
0000
0000
3020
0000
0000
0000
0230
0000
0000
0000
0302
0000
0000
1003
0000
,
0001
0000
0010
0100
0000
0100
0000
0010
0000
0001
0100
0000
1000
0000
0100
0000
,
0001
0000
0010
0100
0000
0010
0000
0001
0000
1000
0001
0000
0001
0000
1000
0001
,
1000
0000
0010
0100
0000
0100
0000
0010
0000
1000
0100
0000
0001
0000
0100
0000
,
1000
0000
0010
0100
0000
0010
0000
1000
0000
0001
1000
0000
1000
0000
0001
1000
,
0001
0000
0010
0100
0000
0100
0000
1000
0000
0010
0100
0000
0100
0000
0001
0000
,
1000
0000
0001
0010
0000
0010
0001
1000
0000
1000
0001
0100
0000
0100
0001
0000
,
1000
0000
0100
0010
0000
0010
0000
0001
0000
0100
0010
0000
0010
0000
1000
0000
,
0001
0000
1000
0100
0000
0100
1000
0001
0000
0001
1000
0010
0000
0010
1000
0000
,
0100
MM11
0100
1000
0010
M1M1
0020
1000
,
0130
0000
1MM1
0000
1000
0000
0010
0000
0001
0000
0010
1000
0000
1000
0100
0000
,
0010
11MM
0010
0001
0100
1M1M
0100
0001
,
2000
3000
0000
2000
3000
0000
0000
1000
0100
0000
0010
0001
0000
0001
0100
0000
,
0001
0011
0001
1001
1000
1010
1000
1001
,
0001
0010
0100
0010
1000
0010
0100
0010
,
0001
0100
0000
0100
0010
0000
1000
0100
0000
0100
0010
0000
0001
0100
0000
0010
,
1000
0000
0100
0000
0010
0000
0001
0000
0100
0000
0010
0000
1M01
0000
0M00
00M0
0000
0000
1002
0000
0000
0000
0000
0000
,
1003
0100
0010
0100
1000
0010
1000
0100
0010
2001
0000
0000
,
3001
0100
0010
0100
0001
0010
0001
0100
0010
2001
0000
0000
,
3010
1000
0100
0010
0100
1000
0010
1000
0100
1002
0000
0000
,
0013
0001
0100
0010
0100
0001
0010
0001
0100
2001
0000
0000
,
3001
0010
1000
0001
0100
1000
0010
0100
0001
1002
0000
0000
,
1003
0100
0001
1000
0010
0001
0100
0010
1000
2001
0000
0000
,
3100
1000
0010
0100
0001
0010
0100
1000
0010
1000
0001
0001
,
1000
0000
0000
0000
0001
0000
0000
0000
0001
0000
0000
0000
1000
0000
0000
0000
0010
0000
0000
0000
0100
0000
0000
0000
0220
0000
0000
0000
0330
0000
0000
0000
0000
0MM0
0000
0000
1002
0000
0000
0000
0000
0000
0000
0000
0000
0000
0000
0000
,
0013
0001
0100
1000
0100
0001
0010
0001
0100
2001
0000
0000
,
3010
1000
0100
0001
0100
1000
0010
1000
0100
1002
0000
0000
,
0103
0001
0010
1000
0010
0001
0100
0001
0010
2001
0000
0000
,
3100
1000
0010
0001
0010
1000
0100
1000
0010
1002
0000
0000
,
1003
0010
0100
1000
0100
0010
0100
0001
1000
2001
0000
0000
,
3001
0010
0100
0001
0100
0010
0100
1000
0001
2001
0000
0000
,
3001
0000
0100
0000
0001
0000
1000
0000
0100
0000
1000
0000
0010
0000
0100
0000
0001
0000
2001
0000
0000
3200
0000
0000
,
0320
0000
0000
0030
0110
0000
0000
0000
2002
0000
0000
0000
3003
0000
0000
0000
0022
0000
0000
0000
0033
0000
0000
0000
2100
0000
0000
0000
3001
0000
0100
0000
,
0000
0001
0100
0000
0220
0000
0300
0000
1030
0000
0010
0000
0001
0000
0010
1000
,
0MM0
1000
0100
0000
0012
0000
0000
1003
0100
0000
0001
0000
0100
0000
0010
0001
,
0000
0001
1000
0000
2001
0000
0000
0000
3010
1000
0010
1000
0001
0000
0010
0001
,
0010
0001
1000
0000
1002
0000
0103
0000
0100
0000
1010
0000
2001
0000
3100
0010
,
0000
0010
0100
0000
2002
0000
0003
0000
3001
0000
0100
0000
1000
0000
0100
0001
,
0MM0
0001
0010
0000
2100
0000
3001
0100
0001
0000
0010
0000
0100
0000
1000
0010
,
0000
0000
0010
0000
1000
0000
0000
0000
1001
0000
0000
0000
0001
1000
0001
1000
0001
0000
1000
0001
0000
1000
0000
0001
2002
0000
0000
0000
0003
0000
0000
0000
,
3001
0000
0010
0000
1000
0000
0010
0001
0000
0001
0100
0000
2020
0000
3000
0000
,
1M30
0000
0010
0000
0M01
0000
0010
1000
0MM0
1000
0100
0000
0012
0000
1003
0010
,
1000
0000
0100
0000
0010
0000
0001
0100
0000
0100
0001
0000
2001
0000
0000
0000
,
31M0
1000
0100
1000
00M1
0000
0100
0001
M1M0
0001
1000
0000
2001
0000
3100
0000
,
0100
0000
0011
0000
1002
0000
0103
0010
0000
0010
0100
0000
2002
0000
0003
0000
,
3M01
0000
0010
0000
1M00
0000
0010
0000
MM22
0000
0033
0000
0201
0000
0000
1300
,
0100
0000
0001
0000
0010
0000
0100
1000
0000
1000
0010
0000
2002
0000
3003
0000
;

//---------------dance-single - ----------------
#NOTEDATA:;
#CHARTNAME:;
#STEPSTYPE:dance-single;
#DESCRIPTION:;
#CHARTSTYLE:;
#DIFFICULTY:Medium;
#METER:10;
#RADARVALUES:0.476117,0.503632,0.382055,0.528374,0.540567,410.000000,363.000000,47.000000,65.000000,2.000000,0.000000,0.000000,0.000000,0.000000,0.476117,0.503632,0.382055,0.528374,0.540567,410.000000,363.000000,47.000000,65.000000,2.000000,0.000000,0.000000,0.000000,0.000000;
#CREDIT:;
#OFFSET:-0.020264;
#BPMS:0.000000=110.000000
,94.000000=55.000000
,95.000000=110.000000
,155.000000=55.000000
,157.000000=110.000000
,185.000000=55.000000
,187.000000=110.000000
,215.000000=55.000000
;
#STOPS:;
#DELAYS:;
#WARPS:;
#TIMESIGNATURES:0.000000=4=4
;
#TICKCOUNTS:0.000000=4
;
#COMBOS:0.000000=1
;
#SPEEDS:0.000000=1.000000=0.000000=0
;
#SCROLLS:0.000000=1.000000
;
#FAKES:;
#LABELS:0.000000=Song Start
;
#DISPLAYBPM:110.000000;
#NOTES:
0000
0000
0000
0000
,
0000
0000
0000
0000
,
0000
0000
0000
0000
,
0000
0000
0000
0000
,
0001
0000
0000
0020
0000
0000
0000
0130
0000
0000
0010
0000
0001
0000
0000
0000
,
1000
0000
0000
0020
0000
0000
0030
0200
0000
0000
0300
0020
0000
0000
1030
0000
,
0001
0000
0000
0020
0000
0000
0030
0200
0000
0000
1300
0000
0001
0000
0000
0000
,
2000
0000
0000
3020
0000
0000
0000
0230
0000
0000
0000
0302
0000
0000
0000
0000
,
1003
0000
0001
0000
0010
0000
0000
0200
0000
0000
0310
0000
0001
0000
1000
0000
,
0001
0000
0100
0000
0010
0000
0000
2000
0000
0000
3100
0000
0010
0000
0001
0000
,
0001
0000
1000
0000
0010
0000
0000
0200
0000
0000
0310
0000
1000
0000
0001
0000
,
1000
0000
0100
0000
0010
0000
0000
0002
0000
0000
0103
0000
0010
0000
0010
0000
,
0100
0000
0001
0000
0010
0000
0000
0002
0000
0000
1003
0000
0001
0000
1000
0000
,
0001
0100
0010
0000
0100
0001
0010
0000
,
0100
0000
1000
0000
0010
0000
0000
2000
0000
0000
3001
0000
1000
0000
0001
0000
,
1000
0100
0010
0000
0100
1000
0001
0100
,
0010
2000
3100
0100
0010
0002
0203
0310
,
1000
0000
0200
0000
0310
0000
0001
0000
0011
0000
0000
1100
0000
0000
0011
0000
,
0001
0200
0310
0010
1000
0200
0310
0100
,
2002
0000
0000
3003
0000
0000
0000
0000
1000
0000
0010
0000
0001
0000
0010
0000
,
1000
0100
0100
0010
0010
0001
0001
1000
,
0001
0100
0010
1000
0001
0100
0010
1000
,
0000
1001
0000
0000
1100
0000
0000
1001
0000
0000
0101
0000
0000
1001
0000
0000
,
1000
0000
0001
0000
1000
0000
0001
0000
1000
0000
0001
0000
2000
0000
0000
3000
0000
0000
1002
0000
0000
0000
0000
0000
,
0103
0010
1000
0000
0010
1000
0000
0010
1000
2001
0000
0000
,
3100
0010
0001
0000
0010
0001
0000
0010
0001
1002
0000
0000
,
0013
0100
1000
0000
0100
1000
0000
0100
1000
2001
0000
0000
,
3010
0100
0001
0000
0100
0001
0000
0100
0001
1002
0000
0000
,
0013
0001
1000
0000
1000
0100
0000
0100
1000
2001
0000
0000
,
3010
1000
0001
0000
0001
0100
0000
0100
0001
2001
0000
0000
,
3100
1000
0001
0000
1000
0001
0000
1000
0001
0000
1000
0010
,
0000
0000
0000
0000
0100
0000
0000
0000
0001
0000
0000
0000
0000
0000
0000
0000
1000
0000
0000
0000
0100
0000
0000
0000
0110
0000
0000
0000
0000
0000
0000
0000
0000
0MM0
0000
0000
1002
0000
0000
0000
0000
0000
0000
0000
0000
0000
0000
0000
,
0013
0001
0100
0000
0001
0100
0000
0001
0100
0201
0000
0000
,
0310
1000
0100
0000
1000
0100
0000
1000
0100
2100
0000
0000
,
3100
1000
0010
0000
1000
0010
0000
1000
0010
1020
0000
0000
,
0130
0001
0010
0000
0001
0010
0000
0001
0010
0012
0000
0000
,
1003
0010
0100
0000
0010
0100
0000
0010
0100
0201
0000
0000
,
0301
0010
0100
0000
0010
0100
0000
0010
0100
1200
0000
0000
,
0310
0000
0000
0000
0001
0000
0000
0000
1000
0000
0000
0000
0000
0000
0000
0000
0001
0000
0000
0000
1000
0000
0000
0000
0000
0000
0000
0000
0001
0000
0000
0000
0100
0000
0000
0000
0010
0000
0000
0000
0000
0000
2000
0000
0000
3000
0000
0000
,
0002
0003
1001
0000
2200
0000
3300
0000
0202
0000
0303
0000
0012
0000
0000
1003
,
0000
1000
0010
0000
0210
0000
0000
0000
0301
0000
0010
0000
0100
0000
0100
0010
,
0001
0000
1001
0000
2001
0000
0000
0000
3010
0000
1000
0000
0100
0000
0100
0010
,
0000
0100
1002
0000
0013
0001
0100
0010
,
1000
0000
0100
0000
0210
0000
1300
0000
1000
0000
0010
0000
0210
0000
0000
0301
,
0000
0001
1000
0000
1002
0000
0000
0000
1003
0000
0010
0000
0100
0000
0100
0010
,
1000
0000
0001
0000
1002
0000
0013
0000
0100
0000
0010
0000
0001
0000
0001
1000
,
0000
0000
0001
0000
1002
0000
0103
0010
0100
0010
0100
0000
1002
0000
0000
0000
,
1003
0000
0010
0000
0001
0000
0000
0010
0000
0010
1000
0000
1020
0000
0000
0000
,
1030
0000
0100
0000
0010
0000
0010
0100
1000
0000
1001
0000
2001
0000
0000
0000
,
3001
0000
0100
0000
1000
0000
0100
0001
0000
0000
0001
0000
2001
0000
0000
0000
,
3100
1000
0010
0100
0001
0010
0120
0031
,
0001
0000
0100
0000
0120
0000
0000
1030
0000
1000
0001
0000
1002
0000
0000
0000
,
0013
0000
0100
0000
1000
0000
0010
0100
0020
0000
0030
0000
1002
0000
0000
0000
,
1003
0000
0100
0000
0001
0000
0100
1000
0000
0000
0010
0000
2002
0000
3003
0000
;

//---------------dance-single - ----------------
#NOTEDATA:;
#CHARTNAME:;
#STEPSTYPE:dance-single;
#DESCRIPTION:;
#CHARTSTYLE:;
#DIFFICULTY:Easy;
#METER:6;
#RADARVALUES:0.303089,0.350352,0.349540,0.373926,0.000000,261.000000,218.000000,43.000000,46.000000,0.000000,0.000000,0.000000,0.000000,0.000000,0.303089,0.350352,0.349540,0.373926,0.000000,261.000000,218.000000,43.000000,46.000000,0.000000,0.000000,0.000000,0.000000,0.000000;
#CREDIT:;
#OFFSET:-0.020264;
#BPMS:0.000000=110.000000
,94.000000=55.000000
,95.000000=110.000000
,155.000000=55.000000
,157.000000=110.000000
,185.000000=55.000000
,187.000000=110.000000
,215.000000=55.000000
;
#STOPS:;
#DELAYS:;
#WARPS:;
#TIMESIGNATURES:0.000000=4=4
;
#TICKCOUNTS:0.000000=4
;
#COMBOS:0.000000=1
;
#SPEEDS:0.000000=1.000000=0.000000=0
;
#SCROLLS:0.000000=1.000000
;
#FAKES:;
#LABELS:0.000000=Song Start
;
#DISPLAYBPM:110.000000;
#NOTES:
0000
0000
0000
0000
,
0000
0000
0000
0000
,
0000
0000
0000
0000
,
0000
0000
0000
0000
,
2000
0000
0000
0000
0000
0000
0000
3000
0000
0000
0000
0000
0000
0000
0000
0000
,
0020
0000
0000
0000
0000
0000
0000
0030
0000
0000
0000
0000
0000
0000
0000
0000
,
0200
0000
0000
0000
0000
0000
0000
0300
0000
0000
0000
0000
0000
0000
0000
0000
,
0002
0000
0000
0003
,
1000
0010
1000
0000
1000
0001
1000
0000
,
0001
0000
0001
0000
1000
0100
1000
0000
,
0001
0010
0001
0000
0001
1000
0001
0000
,
1000
0000
1000
0000
0001
0100
0001
0000
,
0010
0100
0010
0000
0001
1000
0001
0000
,
1000
0010
0100
0001
,
1000
0100
1000
0000
0001
0010
0001
0000
,
0100
0010
1000
0001
,
0010
0001
1000
0000
0010
1000
0001
0000
,
1001
0000
0000
0000
0010
0000
0000
0000
2002
0000
0000
3000
0000
0000
0003
0000
,
0100
0001
1000
0000
0100
1000
0001
0000
,
2002
0000
0000
3003
0000
0000
0000
0000
0001
0000
1000
0000
0001
0000
1000
0000
,
0001
0001
1000
1000
,
0001
1000
0001
1000
0001
1000
0001
1000
,
0002
0203
0320
2030
,
3002
0000
1003
2100
,
3001
0100
0001
0102
,
1003
0100
1000
2010
,
3001
0010
0001
0012
,
1003
0010
1000
2001
,
3100
0010
0001
1002
,
0103
0010
1000
2001
,
3010
1000
0100
0011
,
1100
0000
0000
0011
0000
0000
0202
0303
0000
1002
0000
0000
,
0013
0001
0100
2001
,
3010
1000
0100
1002
,
0103
0001
0010
2001
,
3100
1000
0010
0201
,
0310
1000
0100
1200
,
0310
0001
0100
2001
,
3010
0100
0010
2002
,
3003
1001
1200
0000
0320
0000
0031
0000
,
0100
0010
2000
0000
3010
1000
0100
0000
,
0110
0000
1002
0000
0013
0001
0100
0000
,
0001
0000
0020
0000
0130
0010
0001
0000
,
1000
0000
0001
0100
0010
0000
1000
0100
,
0010
0000
0002
0000
1003
0001
1000
0000
,
0110
0000
1002
0000
0013
0100
0010
0100
,
0010
0000
2002
0000
0000
3003
0201
0000
,
0310
1000
0001
0000
1000
0000
0100
0000
,
0011
1100
0011
1200
,
0310
0001
1000
0000
0001
0000
0100
0000
,
1010
0101
1010
1002
,
0013
0100
0010
0000
0001
0000
0100
0000
,
0110
1001
0110
2001
,
3100
0010
0100
0010
0100
0000
2002
3003
;

//---------------dance-single - ----------------
#NOTEDATA:;
#CHARTNAME:;
#STEPSTYPE:dance-single;
#DESCRIPTION:;
#CHARTSTYLE:;
#DIFFICULTY:Beginner;
#METER:2;
#RADARVALUES:0.148641,0.175176,0.138190,0.251994,0.000000,128.000000,111.000000,17.000000,31.000000,0.000000,0.000000,0.000000,0.000000,0.000000,0.148641,0.175176,0.138190,0.251994,0.000000,128.000000,111.000000,17.000000,31.000000,0.000000,0.000000,0.000000,0.000000,0.000000;
#CREDIT:;
#OFFSET:-0.020264;
#BPMS:0.000000=110.000000
,94.000000=55.000000
,95.000000=110.000000
,155.000000=55.000000
,157.000000=110.000000
,185.000000=55.000000
,187.000000=110.000000
,215.000000=55.000000
;
#STOPS:;
#DELAYS:;
#WARPS:;
#TIMESIGNATURES:0.000000=4=4
;
#TICKCOUNTS:0.000000=4
;
#COMBOS:0.000000=1
;
#SPEEDS:0.000000=1.000000=0.000000=0
;
#SCROLLS:0.000000=1.000000
;
#FAKES:;
#LABELS:0.000000=Song Start
;
#DISPLAYBPM:110.000000;
#NOTES:
0000
0000
0000
0000
,
0000
0000
0000
0000
,
0000
0000
0000
0000
,
0000
0000
0000
0000
,
0002
0000
0000
0003
,
0200
0000
0000
0300
,
0020
0000
0000
0030
,
2000
0000
0000
3000
,
0001
0000
0001
0000
,
0010
0000
0001
0000
,
1000
0000
1000
0000
,
0010
0000
1000
0000
,
0001
0000
0010
0000
,
0100
0000
1000
0000
,
0001
0000
0100
0000
,
0010
0000
1000
0000
,
0001
0000
1000
0000
,
0100
0100
0100
0000
,
1000
0000
0001
0000
,
1001
0000
1000
1000
,
1000
0000
0010
0000
,
0100
0000
0001
0000
,
1000
0001
1000
0001
,
2000
0000
3100
2001
,
3000
0001
0000
1002
,
0003
1000
0000
2001
,
3000
0001
0000
1002
,
0003
1000
0000
2001
,
3000
0010
0000
1002
,
0003
0100
0000
2001
,
3000
0001
0000
1000
,
0000
0100
0000
1002
,
0003
1000
0000
2001
,
3000
0001
0000
1002
,
0003
1000
0000
2001
,
3000
0001
0000
1002
,
0003
0100
0000
2001
,
3000
0010
0000
1002
,
0003
1000
0000
1001
,
0000
2000
3000
0001
,
0001
0002
0003
0010
,
0000
0002
0003
1000
,
1000
2000
3000
0010
,
0000
1000
0000
0100
,
0100
0200
0300
1000
,
0000
0002
0003
0100
,
0100
0000
0200
0300
0000
0000
0002
0000
,
0003
0010
0000
0100
,
0100
0100
0100
0200
,
0300
1000
0000
0010
,
0010
0010
0010
0010
,
0000
0100
0000
0001
,
0001
0001
0001
0002
,
0003
0000
1000
0000
0000
0000
2002
3003
;

//---------------dance-single - Lazer Shark by Pegbroad Narfs & Triscuits----------------
#NOTEDATA:;
#CHARTNAME:;
#STEPSTYPE:dance-single;
#DESCRIPTION:Lazer Shark by Pegbroad Narfs & Triscuits;
#CHARTSTYLE:;
#DIFFICULTY:Edit;
#METER:14;
#RADARVALUES:0.729272,0.832087,0.861656,0.666564,1.028296,628.000000,522.000000,106.000000,82.000000,68.000000,1.000000,0.000000,0.000000,0.000000,0.729272,0.832087,0.861656,0.666564,1.028296,628.000000,522.000000,106.000000,82.000000,68.000000,1.000000,0.000000,0.000000,0.000000;
#CREDIT:Lazer Shark by Pegbroad Narfs & Triscuits;
#OFFSET:-0.020264;
#BPMS:0.000000=110.000000
,16.750000=165.000000
,17.500000=55.000000
,17.750000=110.000000
,20.750000=220.000000
,21.000000=73.333000
,21.250000=110.000000
,22.750000=220.000000
,23.000000=73.333000
,23.250000=110.000000
,35.875000=440.000000
,36.000000=110.000000
,39.500000=220.000000
,40.000000=110.000000
,43.875000=440.000000
,44.000000=110.000000
,47.500000=220.000000
,48.000000=110.000000
,64.500000=440.000000
,65.000000=110.000000
,66.500000=440.000000
,67.000000=110.000000
,68.500000=440.000000
,69.000000=220.000000
,70.000000=440.000000
,70.500000=220.000000
,70.750000=440.000000
,71.250000=220.000000
,71.500000=440.000000
,72.000000=110.000000
,72.500000=440.000000
,73.000000=110.000000
,74.500000=440.000000
,75.000000=220.000000
,76.500000=55.000000
,76.750000=220.000000
,77.250000=73.333000
,77.750000=110.000000
,92.000000=440.000000
,94.000000=55.000000
,95.000000=220.000000
,95.500000=110.000000
,95.750000=55.000000
,96.000000=110.000000
,96.333336=220.000000
,96.500000=110.000000
,96.583336=55.000000
,96.666664=220.000000
,96.833336=110.000000
,96.916664=55.000000
,97.000000=110.000000
,97.333336=220.000000
,97.500000=110.000000
,97.583336=55.000000
,97.666664=220.000000
,97.833336=110.000000
,97.916664=55.000000
,98.000000=110.000000
,98.333336=220.000000
,98.500000=110.000000
,98.583336=55.000000
,98.666664=220.000000
,98.833336=110.000000
,98.916664=55.000000
,99.000000=220.000000
,99.500000=110.000000
,99.750000=55.000000
,100.000000=110.000000
,100.333336=220.000000
,100.500000=110.000000
,100.583336=55.000000
,100.666664=220.000000
,100.833336=110.000000
,100.916664=55.000000
,101.000000=110.000000
,101.333336=220.000000
,101.500000=110.000000
,101.583336=55.000000
,101.666664=220.000000
,101.833336=110.000000
,101.916664=55.000000
,102.000000=110.000000
,102.333336=220.000000
,102.500000=110.000000
,102.583336=55.000000
,102.666664=110.000000
,103.000000=220.000000
,103.500000=110.000000
,103.750000=55.000000
,104.000000=110.000000
,104.333336=220.000000
,104.500000=110.000000
,104.583336=55.000000
,104.666664=220.000000
,104.833336=110.000000
,104.916664=55.000000
,105.000000=110.000000
,105.333336=220.000000
,105.500000=110.000000
,105.583336=55.000000
,105.666664=220.000000
,105.833336=110.000000
,105.916664=55.000000
,106.000000=110.000000
,106.333336=220.000000
,106.500000=110.000000
,106.583336=55.000000
,106.666664=220.000000
,106.833336=110.000000
,106.916664=55.000000
,107.000000=220.000000
,107.500000=110.000000
,107.750000=55.000000
,108.000000=110.000000
,108.333336=220.000000
,108.500000=110.000000
,108.583336=55.000000
,108.666664=220.000000
,108.833336=110.000000
,108.916664=55.000000
,109.000000=110.000000
,109.333336=220.000000
,109.500000=110.000000
,109.583336=55.000000
,109.666664=220.000000
,109.833336=110.000000
,109.916664=55.000000
,110.000000=110.000000
,110.333336=220.000000
,110.500000=110.000000
,110.583336=55.000000
,110.666664=220.000000
,110.833336=110.000000
,110.916664=55.000000
,111.000000=220.000000
,111.500000=110.000000
,111.750000=55.000000
,112.000000=110.000000
,112.333336=220.000000
,112.500000=110.000000
,112.583336=55.000000
,112.666664=220.000000
,112.833336=110.000000
,112.916664=55.000000
,113.000000=110.000000
,113.333336=220.000000
,113.500000=110.000000
,113.583336=55.000000
,113.666664=220.000000
,113.833336=110.000000
,113.916664=55.000000
,114.000000=110.000000
,114.333336=220.000000
,114.500000=110.000000
,114.583336=55.000000
,114.666664=220.000000
,114.833336=110.000000
,114.916664=55.000000
,115.000000=220.000000
,115.500000=110.000000
,115.750000=55.000000
,116.000000=110.000000
,116.333336=220.000000
,116.500000=110.000000
,116.583336=55.000000
,116.666664=220.000000
,116.833336=110.000000
,116.916664=55.000000
,117.000000=110.000000
,117.333336=220.000000
,117.500000=110.000000
,117.583336=55.000000
,117.666664=220.000000
,117.833336=110.000000
,117.916664=55.000000
,118.000000=110.000000
,118.333336=220.000000
,118.500000=110.000000
,118.583336=55.000000
,118.666664=220.000000
,118.833336=110.000000
,118.916664=55.000000
,119.000000=220.000000
,119.500000=110.000000
,119.750000=55.000000
,120.000000=110.000000
,120.333336=220.000000
,120.500000=110.000000
,120.583336=55.000000
,120.666664=220.000000
,120.833336=110.000000
,120.916664=55.000000
,121.000000=110.000000
,121.333336=220.000000
,121.500000=110.000000
,121.583336=55.000000
,121.666664=220.000000
,121.833336=110.000000
,121.916664=55.000000
,122.000000=110.000000
,122.333336=220.000000
,122.500000=110.000000
,122.583336=55.000000
,122.666664=220.000000
,122.833336=110.000000
,122.916664=55.000000
,123.000000=110.000000
,123.333336=220.000000
,124.000000=110.000000
,124.333336=220.000000
,125.000000=110.000000
,125.333336=220.000000
,126.000000=55.000000
,126.333336=220.000000
,127.500000=110.000000
,127.750000=55.000000
,128.000000=110.000000
,128.333328=220.000000
,128.500000=110.000000
,128.583328=55.000000
,128.666672=220.000000
,128.833328=110.000000
,128.916672=55.000000
,129.000000=110.000000
,129.333328=220.000000
,129.500000=110.000000
,129.583328=55.000000
,129.666672=220.000000
,129.833328=110.000000
,129.916672=55.000000
,130.000000=110.000000
,130.333328=220.000000
,130.500000=110.000000
,130.583328=55.000000
,130.666672=220.000000
,130.833328=110.000000
,130.916672=55.000000
,131.000000=220.000000
,131.500000=110.000000
,131.750000=55.000000
,132.000000=110.000000
,132.333328=220.000000
,132.500000=110.000000
,132.583328=55.000000
,132.666672=220.000000
,132.833328=110.000000
,132.916672=55.000000
,133.000000=110.000000
,133.333328=220.000000
,133.500000=110.000000
,133.583328=55.000000
,133.666672=220.000000
,133.833328=110.000000
,133.916672=55.000000
,134.000000=110.000000
,134.333328=220.000000
,134.500000=110.000000
,134.583328=55.000000
,134.666672=110.000000
,135.000000=220.000000
,135.500000=110.000000
,135.750000=55.000000
,136.000000=110.000000
,136.333328=220.000000
,136.500000=110.000000
,136.583328=55.000000
,136.666672=220.000000
,136.833328=110.000000
,136.916672=55.000000
,137.000000=110.000000
,137.333328=220.000000
,137.500000=110.000000
,137.583328=55.000000
,137.666672=220.000000
,137.833328=110.000000
,137.916672=55.000000
,138.000000=110.000000
,138.333328=220.000000
,138.500000=110.000000
,138.583328=55.000000
,138.666672=220.000000
,138.833328=110.000000
,138.916672=55.000000
,139.000000=220.000000
,139.500000=110.000000
,139.750000=55.000000
,140.000000=110.000000
,140.333328=220.000000
,140.500000=110.000000
,140.583328=55.000000
,140.666672=220.000000
,140.833328=110.000000
,140.916672=55.000000
,141.000000=110.000000
,141.333328=220.000000
,141.500000=110.000000
,141.583328=55.000000
,141.666672=220.000000
,141.833328=110.000000
,141.916672=55.000000
,142.000000=110.000000
,142.333328=220.000000
,142.500000=110.000000
,142.583328=55.000000
,142.666672=220.000000
,142.833328=110.000000
,142.916672=55.000000
,143.000000=220.000000
,143.500000=110.000000
,143.750000=55.000000
,144.000000=110.000000
,144.333328=220.000000
,144.500000=110.000000
,144.583328=55.000000
,144.666672=220.000000
,144.833328=110.000000
,144.916672=55.000000
,145.000000=110.000000
,145.333328=220.000000
,145.500000=110.000000
,145.583328=55.000000
,145.666672=220.000000
,145.833328=110.000000
,145.916672=55.000000
,146.000000=110.000000
,146.333328=220.000000
,146.500000=110.000000
,146.583328=55.000000
,146.666672=220.000000
,146.833328=110.000000
,146.916672=55.000000
,147.000000=220.000000
,147.500000=110.000000
,147.750000=55.000000
,148.000000=110.000000
,148.333328=220.000000
,148.500000=110.000000
,148.583328=55.000000
,148.666672=220.000000
,148.833328=110.000000
,148.916672=55.000000
,149.000000=110.000000
,149.333328=220.000000
,149.500000=110.000000
,149.583328=55.000000
,149.666672=220.000000
,149.833328=110.000000
,149.916672=55.000000
,150.000000=110.000000
,150.333328=220.000000
,150.500000=110.000000
,150.583328=55.000000
,150.666672=220.000000
,150.833328=110.000000
,150.916672=55.000000
,151.000000=220.000000
,151.500000=110.000000
,151.750000=55.000000
,152.000000=110.000000
,152.333328=220.000000
,152.500000=110.000000
,152.583328=55.000000
,152.666672=220.000000
,152.833328=110.000000
,152.916672=55.000000
,153.000000=110.000000
,153.333328=220.000000
,153.500000=110.000000
,153.583328=55.000000
,153.666672=220.000000
,153.833328=110.000000
,153.916672=55.000000
,154.000000=110.000000
,154.333328=220.000000
,154.500000=110.000000
,154.583328=55.000000
,154.666672=220.000000
,155.000000=55.000000
,157.000000=220.000000
,157.500000=110.000000
,157.750000=55.000000
,158.250000=110.000000
,158.500000=220.000000
,159.250000=110.000000
,159.375000=55.000000
,159.500000=220.000000
,159.750000=110.000000
,160.250000=220.000000
,160.500000=110.000000
,161.000000=220.000000
,161.500000=110.000000
,161.750000=55.000000
,162.000000=220.000000
,163.000000=55.000000
,163.125000=110.000000
,163.250000=220.000000
,163.750000=110.000000
,164.250000=220.000000
,165.000000=55.000000
,165.250000=220.000000
,166.250000=110.000000
,166.375000=55.000000
,166.500000=220.000000
,166.750000=110.000000
,166.875000=55.000000
,167.125000=110.000000
,167.250000=220.000000
,167.750000=110.000000
,168.250000=220.000000
,168.500000=440.000000
,168.750000=110.000000
,169.000000=220.000000
,169.500000=110.000000
,169.750000=55.000000
,170.000000=220.000000
,171.000000=55.000000
,171.125000=110.000000
,171.250000=220.000000
,173.000000=110.000000
,173.500000=220.000000
,173.625000=110.000000
,173.687500=55.000000
,173.750000=220.000000
,173.875000=110.000000
,173.937500=55.000000
,174.000000=220.000000
,174.125000=110.000000
,174.187500=55.000000
,174.250000=220.000000
,174.375000=110.000000
,174.437500=55.000000
,174.500000=220.000000
,174.750000=55.000000
,174.812500=110.000000
,174.875000=220.000000
,175.250000=110.000000
,175.375000=55.000000
,175.500000=220.000000
,175.750000=110.000000
,176.250000=220.000000
,176.500000=110.000000
,177.000000=220.000000
,177.500000=110.000000
,177.750000=55.000000
,178.000000=220.000000
,179.000000=55.000000
,179.125000=110.000000
,179.250000=220.000000
,179.750000=110.000000
,180.250000=220.000000
,180.500000=110.000000
,181.000000=55.000000
,181.125000=110.000000
,181.250000=220.000000
,182.250000=110.000000
,182.375000=55.000000
,182.500000=220.000000
,182.750000=110.000000
,182.875000=55.000000
,183.125000=110.000000
,183.250000=220.000000
,183.750000=110.000000
,184.250000=220.000000
,184.500000=110.000000
,185.000000=55.000000
,187.000000=220.000000
,187.500000=110.000000
,187.750000=55.000000
,188.000000=220.000000
,189.000000=55.000000
,189.125000=110.000000
,189.250000=220.000000
,189.750000=110.000000
,190.250000=220.000000
,190.500000=110.000000
,191.000000=55.000000
,191.250000=110.000000
,191.500000=220.000000
,193.000000=55.000000
,193.125000=110.000000
,193.250000=220.000000
,193.750000=110.000000
,194.250000=220.000000
,194.500000=110.000000
,195.000000=55.000000
,195.125000=110.000000
,195.250000=220.000000
,196.250000=110.000000
,196.375000=55.000000
,196.500000=220.000000
,196.750000=110.000000
,196.875000=55.000000
,197.125000=110.000000
,197.250000=220.000000
,197.750000=110.000000
,198.250000=220.000000
,198.500000=440.000000
,198.750000=110.000000
,199.000000=220.000000
,199.500000=110.000000
,199.750000=55.000000
,200.000000=220.000000
,201.000000=55.000000
,201.125000=110.000000
,201.250000=220.000000
,202.000000=55.000000
,202.125000=110.000000
,202.250000=220.000000
,202.750000=110.000000
,202.875000=55.000000
,203.125000=110.000000
,203.250000=220.000000
,203.625000=110.000000
,203.687500=55.000000
,203.750000=220.000000
,203.875000=110.000000
,203.937500=55.000000
,204.000000=220.000000
,204.125000=110.000000
,204.187500=55.000000
,204.250000=220.000000
,204.375000=110.000000
,204.437500=55.000000
,204.500000=220.000000
,204.750000=55.000000
,204.812500=110.000000
,204.875000=220.000000
,205.250000=110.000000
,205.375000=55.000000
,205.500000=220.000000
,205.750000=110.000000
,206.250000=220.000000
,206.500000=110.000000
,207.000000=55.000000
,207.250000=110.000000
,207.500000=220.000000
,209.000000=55.000000
,209.125000=110.000000
,209.250000=220.000000
,210.500000=110.000000
,210.750000=55.000000
,211.250000=220.000000
,212.250000=110.000000
,212.375000=55.000000
,212.500000=220.000000
,212.750000=110.000000
,212.875000=55.000000
,213.000000=220.000000
,213.250000=110.000000
,213.375000=55.000000
,213.500000=220.000000
,213.750000=110.000000
,214.250000=220.000000
,214.500000=110.000000
,215.000000=55.000000
;
#STOPS:35.875000=0.051000
,39.500000=0.068000
,39.750000=0.068000
,43.875000=0.051000
,47.500000=0.069000
,47.750000=0.068000
,64.500000=0.205000
,66.500000=0.204000
,68.500000=0.205000
,69.000000=0.068000
,69.250000=0.068000
,69.500000=0.068000
,69.750000=0.068000
,70.000000=0.205000
,70.500000=0.068000
,70.750000=0.205000
,71.250000=0.068000
,71.500000=0.204000
,72.500000=0.204000
,74.500000=0.205000
,75.000000=0.069000
,75.250000=0.068000
,75.500000=0.068000
,75.750000=0.068000
,92.000000=0.137000
,92.333336=0.136000
,92.666664=0.137000
,93.000000=0.135000
,93.333336=0.137000
,93.666664=0.136000
,123.333336=0.091000
,123.666664=0.091000
,124.333336=0.091000
,124.666664=0.091000
,125.333336=0.091000
,125.666664=0.091000
,154.666672=0.045000
,154.833328=0.045000
,159.500000=0.069000
,160.250000=0.068000
,162.000000=0.068000
,162.250000=0.068000
,162.500000=0.068000
,162.750000=0.069000
,163.500000=0.068000
,164.250000=0.068000
,164.500000=0.137000
,165.750000=0.067000
,167.500000=0.069000
,168.250000=0.068000
,168.500000=0.051000
,168.625000=0.051000
,170.000000=0.068000
,170.250000=0.069000
,170.500000=0.068000
,170.750000=0.068000
,171.500000=0.067000
,171.750000=0.069000
,172.000000=0.068000
,172.250000=0.069000
,172.500000=0.136000
,174.500000=0.068000
,175.500000=0.068000
,176.250000=0.068000
,178.000000=0.069000
,178.250000=0.068000
,178.500000=0.068000
,178.750000=0.068000
,179.500000=0.068000
,180.250000=0.068000
,181.500000=0.069000
,181.750000=0.068000
,183.500000=0.068000
,184.250000=0.068000
,188.000000=0.068000
,188.250000=0.069000
,188.500000=0.068000
,188.750000=0.068000
,189.500000=0.069000
,190.250000=0.068000
,192.000000=0.068000
,192.250000=0.068000
,192.500000=0.068000
,192.750000=0.068000
,193.500000=0.068000
,194.250000=0.068000
,195.500000=0.068000
,195.750000=0.069000
,197.500000=0.068000
,198.250000=0.068000
,198.500000=0.051000
,198.625000=0.051000
,200.000000=0.069000
,200.250000=0.068000
,200.500000=0.068000
,200.750000=0.068000
,201.500000=0.068000
,201.750000=0.068000
,204.500000=0.068000
,205.500000=0.069000
,206.250000=0.068000
,208.000000=0.068000
,208.250000=0.068000
,208.500000=0.068000
,208.750000=0.069000
,209.500000=0.068000
,209.750000=0.068000
,211.750000=0.068000
,213.500000=0.068000
,214.250000=0.068000
;
#DELAYS:;
#WARPS:;
#TIMESIGNATURES:0.000000=4=4
;
#TICKCOUNTS:0.000000=4
;
#COMBOS:0.000000=1
;
#SPEEDS:0.000000=1.000000=0.000000=0
;
#SCROLLS:0.000000=1.000000
;
#FAKES:;
#LABELS:0.000000=Song Start
;
#DISPLAYBPM:110.000000;
#NOTES:
0000
0000
0000
0000
,
0000
0000
0000
0000
,
0000
0000
0000
0000
,
0000
0000
0000
0000
,
1000
0000
1000
0020
0000
0000
0000
0130
0000
0100
0001
0000
0001
0000
0001
1000
,
0100
0010
0100
2000
0000
3010
0100
0001
0000
0001
1000
0200
0000
0310
0100
0010
,
0001
0000
0001
0100
0000
0100
0000
0010
0000
0010
1000
0000
1000
0000
0001
1000
,
0200
0320
0032
2003
0000
3002
2003
3020
0000
2030
3002
0023
0000
0032
2003
3002
,
1003
0000
0000
0000
0010
0000
0100
0000
0000
0000
0010
0000
0000
0000
0001
0000
0000
0000
0010
0000
0100
0000
0000
0000
0010
0000
0000
0000
1000
0000
0000
0001
,
0010
0001
0100
0010
0000
0100
0001
0010
0000
0100
1000
0000
1000
0001
0100
0100
,
0001
0000
0000
0000
0010
0000
0100
0000
0000
0000
0010
0000
0000
0000
1000
0000
0000
0000
0010
0000
0100
0000
0000
0000
0010
0000
0000
0000
0001
0000
0000
1000
,
0010
1000
0100
0010
0000
0100
1000
0010
0000
0100
0001
0000
0001
1000
0100
0100
,
1000
0000
0010
0001
0000
0010
0000
1000
0000
0100
0010
0000
0010
0000
0100
0010
,
0001
0100
0010
1000
0000
1000
0001
0010
0000
0010
0001
0100
0000
0100
0010
1000
,
0001
0000
0010
1000
0000
0010
0000
0001
0000
0100
0010
0000
0010
0000
0100
0010
,
1000
0100
0010
0001
0000
0100
0001
0010
0000
0100
2000
0010
0000
3010
1000
0100
,
1100
MM01
0100
0001
0011
10MM
0020
0130
,
0110
0000
0MM1
0000
1000
0100
1000
0100
0010
0000
00M1
0100
0000
0M10
1010
0000
,
0101
0000
1M0M
0000
0100
0000
1000
0000
1010
0000
M0M1
0000
0100
0001
0100
0001
,
2001
3000
0000
2000
3000
0000
0000
1000
11MM
0000
0010
0001
MM00
0001
1000
0000
,
1010
M0M1
0101
1M0M
1100
MM01
0011
10MM
,
1010
M11M
0101
1MM1
0011
M11M
1100
1MM1
,
0001
M100
0010
1000
0M01
0010
1000
00M1
0100
1000
001M
0100
1000
0M01
0010
0100
,
M110
0000
0101
0000
1001
0000
1100
0000
0110
0000
0011
0000
10M1
0000
0M00
00M0
0000
0000
2002
0000
0000
0000
0000
3003
,
0011
0000
0000
0000
0100
0000
0000
0000
1000
0000
0000
0000
0011
0000
0000
0000
0100
0000
0000
0000
1000
0000
0000
0000
0011
0000
0000
0000
0100
0000
0000
0000
1000
0000
0000
0000
2002
0000
0000
0000
0000
0000
0000
0000
0000
0000
0000
3003
,
1010
0000
0100
0000
0001
0000
1010
0000
0100
0000
0001
0000
1010
0000
0100
0000
0001
0000
2002
0000
0000
0000
0000
3003
,
1100
0000
0010
0000
0001
0000
1100
0000
0010
0000
0001
0000
1100
0000
0010
0000
0001
0000
2002
0000
0000
0000
0000
3003
,
0101
0000
0010
0000
1000
0000
0101
0000
0010
0000
1000
0000
0101
0000
0010
0000
1000
0000
2002
0000
0000
0000
0000
3003
,
1100
0000
0010
0000
0001
0000
0011
0000
0100
0000
1000
0000
1100
0000
0010
0000
0001
0000
2002
0000
0000
0000
0000
3003
,
0101
0000
0010
0000
1000
0000
1010
0000
0100
0000
0001
0000
0101
0000
0010
0000
1000
0000
2002
0000
0000
0000
0000
3003
,
1100
0010
0001
1100
0010
0001
1100
0010
0001
1001
0100
0100
,
1001
0000
0000
0000
0010
0000
0000
0000
0010
0000
0000
0000
1001
0000
0000
0000
1010
0000
0000
0000
0101
0000
0000
0000
0220
0000
0000
0000
0330
0000
0000
0000
0000
0MM0
0000
0000
2002
0000
0000
0000
0000
0000
0000
0000
0000
0000
3003
0000
,
1010
0001
0100
1010
0100
0001
1010
0001
0100
2002
0000
3003
,
0011
1000
0100
0011
0100
1000
0011
1000
0100
2002
0000
3003
,
0101
1000
0010
0101
0010
1000
0101
1000
0010
2002
0000
3003
,
1100
0001
0010
1100
0010
0001
1100
0001
0010
2002
0000
3003
,
0101
1000
0010
1010
0001
0010
0011
1000
0100
2002
0000
3003
,
1100
0001
0010
0011
1000
0010
1010
0001
0100
2002
0000
3003
,
1100
0000
0010
0000
0001
0000
0101
0000
0010
0000
1000
0000
1100
0000
0010
0000
0001
1000
0001
0000
0000
2000
0000
0000
,
0002
0000
0000
0000
0010
0000
0000
3003
2002
0000
0000
0000
0000
0000
0000
3003
0202
0000
0000
0000
0303
0000
0000
0000
0120
0000
0000
0000
1030
0000
0100
0000
,
0000
0010
0001
0000
2002
0000
0000
0003
3001
0100
1000
0100
0001
0000
0001
0010
,
MM0M
0010
1000
0000
1200
0000
0000
0310
0001
0000
0001
0000
0100
0000
0100
0010
,
0000
0000
0010
0000
1000
0001
1000
0000
0200
0000
0000
0000
0000
0000
0000
0000
0301
0000
0100
0000
1000
0000
0010
0000
0001
0000
0000
0000
0001
0000
0010
0000
,
1000
0100
0010
0000
0021
0000
0130
1000
0001
0100
0010
0100
2000
0000
3100
0001
,
0000
0001
0010
0000
2200
0000
0000
3000
1300
0100
0001
0100
1000
0000
1000
0010
,
MM0M
0010
0001
0000
0201
0000
0310
1000
0100
0000
0100
0000
0001
0000
0100
1000
,
0000
0000
1000
0000
0010
0000
0000
0000
0120
0000
0000
0000
1030
0001
1000
0001
2000
0000
3001
1000
0MM0
1000
0000
1000
2002
0000
0000
0000
0000
0000
0003
0000
,
3001
0010
1000
0010
0100
0000
0100
1000
0000
1000
0010
0000
0202
0000
0003
0000
,
031M
1000
0100
1000
001M
0000
1000
0100
M00M
0100
00M1
0000
2M01
0000
3010
1000
,
0100
0000
0000
0000
0001
0000
0000
0000
1000
0000
0000
0000
0010
0000
0001
0000
0000
0000
0010
0000
0001
1000
0001
0000
0200
0000
0000
0000
0000
0000
0000
0000
,
M301
0010
0100
0010
M001
0000
0001
0100
M010
0000
100M
0000
1M20
0000
0031
0010
,
1000
0100
0010
0100
1000
0000
0010
0100
0000
0100
0001
0000
2002
0000
0003
0000
,
301M
0100
1000
0100
001M
0000
1000
0100
20M2
0M00
00M0
3M03
0012
0000
0000
0013
,
1000
0000
0010
0000
0001
0000
0100
0010
0000
0010
1000
0000
2002
0000
3003
0000
;
