#VERSION:0.83;
#TITLE:REAL EXISTENCE;
#SUBTITLE:;
#ARTIST:Band-Maid;
#TITLETRANSLIT:;
#SUBTITLETRANSLIT:;
#ARTISTTRANSLIT:;
#GENRE:J-Metal;
#ORIGIN:;
#CREDIT:;
#BANNER:REAL EXISTENCE.png;
#BACKGROUND:REAL EXISTENCE-bg.png;
#PREVIEWVID:;
#JACKET:REAL EXISTENCE-jacket.png;
#CDIMAGE:;
#DISCIMAGE:;
#LYRICSPATH:;
#CDTITLE:cdtitle.png;
#MUSIC:REAL EXISTENCE.ogg;
#OFFSET:0.994690;
#SAMPLESTART:64.924255;
#SAMPLELENGTH:10.378384;
#SELECTABLE:YES;
#BPMS:0.000=185.000;
#STOPS:199.500=0.973;
#DELAYS:;
#WARPS:;
#TIMESIGNATURES:0.000=4=4;
#TICKCOUNTS:0.000=4;
#COMBOS:0.000=1;
#SPEEDS:0.000=1.000=0.000=0;
#SCROLLS:0.000=1.000;
#FAKES:;
#LABELS:0.000=Song Start;
#BGCHANGES:3.063=REAL EXISTENCE.avi=1.000=1=0=0=StretchNoLoop==CrossFade==,
99999=-nosongbg-=1.000=0=0=0 // don't automatically add -songbackground-
;
#KEYSOUNDS:;
#ATTACKS:
;

//---------------dance-single - ----------------
#NOTEDATA:;
#CHARTNAME:;
#STEPSTYPE:dance-single;
#DESCRIPTION:;
#CHARTSTYLE:;
#DIFFICULTY:Medium;
#METER:10;
#RADARVALUES:0.490229,0.516231,0.348665,0.339490,0.000000,374.000000,336.000000,38.000000,37.000000,0.000000,0.000000,0.000000,0.000000,0.000000,0.490229,0.516231,0.348665,0.339490,0.000000,374.000000,336.000000,38.000000,37.000000,0.000000,0.000000,0.000000,0.000000,0.000000;
#CREDIT:;
#NOTES:
0000
0000
0000
0000
,
0000
0000
0000
0000
,
0000
0000
0000
0000
,
0000
0000
0000
0000
,
0000
0000
0000
0000
,
0000
0000
0000
0000
,
0000
0000
0000
0000
,
1010
0100
0001
0011
,
0100
1000
1001
1001
,
0101
0000
0010
0000
1000
0000
0002
2000
,
0000
0000
0000
3003
,
1000
0100
1000
0000
0100
0010
0100
0000
,
0010
0001
0010
0000
0001
0100
0020
0000
,
1030
0010
1000
0000
0010
0100
0010
0000
,
0100
0001
0100
0000
0001
1000
0200
0000
,
0310
0001
0010
0000
0100
1000
0100
0000
,
1000
0010
1000
0000
0001
0100
0020
0000
,
1030
0001
1000
0000
0100
0010
0100
0000
,
1000
0000
1000
0000
0010
0100
0001
1000
,
0002
0010
0010
0010
,
0010
0000
0010
0000
0013
0000
0001
2000
,
0001
0010
0010
0010
,
0010
0000
0010
0000
3010
0000
1000
0002
,
1000
0100
0100
0100
,
0100
0000
0100
0000
0103
0000
0001
2000
,
0001
0100
0100
3100
,
0010
0100
0010
0100
1000
0001
0000
1002
,
0000
0100
0103
0000
0100
0000
0010
0100
,
0010
0000
1000
0000
0001
1000
0001
2000
,
0000
0100
3100
0000
0100
0000
0010
0100
,
0010
0000
0001
0000
1000
0010
1000
0020
,
0000
0100
0130
0000
0100
0000
0010
1000
,
0001
0000
0010
0000
0100
1000
0100
1000
,
0001
0100
1000
0100
,
0001
1000
0001
1000
0100
0010
0000
0000
,
0012
0000
0000
0100
0103
0000
0010
0000
,
1000
0100
0000
0010
0001
0000
0100
0000
,
2010
0000
0000
0100
3100
0000
0010
0000
,
0001
0100
0000
0010
1000
0000
0010
0100
,
0001
0000
1000
0100
1000
0000
0001
0100
,
0001
0000
1000
0100
0010
0000
0001
0200
,
0000
0000
0000
0010
0310
0000
1001
0000
,
1000
0001
1000
0001
1000
0100
0000
0022
,
0000
0000
0000
0033
,
2200
0000
0000
3300
,
0202
0000
0000
0303
,
2010
0000
0000
0000
0000
0001
3001
0000
,
1000
1000
0010
0010
,
0001
0001
0100
0100
,
1000
0000
0010
0000
0001
0000
0100
1000
,
0000
2020
0000
3030
0110
0000
0101
0000
,
0001
1000
0001
1000
0000
0200
0000
0310
,
0000
0022
0000
0033
0110
0000
1100
0000
,
1000
0001
1000
0001
0000
0200
0000
0310
,
0000
2020
0000
3030
1001
0000
0011
0000
,
1000
0010
1000
0001
0000
0020
0000
0130
,
0000
0022
0000
0033
1001
0000
1010
0000
,
0001
0100
0001
1000
0000
0200
0000
0000
,
0310
0000
0001
0000
1000
0010
1000
0000
,
0001
0010
0001
0000
1000
0010
1000
0000
,
0001
0100
0001
0000
1000
0100
1000
0000
,
0001
0100
0001
0000
1000
0100
0010
0000
,
0001
0000
1000
0010
0000
0010
1000
0000
,
1000
0001
0000
0001
0020
0000
0000
0000
,
0030
0000
0100
0010
0000
0010
0001
0000
,
0100
0010
0000
0020
2000
0000
0000
0000
,
0030
0001
0001
3001
,
0001
1000
0100
0100
0000
0000
0000
0000
,
0000
1001
0000
1001
0000
0000
0000
0000
,
0000
0000
0100
0100
0000
0000
0000
0000
,
0000
1001
0000
1001
0000
0000
0100
0000
,
1001
1010
0100
0001
,
0011
0100
1000
1001
,
1001
0101
0010
1000
,
1100
0000
0010
0000
0001
0000
1000
0010
,
1000
0010
0100
0000
0010
1000
0100
0000
,
0010
0001
0100
0000
0010
1000
0100
0000
,
0010
0001
1000
0000
0100
1000
0010
0000
,
0100
0001
0010
0000
0100
1000
0010
0000
,
0100
0000
0010
0010
0000
0000
0000
0000
,
0000
1001
0000
1001
0000
0000
0000
0000
;

//---------------dance-single - ----------------
#NOTEDATA:;
#CHARTNAME:;
#STEPSTYPE:dance-single;
#DESCRIPTION:;
#CHARTSTYLE:;
#DIFFICULTY:Beginner;
#METER:3;
#RADARVALUES:0.197927,0.294531,0.119280,0.183508,0.000000,151.000000,138.000000,13.000000,20.000000,0.000000,0.000000,0.000000,0.000000,0.000000,0.197927,0.294531,0.119280,0.183508,0.000000,151.000000,138.000000,13.000000,20.000000,0.000000,0.000000,0.000000,0.000000,0.000000;
#CREDIT:;
#NOTES:
0000
0000
0000
0000
,
0000
0000
0000
0000
,
0000
0000
0000
0000
,
0000
0000
0000
0000
,
0000
0000
0000
0000
,
0000
0000
0000
0000
,
0000
0000
0000
0000
,
1000
0000
1000
0000
,
0001
0000
0001
0000
,
1000
0000
0001
0000
,
0020
0000
0000
0030
,
0001
0000
0001
0000
,
0100
0000
0100
0000
,
0010
0000
0010
0000
,
1000
0000
1000
0000
,
0100
0000
0100
0000
,
0010
0000
0010
0000
,
0001
0000
0001
0000
,
0100
0000
0010
0000
,
2000
0000
0000
0000
,
3000
0000
0000
0000
,
0002
0000
0000
0000
,
0003
0000
0000
0000
,
2000
0000
0000
0000
,
3000
0000
0000
0000
,
0200
0000
0000
0000
,
0300
0000
0100
0000
,
1000
1000
1000
0000
,
0010
0000
1000
0000
,
0001
0001
0001
0000
,
0010
0000
0001
0000
,
0100
0100
0100
0000
,
0010
0000
1000
0000
,
0001
0001
0001
0000
,
1000
0000
0100
0000
,
2002
0000
3003
0000
,
0001
0000
0100
0000
,
2002
0000
3003
0000
,
1000
0000
0100
0000
,
1000
1000
1000
0000
,
0001
0001
0001
0000
,
0200
0000
0300
0000
,
0100
0100
0100
0000
,
2002
0000
3003
0000
,
0220
0000
0330
0000
,
0220
0000
0330
0000
,
2002
0000
3003
0000
,
1000
0000
1000
0000
,
0001
0000
0001
0000
,
1000
0000
0001
0001
,
0000
1000
1000
1000
,
0000
0010
0000
0100
,
0000
0001
0001
0001
,
0000
0010
0000
0100
,
0000
1000
1000
1000
,
0000
0010
0000
1000
,
0000
0001
0001
0001
,
0000
0010
0000
0001
,
0000
0100
0100
0100
,
0000
0010
0010
0010
,
0000
1000
1000
1000
,
0000
0001
0001
0001
,
0000
1000
0000
0000
,
1000
0000
0000
0000
,
0000
0001
0000
0000
,
0001
0000
2002
0000
,
0000
0000
0000
3003
,
0000
0110
0000
0000
,
0000
0110
0000
0000
,
0000
1001
0000
0000
,
0000
1001
0000
0000
,
0000
1000
0000
0100
,
0000
1000
0000
0100
,
0000
0010
0000
0001
,
0000
0010
0000
0001
,
0000
1000
1000
1000
,
0000
0010
0010
0010
,
0000
0100
0100
0100
,
0000
0001
0001
0001
,
0000
1001
0000
0000
,
0000
0110
0000
0000
;

//---------------dance-single - ----------------
#NOTEDATA:;
#CHARTNAME:;
#STEPSTYPE:dance-single;
#DESCRIPTION:;
#CHARTSTYLE:;
#DIFFICULTY:Challenge;
#METER:15;
#RADARVALUES:0.787774,0.921842,0.789085,0.385367,0.357841,601.000000,515.000000,86.000000,42.000000,0.000000,0.000000,0.000000,0.000000,0.000000,0.787774,0.921842,0.789085,0.385367,0.357841,601.000000,515.000000,86.000000,42.000000,0.000000,0.000000,0.000000,0.000000,0.000000;
#CREDIT:;
#NOTES:
// measure 0
0000
0000
0000
0000
,  // measure 1
0000
0000
0000
0000
,  // measure 2
0000
0000
0000
0000
,  // measure 3
0000
0000
0000
0000
,  // measure 4
0000
0000
0000
0000
,  // measure 5
0000
0000
0000
0000
,  // measure 6
0000
0000
0000
0000
,  // measure 7
1010
0000
1010
0000
0000
0000
0001
0100
0001
0000
0000
0000
0011
0000
0011
0000
,  // measure 8
0000
0000
1000
0100
1000
0000
0000
0000
0001
0000
0100
0010
1000
0000
0000
0000
,  // measure 9
1001
0000
1001
0000
0000
0000
0001
0010
0001
0000
1000
0000
0010
0000
0220
0000
,  // measure 10
0000
0000
0000
0000
0000
0000
0000
0000
0330
0000
0000
0000
0001
0100
0010
1000
,  // measure 11
0001
0010
0011
0001
1000
0010
1010
1000
,  // measure 12
0001
0010
0110
0100
1000
0010
0102
0000
,  // measure 13
1003
0010
1010
1000
0001
0010
0011
0001
,  // measure 14
1000
0010
0110
0100
0001
0010
2100
0000
,  // measure 15
3001
0100
0110
0010
1000
0100
0110
0010
,  // measure 16
0001
1000
1010
0010
1000
0100
0012
0000
,  // measure 17
1003
0100
0110
0010
0001
0100
0110
0010
,  // measure 18
1000
0010
1000
0010
1000
0000
0001
0000
1000
0000
0100
0000
0010
0000
0100
2000
,  // measure 19
0001
0001
0010
0010
,  // measure 20
0001
0000
0001
0000
3100
0000
1000
0002
,  // measure 21
0010
0010
1000
1000
,  // measure 22
0100
0000
0100
0000
1003
0000
0001
0020
,  // measure 23
0100
0100
1000
1000
,  // measure 24
0100
0000
0100
0000
0031
0000
1000
0020
,  // measure 25
0100
0001
0100
1000
,  // measure 26
0130
0000
0010
0000
0010
0000
1000
0001
1000
0000
1001
0000
0000
0000
0021
0000
,  // measure 27
0000
0130
0010
0001
0100
0010
0001
0010
,  // measure 28
0100
0010
2000
0000
3100
1000
0010
1020
,  // measure 29
0000
0130
0010
1000
0100
0010
1000
0010
,  // measure 30
0100
0010
0002
0000
1003
0010
0100
0201
,  // measure 31
0000
0310
0100
0001
0010
0100
0001
0100
,  // measure 32
1000
0010
0200
0000
0310
1000
0001
1000
,  // measure 33
1200
0000
0310
0012
0000
1003
1020
0000
,  // measure 34
0130
0000
0001
0000
0001
0000
1000
0100
0010
0000
0011
0000
0000
0000
0000
0000
,  // measure 35
0102
0000
0000
0000
0000
0000
0013
0001
0010
0000
0000
0000
1100
0000
0000
0000
,  // measure 36
0101
0000
1000
0000
0000
0000
1000
0100
0010
0000
0000
0000
0011
0000
0000
0000
,  // measure 37
2100
0000
0000
0000
0000
0000
3010
1000
0010
0000
0000
0000
0101
0000
0000
0000
,  // measure 38
1100
0000
0001
0000
0000
0000
0001
0100
0010
0000
1000
0000
0010
1000
0001
0010
,  // measure 39
0100
0000
0010
0000
0100
1000
0001
0000
0100
0000
0010
0000
0100
0001
1000
0000
,  // measure 40
0001
0000
0010
0000
0100
0010
0001
0000
1000
0000
0010
0000
0100
0010
2000
0000
,  // measure 41
0000
0000
0000
3001
1001
0000
1001
0000
,  // measure 42
1000
0100
0010
0001
2000
0000
0000
0000
3010
0000
0110
0000
0000
0000
0202
0000
,  // measure 43
0000
0000
0000
0303
,  // measure 44
0012
0000
0000
0000
0000
0000
1003
0000
0000
0000
0001
0000
0001
0000
0010
0200
,  // measure 45
2000
0000
0000
3300
,  // measure 46
2020
0000
0000
0000
0000
0000
0000
0000
0030
0000
3010
1000
0001
0000
0000
0000
,  // measure 47
1000
1000
0100
0010
0001
0001
1000
0010
,  // measure 48
0100
0100
0001
0010
0100
0100
0010
0001
,  // measure 49
1000
1000
0010
0010
0100
0001
0011
1100
,  // measure 50
0000
0000
2010
0000
0000
0000
3001
0000
1000
0000
0100
0010
0100
0000
0010
0100
,  // measure 51
1000
0000
0001
0000
0100
0000
0100
0000
0010
0000
0100
0001
1000
0000
0100
0010
,  // measure 52
0001
0000
0012
0000
0000
0000
1003
0000
0001
0000
0100
0010
0100
0000
0010
0100
,  // measure 53
0001
0000
1000
0000
0100
0000
0100
0000
0010
0000
0100
1000
0001
0000
1000
0010
,  // measure 54
0100
0000
0201
0000
0000
0000
1300
0000
0100
0000
0001
0100
0001
0000
0010
0100
,  // measure 55
1000
0000
0010
0000
0100
0000
0100
0000
0001
0000
0010
0100
1000
0000
0001
0010
,  // measure 56
0100
0000
1200
0000
0000
0000
0301
0000
0100
0000
1000
0100
1000
0000
0010
0100
,  // measure 57
0001
0000
0010
0000
0100
0000
0100
0000
1000
0000
0010
0100
0001
0000
1000
0100
,  // measure 58
0020
0000
0000
0000
0031
0000
1000
0100
1000
0000
0001
0100
0001
0000
1000
0100
,  // measure 59
1000
0000
0001
0100
0001
0000
1000
0010
1000
0000
0001
0010
0001
0000
1000
0010
,  // measure 60
1000
0000
0001
0010
0001
0000
0100
0001
0100
0000
0010
0100
0010
0000
1000
0010
,  // measure 61
1000
0000
0001
1000
0001
0000
1000
0100
1000
0000
0100
0010
0100
0000
0010
0001
,  // measure 62
1000
0000
1010
1010
0000
0110
0110
0000
,  // measure 63
0101
0101
0000
1001
2200
0000
0000
3000
,  // measure 64
0300
0000
0011
0011
0000
0110
0110
0000
,  // measure 65
1100
1100
0000
1001
0202
0000
0000
0000
,  // measure 66
0303
0000
0000
0000
0100
0010
0100
0010
0100
0010
0100
0010
1000
0001
0100
0010
,  // measure 67
1000
0001
1001
1001
0000
0000
0000
0000
,  // measure 68
0000
1100
0000
1001
0000
0000
0000
0000
,  // measure 69
0000
0000
1001
1001
0000
0000
0000
0000
,  // measure 70
0000
0000
0101
0000
0000
0000
1001
0000
1000
0000
0100
0000
0010
0000
0100
1000
,  // measure 71
0001
0000
0000
0000
0101
0000
2010
0000
0000
0000
3010
1000
0001
0000
0000
0000
,  // measure 72
1001
0000
0000
0000
1100
0000
0120
0000
0000
0000
0130
1000
0001
0000
0100
0001
,  // measure 73
1000
0000
0000
0000
1100
0000
0012
0000
0000
0000
0013
0001
1000
0000
0000
0000
,  // measure 74
1001
0000
0000
0000
0101
0000
0120
0000
0000
0000
0130
0001
1000
0000
0100
0000
,  // measure 75
0010
0001
0010
0001
1000
0000
0010
0000
0100
0001
1000
0000
0100
0000
0010
0000
,  // measure 76
0100
1000
0001
0000
1000
0000
0010
0000
0100
0010
0100
0000
0010
0000
0001
0000
,  // measure 77
0010
0100
0010
0000
1000
0000
0001
0000
0010
0100
1000
0000
0001
0000
1000
0000
,  // measure 78
0010
0100
0001
0000
1000
0000
0001
0000
0010
0100
0010
0000
1000
0000
0010
0000
,  // measure 79
0100
0010
0100
0000
0110
0000
1001
0000
0000
0000
0000
0000
0000
0000
0000
0000
,  // measure 80
0000
0110
0000
1001
0000
0000
0000
0000
;

//---------------dance-single - ----------------
#NOTEDATA:;
#CHARTNAME:;
#STEPSTYPE:dance-single;
#DESCRIPTION:;
#CHARTSTYLE:;
#DIFFICULTY:Hard;
#METER:13;
#RADARVALUES:0.622617,0.700600,0.339490,0.357841,0.000000,475.000000,438.000000,37.000000,39.000000,0.000000,0.000000,0.000000,0.000000,0.000000,0.622617,0.700600,0.339490,0.357841,0.000000,475.000000,438.000000,37.000000,39.000000,0.000000,0.000000,0.000000,0.000000,0.000000;
#CREDIT:;
#NOTES:
0000
0000
0000
0000
,
0000
0000
0000
0000
,
0000
0000
0000
0000
,
0000
0000
0000
0000
,
0000
0000
0000
0000
,
0000
0000
0000
0000
,
0000
0000
0000
0000
,
1010
1000
0000
1000
0100
0000
0011
0001
,
0000
0001
0100
0000
0010
0100
0001
0000
,
1001
1000
0000
1000
0100
0001
0100
2200
,
0000
0000
0000
3300
,
0001
0100
0010
1000
0001
0010
0001
1000
,
0010
0100
1000
0100
0010
1000
0002
0000
,
1003
0100
0010
0001
1000
0010
1000
0100
,
0001
0100
0010
0001
0100
0010
2000
0000
,
3001
0100
0001
0010
0100
1000
0001
0100
,
1000
0100
0001
0010
0100
0010
0002
0000
,
1003
0010
0100
0001
0010
0100
1000
0010
,
0100
0100
0001
0001
0100
0010
1000
0001
,
2001
0100
0100
0100
,
0100
0000
0100
0000
3100
0000
1000
0002
,
0100
0100
0100
0100
,
0100
0000
0100
0000
0103
0000
0001
0020
,
0100
0100
0100
0100
,
0100
0000
0100
0000
0130
0000
1000
0020
,
0100
0100
0100
0130
,
0001
0100
1000
0100
0001
0101
0000
2001
,
0000
3100
0010
0100
0010
0100
0001
0100
,
0010
0100
2000
0000
3010
0010
1000
1002
,
0000
0103
0010
0100
0010
0100
1000
0100
,
0010
0100
0002
0000
0013
0010
0001
2001
,
0000
3010
0100
0010
0100
0010
0001
0010
,
0100
0010
2000
0000
3010
1000
0100
0010
,
0002
0000
0103
0200
0000
0310
0020
0000
,
1030
0100
0001
0100
1000
1100
0000
0000
,
1002
0000
0000
0100
0103
0000
1100
0000
,
1000
0010
0000
1000
0100
0000
0011
0000
,
2001
0000
0000
0100
3100
0000
0101
0000
,
0001
0010
0000
0001
0100
0100
0010
0100
,
0001
0010
0100
0010
0001
0100
1000
0100
,
0001
0010
0100
1000
0010
0001
0010
0210
,
0000
0000
0000
0010
0310
0000
1001
0000
,
0001
0010
1000
0010
0001
0011
0000
2002
,
0000
0000
0000
3000
,
0200
0003
0000
0310
0000
0010
0100
0001
,
2002
0000
0000
0003
,
0200
0000
0000
3000
0000
0010
0310
0000
,
0001
0100
0001
0100
1000
0100
1000
0100
,
0001
0010
0001
0010
1000
0010
1000
0010
,
0001
0100
0010
1000
0001
0100
0010
1001
,
0000
0021
0000
0031
0010
0100
0010
1000
,
0010
0100
0010
0010
0001
1000
0001
0100
,
0010
1020
0000
1030
0010
0100
0010
0001
,
0010
0100
0010
0010
1000
0001
0010
0100
,
1000
2100
0000
3001
0100
0010
0100
1000
,
0100
0001
1000
1000
0001
0010
0100
0010
,
0001
0102
0000
1003
0100
0010
0100
0001
,
0100
1000
0001
0001
1000
0010
0100
0001
,
1002
0000
1003
0100
0001
0100
1000
0100
,
0001
0100
1000
0010
0001
0010
1000
0010
,
0001
0010
1000
0100
0010
0001
0100
1000
,
0100
0001
0010
1000
0010
0001
1000
0010
,
0100
0000
0001
0010
0000
0010
1000
0000
,
1000
0100
0000
0100
0002
0000
0000
0000
,
0003
0000
1000
0010
0000
0010
0001
0000
,
0001
0100
0000
0100
2000
0000
0000
0000
,
3000
0000
0001
0100
0001
0100
1000
0001
,
0010
1000
0100
1100
0000
0000
0000
0000
,
0000
1002
0000
0103
0000
0000
0000
0000
,
0000
0000
0100
0101
0000
0000
0000
0000
,
0000
2001
0000
3100
0010
0100
0010
0001
,
1001
0000
0001
0100
1000
0100
0001
0000
,
1001
0000
0001
0020
0000
0130
0100
0010
,
1001
0000
1000
0100
0001
0100
1000
0000
,
1001
0000
1000
0020
0000
0130
0100
0010
,
1000
0001
1000
0100
0001
0100
1000
0010
,
0001
0010
0100
0001
1000
0100
0010
1000
,
0010
0001
0100
1000
0100
0001
0010
1000
,
0010
0001
1000
0010
0100
1000
0100
0001
,
1000
0100
0110
0110
0000
0000
0000
0000
,
0000
1002
0000
1003
0000
0000
0000
0000
;

//---------------dance-single - ----------------
#NOTEDATA:;
#CHARTNAME:;
#STEPSTYPE:dance-single;
#DESCRIPTION:;
#CHARTSTYLE:;
#DIFFICULTY:Easy;
#METER:7;
#RADARVALUES:0.310653,0.405610,0.330315,0.339490,0.000000,237.000000,201.000000,36.000000,37.000000,0.000000,0.000000,0.000000,0.000000,0.000000,0.310653,0.405610,0.330315,0.339490,0.000000,237.000000,201.000000,36.000000,37.000000,0.000000,0.000000,0.000000,0.000000,0.000000;
#CREDIT:;
#NOTES:
0000
0000
0000
0000
,
0000
0000
0000
0000
,
0000
0000
0000
0000
,
0000
0000
0000
0000
,
0000
0000
0000
0000
,
0000
0000
0000
0000
,
0000
0000
0000
0000
,
1001
0000
0100
1001
,
0000
0010
0100
0010
,
1001
0000
0000
0000
0010
0000
0000
2002
,
0000
0000
0000
3003
,
1000
0100
0010
0100
,
1000
0010
0100
0001
,
0010
0100
0010
0001
,
1000
0010
0100
0001
,
1000
0001
0010
0001
,
1000
0010
0100
0001
,
1000
0100
1000
0001
,
0100
0100
0010
1000
,
2002
0000
0000
0000
,
0000
0000
0000
3003
,
0220
0000
0000
0000
,
0000
0000
0000
0330
,
2200
0000
0000
0000
,
0000
0000
0000
3300
,
0202
0000
0000
0303
,
0001
0000
1000
0000
0100
0000
0000
1002
,
0000
0103
0100
0010
,
1000
0000
0001
0000
1000
0000
0000
2001
,
0000
3100
0100
0010
,
0001
0000
1000
0000
0001
0000
0000
0201
,
0000
0010
0310
1000
,
0001
0010
0100
0010
,
0002
0000
0000
2003
0000
0000
3002
0000
,
0103
0100
0010
0000
,
2001
0000
3100
0000
,
1000
0100
0010
0001
,
1002
0000
0103
0000
,
0001
0100
1000
0100
,
0001
0001
1000
1000
,
0100
0000
0010
0000
0001
0000
0000
2002
,
0000
0000
0000
3003
,
1000
0000
0001
0000
0100
0000
0000
0220
,
0000
0000
0000
0330
,
2020
0000
0000
3030
,
2002
0000
0000
3003
,
0022
0000
0000
0033
,
1000
1000
0010
0010
,
0100
0100
0001
0001
,
1000
0010
0100
0001
,
0000
0012
0000
0000
1000
0000
1003
0000
,
0000
0000
0001
0000
0000
0200
0000
0300
,
0000
2010
0000
0000
0001
0000
3001
0000
,
0000
0000
1000
0000
0000
0200
0000
0300
,
0000
2100
0000
0000
0001
0000
3001
0000
,
0000
0000
1000
0000
0000
0020
0000
0030
,
0000
0102
0000
0000
1000
0000
1003
0000
,
0000
0000
0001
0000
0000
0020
0000
0000
,
0030
0001
0001
0100
,
0100
0010
0010
1000
,
1000
0100
0100
0010
,
0010
0001
0001
0100
,
0010
0000
1000
0000
0000
0001
0000
0000
,
1000
0000
0000
0001
0000
0000
0000
0000
,
0000
0000
0010
0000
0000
0100
0000
0000
,
0010
0000
0000
0200
0000
0000
0000
0000
,
0000
0010
0010
0010
,
0310
1001
0000
0000
,
0000
1001
0000
1001
0000
0000
0000
0000
,
0000
0110
0000
0000
,
0000
0110
0000
0110
0000
0000
0100
0000
,
0100
1001
0000
0010
,
1001
0000
0100
0010
,
0100
1001
0000
0001
,
1100
0000
1000
0101
,
0000
0001
0100
0010
,
1000
0100
0010
0001
,
1000
0010
0100
0001
,
0010
0001
0100
0010
,
1000
1001
0000
0000
,
0000
0110
0000
1001
0000
0000
0000
0000
;
