#TITLE:Putin's Boner;
#SUBTITLE:;
#ARTIST:Helblinde;
#TITLETRANSLIT:;
#SUBTITLETRANSLIT:;
#ARTISTTRANSLIT:;
#GENRE:Memecore;
#CREDIT:;
#BANNER:Putin's Boner.png;
#BACKGROUND:Putin's Boner-bg.png;
#LYRICSPATH:;
#CDTITLE:cdtitle.png;
#MUSIC:Putin's Boner.ogg;
#OFFSET:-0.025280;
#SAMPLESTART:19.225281;
#SAMPLELENGTH:19.200001;
#SELECTABLE:YES;
#BPMS:0.000000=200.000000
,192.000000=100.000000
,207.000000=200.000000
;
#STOPS:194.000000=0.150000,
194.250000=0.150000,
201.500000=0.150000,
201.750000=0.150000,
219.000000=0.900000,
312.000000=0.900000
;
#BGCHANGES:;
#KEYSOUNDS:;
#ATTACKS:;

//---------------dance-single - ----------------
#NOTES:
     dance-single:
     :
     Challenge:
     13:
     0.653880,0.961225,0.628238,0.448741,0.053033,561.000000,484.000000,77.000000,55.000000,0.000000,0.000000,0.653880,0.961225,0.628238,0.448741,0.053033,561.000000,484.000000,77.000000,55.000000,0.000000,0.000000:
// measure 0
0000
0000
0000
0000
,  // measure 1
0000
0000
0000
0000
,  // measure 2
0000
0000
0000
0000
,  // measure 3
0000
0000
0000
0000
,  // measure 4
0000
0000
0000
0000
,  // measure 5
0000
0000
0000
0000
,  // measure 6
0000
0000
0000
0000
,  // measure 7
0000
0000
0000
0000
,  // measure 8
1000
0100
0010
0001
,  // measure 9
0100
1000
0100
0001
,  // measure 10
1000
0100
0010
0001
,  // measure 11
0101
0000
0110
0000
1010
0000
0010
1000
,  // measure 12
0001
0010
0100
1000
,  // measure 13
0010
0001
1000
0100
,  // measure 14
0002
0010
2003
0100
,  // measure 15
3001
0000
0000
0010
0000
0000
1100
0000
0000
0000
1000
0000
1001
0000
0000
0000
,  // measure 16
0101
1000
1100
0011
,  // measure 17
0001
0100
1000
0100
0002
0000
0013
0000
,  // measure 18
1100
0001
0101
1010
,  // measure 19
1000
0100
0001
0100
2000
0000
3010
0000
,  // measure 20
0101
1000
1100
0011
,  // measure 21
0001
0100
1000
0100
0002
0000
0013
0000
,  // measure 22
1100
0000
0001
0100
0110
0000
1001
0000
,  // measure 23
1000
0100
0001
0100
1000
0010
0100
0001
,  // measure 24
0011
1000
1010
0101
,  // measure 25
0001
0010
1000
0010
0002
0000
0103
0000
,  // measure 26
1010
0001
0011
1100
,  // measure 27
1000
0010
0001
0010
2000
0000
3100
0000
,  // measure 28
0011
1000
1010
0101
,  // measure 29
0001
0010
1000
0010
0001
0100
1000
0100
,  // measure 30
0002
0000
0000
0000
1003
0100
0001
0100
,  // measure 31
2000
0000
0100
0000
3002
0000
0103
0010
,  // measure 32
1000
0000
0102
0000
1000
0000
0103
0001
,  // measure 33
0010
0000
2100
0000
0001
0000
3010
1000
,  // measure 34
0200
0000
0001
0000
1300
0000
0010
0001
,  // measure 35
0200
1000
0301
1010
,  // measure 36
1001
0011
1001
1100
,  // measure 37
1001
0000
0001
0100
0010
1000
0002
0000
,  // measure 38
0013
0011
1001
1010
,  // measure 39
1002
1000
1003
0012
,  // measure 40
1003
0000
0101
0000
0101
0000
0001
0100
,  // measure 41
0001
0100
1000
0001
0010
1000
0200
0000
,  // measure 42
1300
0001
0100
0010
,  // measure 43
1000
0100
0011
0000
1100
0000
2010
0000
,  // measure 44
3001
0000
1100
0000
1100
0000
1000
0100
,  // measure 45
1000
0100
0001
1000
0010
0001
0200
0000
,  // measure 46
0301
1000
0100
0010
,  // measure 47
0001
0100
1010
0000
0101
0000
0001
1000
,  // measure 48
0100
0000
0000
0000
0100
0000
0100
0000
0100
0100
1002
0000
0000
0000
0103
0000
,  // measure 49
0000
0000
0100
0000
0100
0000
0001
0100
1000
0100
0002
0000
0000
0000
0013
0000
,  // measure 50
0000
0000
0010
0000
0010
0000
0010
0010
2001
0000
0000
0000
3010
0100
0000
0100
,  // measure 51
0010
0000
0100
0001
1000
0100
0001
0100
1000
0100
0001
0100
0110
0000
0000
0000
,  // measure 52
1100
0012
1003
0110
,  // measure 53
0101
0000
2010
0000
3001
0000
1000
0100
,  // measure 54
0001
0100
0001
0100
1000
0001
1000
0000
,  // measure 55
1002
0000
0103
0001
0020
0000
0130
0010
,  // measure 56
0001
0100
1000
0100
0002
0000
1003
0100
,  // measure 57
0020
0000
0130
1000
0020
0000
0130
0001
,  // measure 58
1000
0100
0001
0100
2000
0000
3100
0000
,  // measure 59
0021
0000
1000
0000
0032
0000
0103
0010
,  // measure 60
1000
0100
0001
0100
0010
0001
0100
0000
,  // measure 61
0010
2000
0000
3001
0020
0000
0130
0010
,  // measure 62
0001
0100
1000
0100
0001
0000
0100
0000
,  // measure 63
1020
0000
0001
0000
2030
0000
3100
0010
,  // measure 64
0001
0100
1000
0100
0010
1000
0100
0000
,  // measure 65
0010
0002
0000
1003
0020
0000
0130
0010
,  // measure 66
1000
0100
0001
0100
1000
0000
0100
0000
,  // measure 67
2001
0000
3010
1000
0200
0000
0310
0001
,  // measure 68
0100
1000
0100
0001
0020
0000
0130
0000
,  // measure 69
1002
0000
0013
0001
0200
0000
0310
1000
,  // measure 70
0100
0001
0100
1000
0002
0000
0103
0000
,  // measure 71
1020
0000
0001
0000
2030
0000
3010
0001
,  // measure 72
1000
0100
0001
0010
1000
0010
0001
0000
,  // measure 73
0100
0020
0000
1030
0200
0000
0310
0001
,  // measure 74
0100
1000
0100
0010
1000
0000
0100
0000
,  // measure 75
0021
0000
1000
0000
0032
0000
0013
1000
,  // measure 76
0001
0100
1000
0010
0001
0010
1000
0000
,  // measure 77
0100
0010
0100
0010
0001
1000
0001
1000
,  // measure 78
0010
0000
0101
0000
1100
0000
1000
0001
,  // measure 79
1000
0000
1100
0000
0101
0000
0001
1000
,  // measure 80
0001
0000
1000
0100
0010
0002
0000
1003
,  // measure 81
0010
0100
1000
0100
0001
0000
0001
1000
,  // measure 82
0001
1100
0101
1100
,  // measure 83
1000
0010
0100
0001
1000
0000
1100
0000
,  // measure 84
0011
0000
1000
0000
0001
0100
1000
0100
,  // measure 85
0001
0000
0010
0001
0100
0010
1000
0000
,  // measure 86
1001
0000
1000
0100
0010
0001
0100
0000
,  // measure 87
0010
0000
0001
0010
1000
0000
0101
0000
,  // measure 88
1010
0000
0001
0000
1000
0100
0010
0100
,  // measure 89
0001
0100
2000
0000
3010
0100
0001
0020
,  // measure 90
0000
0130
1000
0000
0001
0000
0110
0000
,  // measure 91
1001
0000
0001
0100
1000
0100
0001
0020
,  // measure 92
0000
0130
1000
0010
0001
0010
1000
0100
,  // measure 93
0001
0000
0100
0000
1000
0000
0010
0000
0400
0004
0000
0000
0000
0000
0000
0000
,  // measure 94
0000
0303
0000
0000
;

//---------------dance-single - ----------------
#NOTES:
     dance-single:
     :
     Hard:
     11:
     0.541986,0.807429,0.293722,0.514013,0.044874,465.000000,429.000000,36.000000,63.000000,0.000000,0.000000,0.541986,0.807429,0.293722,0.514013,0.044874,465.000000,429.000000,36.000000,63.000000,0.000000,0.000000:
0000
0000
0000
0000
,
0000
0000
0000
0000
,
0000
0000
0000
0000
,
0000
0000
0000
0000
,
0000
0000
0000
0000
,
0000
0000
0000
0000
,
0000
0000
0000
0000
,
0000
0000
0000
0000
,
1000
0010
0100
0010
,
1000
0010
0001
0010
,
1000
0100
0010
0100
,
1000
0000
1000
0000
0001
0000
0001
1000
,
0001
0100
0010
0100
,
1000
0100
0001
0010
,
0200
0010
0320
0100
,
0130
0000
0000
0010
0000
0000
1001
0000
0000
0000
0000
0000
0110
0000
0000
0000
,
2002
3003
1000
1000
,
0001
0100
0010
0100
0002
0000
1003
0000
,
2002
3003
0001
0001
,
1000
0100
0010
0100
2000
0000
3001
0000
,
2002
3003
1000
1000
,
0001
0100
0010
0100
0002
0000
1003
0000
,
1001
0000
0001
0100
0010
0000
0010
0000
,
1000
0100
1000
0001
0100
0001
1000
0000
,
2002
3003
1000
1000
,
0010
1000
0100
0010
0002
0000
1003
0000
,
2002
3003
0001
0001
,
0010
0001
0100
0010
2000
0000
3001
0000
,
2002
3003
1000
1000
,
0100
1000
0001
1000
0100
1000
0001
0100
,
0020
0000
0030
0000
1000
0100
0010
0001
,
2000
3001
0002
1003
,
1010
0000
2001
0000
0001
0000
3001
1000
,
0001
0000
2000
0000
0001
0000
3010
1000
,
0200
0000
0010
0000
0310
0000
0100
1000
,
0020
0100
0130
0010
,
1000
0100
0001
0100
,
1000
0000
0010
0100
0001
0000
0020
0000
,
0031
0100
1000
0100
,
0101
0100
0100
2020
,
0030
0000
0001
0000
3001
0000
1000
0100
,
0010
0001
0100
0000
0010
0000
2020
0000
,
0030
3001
0100
0010
,
1000
0001
0010
0000
1100
0000
0022
0000
,
0030
0000
1000
0000
1003
0000
0001
0100
,
0010
1000
0100
0000
0010
0000
0022
0000
,
0030
1003
0010
0100
,
0001
1000
0100
0000
0110
0000
0100
1000
,
0001
0000
0000
0000
0100
0000
0010
0000
0100
0010
2001
0000
0000
0000
3100
0000
,
0000
0000
0100
0000
0010
0000
0001
1000
0010
1000
0002
0000
0000
0000
0013
0000
,
0000
0000
0100
0000
0010
0000
0100
0010
2001
0000
0000
0000
3010
0100
0000
0100
,
0010
0000
0010
0000
1000
0001
1000
0001
0010
0100
0010
0100
1000
0000
0000
0000
,
0100
0020
0030
0001
,
0100
0020
0030
1001
,
1000
0100
1000
0100
1000
0001
0100
0000
,
2001
0000
0000
3001
0020
0000
0000
0031
,
1000
0001
1000
0001
0100
0000
0100
0000
,
0002
0000
0000
1003
0020
0000
0000
1030
,
0001
1000
0001
1000
0100
0000
0000
0000
,
1100
0000
0011
0000
2001
0000
3010
1000
,
0100
1000
0100
1000
0001
0000
0100
0000
,
0000
0020
0000
1030
0002
0000
0000
1003
,
0100
1000
0100
0010
0001
0000
0000
0000
,
0101
0000
1010
0000
1002
0000
0013
0001
,
0100
0001
0100
0001
1000
0000
0100
0000
,
0000
0020
0000
0031
2000
0000
0000
3001
,
0100
0001
0100
0010
1000
0000
0000
0000
,
2001
0000
0000
3010
0200
0000
0000
0301
,
0010
0001
1000
0100
1000
0000
1000
0000
,
0002
0000
0000
0103
0020
0000
0000
1030
,
0010
1000
0001
0100
0001
0000
0000
0000
,
1010
0000
0101
0000
1002
0000
0103
0001
,
0010
0001
0010
0001
0100
0000
0010
0000
,
0000
2000
0000
3001
0020
0000
0000
0130
,
1000
0100
1000
0001
0100
0000
0000
0000
,
0101
0000
1010
0000
2001
0000
3100
1000
,
0010
1000
0010
1000
0100
0000
0010
0000
,
0001
1000
0001
1000
0010
0100
0010
0100
,
0001
0000
1000
0000
1000
0000
0100
1000
,
0001
0000
0100
0000
0100
0000
0010
0100
,
0001
0000
1000
0000
0100
0020
0000
0031
,
1000
0000
0010
0000
0010
0000
1000
0001
,
1000
0100
0010
0100
,
1000
0100
0010
0100
1000
0000
0001
0000
,
0001
0000
1000
0000
0010
0100
0010
0100
,
0010
0000
1000
0001
0100
0001
1000
0000
,
0001
0000
1000
0000
0100
0010
0100
0000
,
0010
0000
0001
1000
0001
0000
0100
0000
,
0010
0000
1000
0000
0001
0010
0001
0000
,
1000
0010
1000
0000
0010
0100
0000
0002
,
0000
1003
0100
0000
0010
0000
0100
0000
,
1000
0000
0001
0100
0001
0000
1000
0200
,
0000
0310
0001
1000
0001
1000
0010
0100
,
0010
0100
0001
0000
2002
0000
0000
0000
,
0000
3003
0000
0000
;

//---------------dance-single - ----------------
#NOTES:
     dance-single:
     :
     Medium:
     9:
     0.459232,0.615184,0.236609,0.326357,0.016318,394.000000,365.000000,29.000000,40.000000,0.000000,0.000000,0.459232,0.615184,0.236609,0.326357,0.016318,394.000000,365.000000,29.000000,40.000000,0.000000,0.000000:
0000
0000
0000
0000
,
0000
0000
0000
0000
,
0000
0000
0000
0000
,
0000
0000
0000
0000
,
0000
0000
0000
0000
,
0000
0000
0000
0000
,
0000
0000
0000
0000
,
0000
0000
0000
0000
,
1000
1000
0010
0010
,
0100
0100
0001
0001
,
1000
1000
0100
0100
,
0010
0001
0100
0010
,
1000
1000
0001
0001
,
0010
0010
0100
0100
,
2000
0000
3002
0000
,
1003
0000
0000
0110
0000
0000
0110
0000
,
1001
0000
1000
1000
,
0001
0100
0001
0100
0002
0000
0003
0000
,
1001
0000
0001
0001
,
1000
0100
1000
0100
2000
0000
3000
0000
,
1001
0000
1000
1000
,
0001
0100
0001
0100
0002
0000
0003
0000
,
1001
1000
0010
0010
,
1000
0001
1000
0001
1000
0001
1000
0000
,
1001
0000
0001
0001
,
0010
0100
0010
0100
0020
0000
0030
0000
,
1001
0000
1000
1000
,
0010
0100
0010
0100
0020
0000
0030
0000
,
1001
0000
0001
0001
,
1000
0100
1000
0000
0001
0100
0001
0000
,
1001
0000
0000
0000
1000
0001
1000
0001
,
1000
0000
0010
0000
1000
0000
0001
0010
,
0001
0000
0022
0000
0033
0000
1000
0010
,
1000
0000
2020
0000
3030
0000
0001
0100
,
0002
0000
0003
0000
0001
0000
1000
0100
,
2000
3000
1000
0010
,
0100
0100
0001
1000
,
0100
0010
0001
1002
,
0000
0103
0100
0010
,
1000
1000
0100
0022
,
0033
0001
0001
1000
,
0010
0101
0110
2020
,
3030
1000
0010
0100
,
0001
1000
0001
0000
0101
0000
2020
0000
,
3030
1000
1000
0001
,
0010
1100
0110
0022
,
0033
0001
0010
0100
,
1000
0001
1000
0000
0110
0000
0001
0000
,
1001
0000
1000
1000
0000
2100
0000
3001
,
0000
0000
0001
0000
0001
0000
1000
0010
1000
0010
2000
0000
0000
0000
3001
0000
,
0000
0001
0001
0000
0102
0000
1003
0000
,
1000
0000
0100
0000
0010
0001
0010
0000
0100
1000
0100
0000
1000
0000
0000
0000
,
1000
2000
3000
0001
,
0001
0002
0003
1000
,
0001
1000
0001
0100
,
0002
0000
0023
0000
,
0031
1000
0001
0000
0100
0000
0010
0000
,
2000
0000
3200
0000
,
0310
0000
0100
1000
0001
0000
0000
0000
,
1000
0000
0010
0000
0100
0000
0001
0010
,
0001
0000
0001
1000
0001
0000
0100
0000
,
0000
0010
0000
0010
2000
0000
0000
0000
,
3001
0000
1000
0100
1000
0000
0000
0000
,
0001
0000
0010
0000
0100
0000
1000
0010
,
1000
0000
1000
0001
1000
0000
0100
0000
,
0000
0010
0000
0010
0002
0000
0000
0000
,
1003
0000
0001
0100
0001
0000
0000
0000
,
2001
0000
3200
0000
,
0310
0001
0010
0000
0100
0000
1000
0000
,
0002
0000
0203
0000
,
0310
0000
1000
0001
0010
0000
0000
0000
,
0001
0000
0100
0000
1000
0000
0100
0010
,
0100
0000
0100
0001
0100
0000
0010
0000
,
0000
1000
0000
1000
0200
0000
0000
0000
,
0310
0000
0100
1000
0001
0000
0000
0000
,
1000
0000
0100
0000
0001
0000
0100
0010
,
0100
0000
0100
1000
0100
0000
0010
0000
,
0001
1000
0001
1000
0001
1000
0001
1000
,
0001
0000
1000
0000
1000
0000
0001
0100
,
0000
0000
0001
0000
0001
0000
1000
0100
,
0000
0000
1000
0000
0001
0100
0000
0100
,
0010
0000
1000
0000
0001
0000
1000
0100
,
0000
0010
0010
0100
,
1000
0001
1000
0001
1000
0000
0010
0000
,
0100
0000
0000
0000
0001
0100
0001
0000
,
1000
0000
0001
0010
0001
0010
0001
0000
,
1000
0000
0000
0000
0010
1000
0001
0000
,
1000
0000
0100
1000
0001
0000
0100
0000
,
0010
0000
0000
0000
1000
0010
0100
0000
,
0001
0000
1000
0000
0100
0010
0000
1001
,
0000
0001
0100
0010
,
1000
0000
0001
0100
0001
0000
1000
0010
,
1000
0000
0001
1000
0001
1000
0001
1000
,
0001
1000
0001
0000
2002
0000
0000
0000
,
0000
3003
0000
0000
;

//---------------dance-single - ----------------
#NOTES:
     dance-single:
     :
     Easy:
     7:
     0.376477,0.499837,0.203973,0.367152,0.000000,323.000000,298.000000,25.000000,45.000000,0.000000,0.000000,0.376477,0.499837,0.203973,0.367152,0.000000,323.000000,298.000000,25.000000,45.000000,0.000000,0.000000:
0000
0000
0000
0000
,
0000
0000
0000
0000
,
0000
0000
0000
0000
,
0000
0000
0000
0000
,
0000
0000
0000
0000
,
0000
0000
0000
0000
,
0000
0000
0000
0000
,
0000
0000
0000
0000
,
1000
0010
1000
0010
,
0100
0001
0100
0001
,
1000
0100
1000
0100
,
0010
0010
0100
1000
,
0001
0100
0001
0100
,
0010
1000
0010
1000
,
0002
0000
2003
0000
,
3100
0000
0000
0010
0000
0000
0010
0000
,
1001
0000
1000
1000
,
0001
0100
0020
0030
,
1001
0000
0001
0001
,
1000
0100
0020
0030
,
1001
0000
1000
1000
,
0001
0100
0020
0030
,
1001
1000
0100
0100
,
0010
0001
0100
0010
,
1001
0000
0001
0001
,
0010
0001
0200
0300
,
1001
0000
1000
1000
,
0010
1000
0200
0300
,
1001
0000
0001
0001
,
0100
0010
0100
0010
,
1001
0000
1000
0001
,
1000
0100
1000
0010
,
0101
0202
0303
0100
,
1010
2020
3030
0011
,
0022
0033
0001
1100
,
2200
3300
1000
0010
,
1000
0001
1000
0100
,
0010
0001
0100
0120
,
0000
0130
0001
1000
,
0100
0100
0100
2002
,
3003
0001
0001
1000
,
1000
0100
0010
2002
,
3003
0001
0010
0100
,
1000
0001
0100
2002
,
3003
1000
1000
0001
,
0001
0100
0010
2002
,
3003
1000
0010
0100
,
0001
1000
0100
1000
,
1001
0000
1000
0001
0000
2001
0000
3001
,
0000
0001
1000
0100
0010
0002
0000
1003
,
0000
0001
1000
0000
1002
0000
1003
0000
,
1000
0100
0010
0001
0100
0010
1000
0000
,
0010
2000
3000
0001
,
0100
0002
0003
1000
,
0100
0100
1000
0001
,
2000
0000
3020
0000
,
1030
0001
0010
0100
,
0020
0000
0032
0000
,
0103
0001
1000
0000
,
0010
1000
0100
1000
,
0010
0100
0001
0010
,
0000
0002
0000
0000
0203
0000
0000
0000
,
0310
1000
0100
0000
,
0010
0001
0100
0001
,
0010
0100
1000
0010
,
0000
2000
0000
0000
3200
0000
0000
0000
,
0310
0001
0100
0000
,
0002
0000
0023
0000
,
0130
1000
0001
0100
,
0020
0000
2030
0000
,
3100
0010
0001
0000
,
0010
0001
0100
0010
,
1000
0100
1000
0010
,
0000
0200
0000
0000
0302
0000
0000
0000
,
0013
0001
0100
0000
,
0010
1000
0100
0010
,
0001
0100
0001
1000
,
0100
0010
0100
0010
,
0001
1000
0100
1000
,
0000
0001
0100
0001
,
0000
1000
0100
0010
,
0001
0100
0010
1000
,
0000
0010
0010
1000
,
0001
1000
0100
0010
,
0001
0000
1000
1000
,
0010
0100
0001
0010
,
0001
0000
1000
0001
,
0010
0001
0100
0001
,
1000
0000
0001
1000
,
0010
1000
0100
0010
,
0001
1000
1000
0001
,
0001
0100
0100
0010
,
0010
1000
0100
0010
,
0001
0100
2002
0000
,
0000
3003
0000
0000
;

//---------------dance-single - ----------------
#NOTES:
     dance-single:
     :
     Beginner:
     4:
     0.200477,0.307592,0.114225,0.138702,0.000000,172.000000,158.000000,14.000000,17.000000,0.000000,0.000000,0.200477,0.307592,0.114225,0.138702,0.000000,172.000000,158.000000,14.000000,17.000000,0.000000,0.000000:
0000
0000
0000
0000
,
0000
0000
0000
0000
,
0000
0000
0000
0000
,
0000
0000
0000
0000
,
0000
0000
0000
0000
,
0000
0000
0000
0000
,
0000
0000
0000
0000
,
0000
0000
0000
0000
,
1000
0000
1000
0000
,
0001
0000
0001
0000
,
1000
0000
1000
0000
,
0100
0000
0100
0000
,
1000
0000
1000
0000
,
0001
0000
0001
0000
,
0100
0000
0010
0000
,
2002
0000
3003
0000
,
1001
0000
0010
0000
,
0010
0000
0010
0000
,
1001
0000
0100
0000
,
0100
0000
0100
0000
,
1001
0000
0010
0000
,
0010
0000
0010
0000
,
1001
0000
0100
0000
,
0010
0000
0100
0000
,
1001
0000
0010
0000
,
0010
0000
0010
0000
,
1001
0000
0100
0000
,
0100
0000
0100
0000
,
1001
0000
0010
0000
,
0100
0000
0010
0000
,
1001
0000
0000
0000
,
1000
0000
1000
0000
,
0002
0000
0003
0000
,
2000
0000
3000
0000
,
0020
0000
0030
0000
,
0200
0000
0300
0000
,
0001
0000
1000
0000
,
0100
0000
0000
1000
,
0000
0000
0001
0000
,
0100
0000
0000
0001
,
0000
1000
1000
0000
,
1000
0000
0000
1000
,
0000
0001
0001
0000
,
0000
0100
0000
0010
,
0000
0010
0010
0000
,
1000
0000
0000
0001
,
0000
0001
0001
0000
,
0010
0000
0010
0000
,
1001
0000
0000
0000
0000
1001
0000
0000
,
0000
0000
0000
0000
0000
0000
0000
0010
,
0000
0000
1001
1000
,
0001
1000
0001
1000
,
0000
1000
0000
0001
,
0000
0001
0000
1000
,
0000
0001
0000
1000
,
0002
0000
0003
0000
,
1000
0000
0100
0000
,
2000
0000
3000
0000
,
0001
0000
0100
0000
,
0010
0000
0010
0000
,
1000
0000
0001
0000
,
0010
0000
0010
0000
,
0002
0000
0003
0000
,
0010
0000
0010
0000
,
0001
0000
1000
0000
,
0010
0000
0010
0000
,
2000
0000
3000
0000
,
2000
0000
3000
0000
,
0001
0000
0100
0000
,
0002
0000
0003
0000
,
1000
0000
0100
0000
,
0010
0000
0010
0000
,
0001
0000
1000
0000
,
0010
0000
0010
0000
,
2000
0000
3000
0000
,
0010
0000
0010
0000
,
1000
0000
0001
0000
,
0010
0000
0100
0000
,
1000
0001
0000
0001
,
0000
1000
0000
1000
,
0000
0010
0000
1000
,
0000
0001
0000
0001
,
0000
0010
0000
0100
,
0000
0010
0000
0100
,
0000
1000
0000
0001
,
0000
1000
0000
0001
,
0000
0100
0000
0100
,
0000
0010
0000
0010
,
0000
1000
0000
1000
,
0000
0001
0000
0001
,
0000
1000
0000
0100
,
0000
0010
0000
0001
,
0000
2002
0000
0000
,
3003
0000
0220
0000
,
0000
0330
0000
0000
;
