#VERSION:0.83;
#TITLE:Provoke;
#SUBTITLE:;
#ARTIST:void;
#TITLETRANSLIT:;
#SUBTITLETRANSLIT:;
#ARTISTTRANSLIT:;
#GENRE:Drum & Bass;
#ORIGIN:;
#CREDIT:;
#BANNER:Provoke.png;
#BACKGROUND:Provoke-bg.png;
#PREVIEWVID:;
#JACKET:Provoke-jacket.png;
#CDIMAGE:;
#DISCIMAGE:;
#LYRICSPATH:;
#CDTITLE:cdtitle.png;
#MUSIC:Provoke.ogg;
#OFFSET:-0.085370;
#SAMPLESTART:21.780285;
#SAMPLELENGTH:10.847000;
#SELECTABLE:YES;
#BPMS:0.000=177.000;
#STOPS:;
#DELAYS:;
#WARPS:;
#TIMESIGNATURES:0.000=4=4;
#TICKCOUNTS:0.000=4;
#COMBOS:0.000=1;
#SPEEDS:0.000=1.000=0.000=0;
#SCROLLS:0.000=1.000;
#FAKES:;
#LABELS:0.000=Song Start;
#BGCHANGES:;
#KEYSOUNDS:;
#ATTACKS:
;

//---------------dance-single - ----------------
#NOTEDATA:;
#CHARTNAME:;
#STEPSTYPE:dance-single;
#DESCRIPTION:;
#CHARTSTYLE:;
#DIFFICULTY:Challenge;
#METER:13;
#RADARVALUES:0.649641,0.733799,0.396871,0.768938,0.111620,550.000000,502.000000,48.000000,93.000000,0.000000,0.000000,0.000000,0.000000,0.000000,0.649641,0.733799,0.396871,0.768938,0.111620,550.000000,502.000000,48.000000,93.000000,0.000000,0.000000,0.000000,0.000000,0.000000;
#CREDIT:;
#NOTES:
// measure 0
0000
0000
0000
0000
,  // measure 1
0000
0000
0000
0000
,  // measure 2
0000
0000
0000
0000
,  // measure 3
0000
0000
0000
0000
,  // measure 4
0002
0000
1003
0002
0000
1003
0100
0000
,  // measure 5
2000
0000
3001
2000
0000
3001
0200
0301
,  // measure 6
0020
0000
0031
0020
0000
0031
1000
0000
,  // measure 7
0020
0000
1030
0020
0000
0130
0002
1003
,  // measure 8
1001
0000
1000
0100
0000
0100
1000
0000
,  // measure 9
1001
0000
0001
0100
0000
0100
0001
0000
,  // measure 10
0101
0000
1000
0010
0000
0010
1000
0000
,  // measure 11
1010
0000
0001
0010
0000
0010
0001
0000
,  // measure 12
0011
0000
0000
0100
0000
0000
1010
0000
0000
0000
1000
0000
0001
0000
0000
0000
,  // measure 13
0012
0000
1000
1000
0000
0100
0103
0000
,  // measure 14
2010
0000
0001
0001
0000
0100
3100
0000
,  // measure 15
1000
0000
1000
0001
0010
0000
0110
0000
,  // measure 16
1001
0000
0001
0100
0010
1000
0100
0010
,  // measure 17
0000
0001
0010
0100
1000
0010
0100
0001
,  // measure 18
0000
0100
0001
0010
0001
0100
0010
1000
,  // measure 19
0000
0010
1000
0100
1000
0010
0100
0001
,  // measure 20
0000
1000
0100
0010
0001
0100
0010
1000
,  // measure 21
0000
0001
0100
1000
0100
0001
1000
0100
,  // measure 22
0000
0010
0001
0100
0010
1000
0001
0010
,  // measure 23
0000
0000
0001
0000
0010
0000
1000
0000
0010
0000
0001
0000
1000
0001
1000
0001
,  // measure 24
0100
0010
0100
0010
1000
0001
0010
0100
,  // measure 25
0000
0010
0100
0000
0110
0000
0001
1000
,  // measure 26
0100
0010
0100
0010
0001
1000
0010
0100
,  // measure 27
0000
0010
0100
0000
0110
0000
1000
0001
,  // measure 28
1000
0100
1000
0100
0001
0100
0001
0100
,  // measure 29
0000
0010
0100
0000
0110
0000
0001
1000
,  // measure 30
0001
0100
0001
0100
1000
0100
1000
0100
,  // measure 31
0000
0000
0110
0000
0000
0000
0001
0000
0100
0000
0010
1000
0010
1000
0010
0000
,  // measure 32
1000
0001
0010
0000
0010
0001
1000
0010
,  // measure 33
0000
1001
0000
0001
0100
0001
1000
0100
,  // measure 34
0000
1001
0000
1000
0100
1000
0001
0100
,  // measure 35
0000
1001
0000
0001
0010
0001
1000
0010
,  // measure 36
0000
1010
0000
1000
0010
0001
0010
1000
,  // measure 37
0000
1001
0000
1000
0100
0001
0100
1000
,  // measure 38
0001
0000
0001
0000
1000
0001
1000
0001
,  // measure 39
0010
0000
0000
0010
0000
0000
0010
0000
0001
1000
0001
1000
0010
0000
0000
0000
,  // measure 40
1002
0000
0000
0203
0000
0000
0320
0000
,  // measure 41
0000
2030
0000
0000
3002
0000
0203
0000
,  // measure 42
0320
0000
0000
0230
0000
0000
2300
0000
,  // measure 43
0000
3200
0000
0000
0320
0000
2030
0000
,  // measure 44
3002
0000
0023
0000
0230
0000
0320
0032
,  // measure 45
0000
2003
0000
3200
0320
0000
0032
0000
,  // measure 46
2003
0000
3200
0000
0302
0000
0203
2300
,  // measure 47
0000
3002
0000
0203
0320
0000
1030
0000
,  // measure 48
0001
0000
1000
0000
1100
0000
0000
0001
0000
0000
0001
0000
0101
0000
0000
1000
,  // measure 49
0000
0000
1000
0000
1010
0000
0000
0001
0000
0000
0001
0000
0011
0000
0000
0000
,  // measure 50
1000
0000
0100
0000
1001
0000
0000
0001
0000
1000
0001
0000
0100
0000
0001
0000
,  // measure 51
1000
0000
0010
0000
1001
0000
0000
0000
1000
0001
1000
0001
1000
0000
0000
0000
,  // measure 52
0002
0000
0000
0000
2003
0000
0000
0000
3001
1000
0001
0000
2000
0000
0000
0000
,  // measure 53
3200
0000
0000
0000
0310
0100
0010
0100
0010
0000
0002
0000
2003
0000
0000
0000
,  // measure 54
3020
0000
0000
0000
0130
0010
0100
0010
0200
0000
0000
0000
0310
0100
0010
0100
,  // measure 55
0001
0000
0001
1000
0100
0000
0110
0000
,  // measure 56
1001
0000
0001
0000
1000
0100
1000
0010
,  // measure 57
0000
1001
0000
0010
0001
0100
0001
0010
,  // measure 58
0000
1001
0000
0010
1000
0100
1000
0010
,  // measure 59
0000
1001
0000
1000
0010
0100
0001
0010
,  // measure 60
0000
1100
0000
1000
0100
0001
0100
1000
,  // measure 61
0000
1001
0000
0001
0010
1000
0010
0001
,  // measure 62
0000
0011
0000
0001
0100
1000
0100
0001
,  // measure 63
1000
0010
0001
0020
0000
1030
0100
0010
,  // measure 64
0002
0000
0103
0020
0000
0031
2000
0000
,  // measure 65
3001
0020
0000
0130
0002
0103
0020
0000
,  // measure 66
2030
0000
3100
0020
0000
1030
0002
0000
,  // measure 67
1003
0020
0000
0130
2000
3100
0020
0000
,  // measure 68
0032
0000
0203
0000
2300
3100
0020
2030
,  // measure 69
0000
3020
0031
0020
0230
0000
0302
1003
,  // measure 70
0200
0000
0320
0000
2030
3010
0200
0320
,  // measure 71
0000
0000
0032
0000
0103
0000
0020
0000
2030
0000
3100
0000
0010
0001
0010
0001
,  // measure 72
2000
0000
0001
0000
0001
0000
3002
0203
,  // measure 73
0000
0001
0001
0000
0320
1030
1010
0000
,  // measure 74
0002
0000
1000
0000
1000
0000
2003
3200
,  // measure 75
0000
1000
1000
0000
0320
0031
0011
0000
,  // measure 76
2001
0000
3001
0100
0020
0100
0130
0001
,  // measure 77
2001
0000
3100
0010
0002
1000
1003
0010
,  // measure 78
0100
0001
0010
0100
1000
0010
0100
0001
,  // measure 79
1000
0000
0000
1000
0000
0000
1000
0000
0100
0010
0100
0010
0001
0000
0000
0000
,  // measure 80
1001
0000
1010
0000
0010
1000
0100
0000
,  // measure 81
0010
0000
0011
0000
0010
0001
0100
0000
,  // measure 82
0001
0000
0101
0000
0010
1000
0100
0000
,  // measure 83
1000
0000
1100
0000
0010
0001
0100
0000
,  // measure 84
0001
0000
1001
0000
0001
0100
1000
0000
,  // measure 85
0100
0000
1001
0000
1000
0100
0001
0000
,  // measure 86
0100
0000
1001
0000
1000
0010
0001
0000
,  // measure 87
0010
0000
0001
0010
1000
0000
0110
0000
,  // measure 88
2002
0000
0000
3003
;

//---------------dance-single - ----------------
#NOTEDATA:;
#CHARTNAME:;
#STEPSTYPE:dance-single;
#DESCRIPTION:;
#CHARTSTYLE:;
#DIFFICULTY:Hard;
#METER:11;
#RADARVALUES:0.530343,0.587039,0.305922,0.777206,0.012402,449.000000,412.000000,37.000000,94.000000,0.000000,0.000000,0.000000,0.000000,0.000000,0.530343,0.587039,0.305922,0.777206,0.012402,449.000000,412.000000,37.000000,94.000000,0.000000,0.000000,0.000000,0.000000,0.000000;
#CREDIT:;
#NOTES:
// measure 0
0000
0000
0000
0000
,  // measure 1
0000
0000
0000
0000
,  // measure 2
0000
0000
0000
0000
,  // measure 3
0000
0000
0000
0000
,  // measure 4
0002
0000
0000
2003
0000
0000
3001
0000
,  // measure 5
2000
0000
0000
3002
0000
0000
2003
0000
,  // measure 6
3200
0000
0000
0320
0000
0000
0130
0000
,  // measure 7
0020
0000
0000
0230
0000
0000
0320
0000
,  // measure 8
0031
0000
1000
0100
0000
1000
0100
0000
,  // measure 9
1000
0000
0001
0100
0000
0001
0100
0000
,  // measure 10
0001
0000
0010
0001
0000
0010
0001
0000
,  // measure 11
1000
0000
0010
1000
0000
0010
1000
0000
,  // measure 12
0100
0000
0000
0100
0000
0000
1001
0000
0000
0000
0000
0000
1001
0000
0000
0000
,  // measure 13
0011
0000
0100
1000
0000
1000
0100
0000
,  // measure 14
1010
0000
0100
0001
0000
0001
0100
0000
,  // measure 15
0010
0000
0010
0100
0010
0000
0110
0000
,  // measure 16
1001
0000
1000
0000
0001
1000
0100
0010
,  // measure 17
0000
0010
0000
0001
0100
0010
1000
0001
,  // measure 18
0000
0001
0000
1000
0100
0010
0001
1000
,  // measure 19
0000
1000
0000
0001
0100
0010
1000
0100
,  // measure 20
0000
0100
0000
1000
0100
0010
0001
0100
,  // measure 21
0000
0100
0000
0010
1000
0100
1000
0010
,  // measure 22
0000
0010
0000
0100
0001
0010
0001
0100
,  // measure 23
0000
0100
0000
0001
1000
0100
0010
0000
,  // measure 24
0001
0001
0100
0000
0110
0000
0001
0100
,  // measure 25
0000
1000
0100
0000
0001
0000
0110
0000
,  // measure 26
1000
1000
0100
0000
0110
0000
0001
0010
,  // measure 27
0000
1000
0010
0000
0001
0000
0110
0000
,  // measure 28
1000
1000
0010
0000
0101
0000
1000
0010
,  // measure 29
0000
0001
0010
0000
1000
0000
0110
0000
,  // measure 30
0001
0001
0010
0000
0110
0000
1000
0100
,  // measure 31
0000
1001
0000
0100
0001
1000
0100
0000
,  // measure 32
0010
0001
1000
0000
0001
0000
1000
0010
,  // measure 33
0000
0110
0000
0001
0100
0000
0001
0010
,  // measure 34
0000
0110
0000
1000
0100
0000
1000
0010
,  // measure 35
0000
0110
0000
0001
0100
0000
0100
1000
,  // measure 36
0000
0110
0000
1000
0100
0000
0100
0001
,  // measure 37
0000
0110
0000
0001
0010
0000
0100
0010
,  // measure 38
0001
0000
1000
0000
0001
1000
0001
1000
,  // measure 39
0010
0000
0000
0010
0000
0000
0010
0000
1000
0000
0001
0000
0010
0000
0000
0000
,  // measure 40
0210
0000
0000
0320
0000
0000
0230
0000
,  // measure 41
0000
2300
0000
0000
3002
0000
0203
0000
,  // measure 42
0320
0000
0000
0230
0000
0000
0302
0000
,  // measure 43
0000
2003
0000
0000
3200
0000
0320
0000
,  // measure 44
0032
0000
0203
0000
0302
0000
0023
0230
,  // measure 45
0000
2300
0000
3020
0230
0000
0320
0000
,  // measure 46
2030
0000
3200
0000
0320
0000
0032
0203
,  // measure 47
0000
0320
0000
2030
3200
0000
0310
0000
,  // measure 48
0002
0000
0100
0000
0100
0000
2003
3002
,  // measure 49
0010
0013
0002
0100
,  // measure 50
2003
0000
0100
0000
0100
0000
3002
2003
,  // measure 51
0010
3010
2000
0100
,  // measure 52
3002
0013
0020
1030
,  // measure 53
2000
3100
0200
0301
,  // measure 54
0002
1000
1000
1003
,  // measure 55
0100
0000
0100
0010
0100
0000
0110
0000
,  // measure 56
1000
0001
1000
0000
0001
0000
1000
0010
,  // measure 57
0000
0101
0000
0001
0100
0000
0001
0010
,  // measure 58
0000
1100
0000
1000
0100
0000
1000
0010
,  // measure 59
0000
0101
0000
1000
0100
0000
0100
0001
,  // measure 60
0000
0110
0000
0001
0010
0000
0010
1000
,  // measure 61
0000
0110
0000
0001
0100
0000
0100
1000
,  // measure 62
0000
0110
0000
1000
0010
0000
0010
0001
,  // measure 63
0000
0000
0010
2000
0000
3100
0010
0001
,  // measure 64
2000
0000
3001
0200
0000
0301
0020
0000
,  // measure 65
0031
0200
0000
0301
2000
0000
3020
0000
,  // measure 66
2030
0000
3100
0020
0000
0031
2000
0000
,  // measure 67
3010
0200
0000
0310
2000
0000
3200
0000
,  // measure 68
0320
0000
0032
0000
2003
0000
3200
0302
,  // measure 69
0000
0203
0000
2300
3002
0000
0203
0000
,  // measure 70
0320
0000
2030
0000
3020
0000
0032
0023
,  // measure 71
0000
2030
0000
3200
0320
0000
0031
1000
,  // measure 72
0020
0000
0100
0000
0100
0000
1030
0020
,  // measure 73
0001
0001
2030
3100
,  // measure 74
0020
0000
0100
0000
0100
0000
0031
0020
,  // measure 75
1000
1000
0032
0103
,  // measure 76
0020
0000
1030
0100
0020
0000
0031
0100
,  // measure 77
0020
0000
1030
0001
0020
0000
0130
1000
,  // measure 78
0001
0100
0001
1000
0100
1000
0001
0100
,  // measure 79
0001
0000
0000
1000
0000
0000
0001
0000
1000
0000
0001
0000
0010
0000
0000
0000
,  // measure 80
1001
0000
1010
0000
1000
0001
0010
0000
,  // measure 81
0001
0000
0011
0000
0001
1000
0010
0000
,  // measure 82
0100
0000
0110
0000
0100
0010
1000
0000
,  // measure 83
0100
0000
0110
0000
0100
0010
0001
0000
,  // measure 84
1000
0000
0101
0000
1000
0010
0100
0000
,  // measure 85
0001
0000
1100
0000
0001
0010
0100
0000
,  // measure 86
1000
0000
0011
0000
1000
0001
0100
0000
,  // measure 87
0010
0000
0010
0100
0010
0000
0110
0000
,  // measure 88
2002
0000
0000
3003
;

//---------------dance-single - ----------------
#NOTEDATA:;
#CHARTNAME:;
#STEPSTYPE:dance-single;
#DESCRIPTION:;
#CHARTSTYLE:;
#DIFFICULTY:Medium;
#METER:9;
#RADARVALUES:0.458292,0.513659,0.314190,0.496089,0.000000,388.000000,350.000000,38.000000,60.000000,0.000000,0.000000,0.000000,0.000000,0.000000,0.458292,0.513659,0.314190,0.496089,0.000000,388.000000,350.000000,38.000000,60.000000,0.000000,0.000000,0.000000,0.000000,0.000000;
#CREDIT:;
#NOTES:
// measure 0
0000
0000
0000
0000
,  // measure 1
0000
0000
0000
0000
,  // measure 2
0000
0000
0000
0000
,  // measure 3
0000
0000
0000
0000
,  // measure 4
0001
0000
0000
0001
0000
0000
0000
0000
,  // measure 5
0001
0000
0000
0001
0000
0000
0100
0000
,  // measure 6
1000
0000
0000
1000
0000
0000
0000
0000
,  // measure 7
1000
0000
0000
1000
0000
0000
0100
0000
,  // measure 8
0001
0000
0000
0010
0000
0000
0001
0000
,  // measure 9
1000
0000
0000
0010
0000
0000
1000
0000
,  // measure 10
0001
0000
0000
0100
0000
0000
0001
0000
,  // measure 11
1000
0000
0000
0100
0000
0000
1000
0000
,  // measure 12
0001
0000
0000
0101
0000
0000
0010
0000
,  // measure 13
1000
0000
0000
1100
0000
0000
0010
0000
,  // measure 14
0001
0000
0000
1001
0000
0000
0010
0000
,  // measure 15
0100
0100
0100
0110
,  // measure 16
1001
0000
0001
0000
1000
0000
0001
0010
,  // measure 17
0000
0001
0010
0000
0001
0000
1000
0010
,  // measure 18
0000
1000
0010
0000
1000
0000
0001
0100
,  // measure 19
0000
0001
0100
0000
0001
0000
1000
0100
,  // measure 20
0000
1000
0100
0000
0010
0000
0001
0100
,  // measure 21
0000
0001
1000
0000
0010
0000
1000
0100
,  // measure 22
0000
1000
0001
0000
0100
0000
0010
0100
,  // measure 23
0010
0000
1001
0000
0001
1000
0001
0000
,  // measure 24
1000
0100
1000
0000
0100
0000
0010
0001
,  // measure 25
0000
0001
0100
0000
0010
0000
1000
0000
,  // measure 26
0001
0100
0001
0000
0100
0000
0010
1000
,  // measure 27
0000
1000
0100
0000
0010
0000
0001
0000
,  // measure 28
1000
0010
1000
0000
0100
0000
0010
0001
,  // measure 29
0000
0001
0100
0000
0010
0000
1000
0000
,  // measure 30
0001
0010
0001
0000
0100
0000
0010
1000
,  // measure 31
0000
1001
0000
1000
0100
0000
0010
0000
,  // measure 32
0001
1000
0001
0000
1000
0000
0001
0100
,  // measure 33
0000
0110
0000
0000
0001
1000
0000
0100
,  // measure 34
0000
0110
0000
0000
1000
0001
0000
0100
,  // measure 35
0000
0110
0000
0000
0001
0010
0000
1100
,  // measure 36
0000
0101
0000
0000
1000
0010
0000
0101
,  // measure 37
0000
1100
0000
0000
0001
1000
0000
1000
,  // measure 38
0001
0000
1000
0000
0001
1000
0001
1000
,  // measure 39
0100
0000
0100
0000
0010
0001
0100
0000
,  // measure 40
2001
0000
0000
3020
0000
0000
2030
0000
,  // measure 41
3000
0002
0000
0000
2003
0000
3200
0000
,  // measure 42
2300
0000
0000
3002
0000
0000
0023
0000
,  // measure 43
0000
0032
0000
0000
2003
0000
3002
0000
,  // measure 44
0203
0000
0302
0000
2003
0000
0000
3200
,  // measure 45
0000
0320
0032
0203
,  // measure 46
0320
0000
2030
0000
3002
0000
0000
0023
,  // measure 47
0000
0230
2300
3001
,  // measure 48
2000
0000
0001
0000
0001
0000
3010
2000
,  // measure 49
0010
0010
3002
1003
,  // measure 50
0002
0000
1000
0000
1000
0000
0013
0002
,  // measure 51
0010
0010
2003
3001
,  // measure 52
2000
3010
0020
0130
,  // measure 53
0200
0301
0002
1003
,  // measure 54
2000
0001
0001
3001
,  // measure 55
0010
0010
0010
0110
,  // measure 56
0001
1000
0001
0000
1000
0010
0000
0100
,  // measure 57
0000
0101
0000
0000
0001
0010
0000
0100
,  // measure 58
0000
1100
0000
0000
1000
0010
0000
0100
,  // measure 59
0000
0101
0000
0000
1000
0100
0000
0011
,  // measure 60
0000
0101
0000
0000
0001
0100
0000
1010
,  // measure 61
0000
1100
0000
0000
0001
0010
0000
1100
,  // measure 62
0000
1010
0000
0000
1000
0010
0000
0010
,  // measure 63
1000
0000
0100
0020
0000
0000
0031
1000
,  // measure 64
0002
0100
0000
0203
0010
0000
0320
1000
,  // measure 65
0000
2030
0001
0000
3010
0000
1001
0000
,  // measure 66
2000
0100
0000
3200
0010
0000
0320
0001
,  // measure 67
0000
0032
1000
0000
0013
0000
1001
0000
,  // measure 68
0002
0000
0203
0000
0320
0000
1030
0001
,  // measure 69
0000
0001
1000
0000
1010
0000
0101
0000
,  // measure 70
2000
0000
3200
0000
0320
0000
0031
1000
,  // measure 71
0000
1000
0001
0000
0011
0000
1100
0000
,  // measure 72
2001
0000
0000
0000
0001
0000
3010
0200
,  // measure 73
0001
0000
0320
1030
,  // measure 74
0002
0000
0000
0000
1000
0000
0013
0200
,  // measure 75
1000
0000
0320
0031
,  // measure 76
1001
0000
0001
0100
0000
0100
1000
0000
,  // measure 77
1001
0000
1000
0010
0000
0010
0001
0000
,  // measure 78
2001
0000
0000
0010
0000
0000
3010
0000
,  // measure 79
0100
0000
0100
0000
0001
1000
0001
0000
,  // measure 80
1001
0000
1000
0000
0000
0001
1000
0000
,  // measure 81
0100
0000
0010
0000
0000
0100
0010
0000
,  // measure 82
0001
0000
0100
0000
0000
0001
0100
0000
,  // measure 83
0010
0000
1000
0000
0000
0010
1000
0000
,  // measure 84
0001
0000
0010
0000
0000
0100
0010
0000
,  // measure 85
0001
0000
1000
0000
0000
0001
0100
0000
,  // measure 86
0010
0000
1000
0000
0000
0001
0010
0000
,  // measure 87
0100
0100
0100
0110
,  // measure 88
2002
0000
0000
3003
;

//---------------dance-single - ----------------
#NOTEDATA:;
#CHARTNAME:;
#STEPSTYPE:dance-single;
#DESCRIPTION:;
#CHARTSTYLE:;
#DIFFICULTY:Easy;
#METER:6;
#RADARVALUES:0.313009,0.403589,0.248045,0.347262,0.000000,265.000000,235.000000,30.000000,42.000000,0.000000,0.000000,0.000000,0.000000,0.000000,0.313009,0.403589,0.248045,0.347262,0.000000,265.000000,235.000000,30.000000,42.000000,0.000000,0.000000,0.000000,0.000000,0.000000;
#CREDIT:;
#NOTES:
0000
0000
0000
0000
,
0000
0000
0000
0000
,
0000
0000
0000
0000
,
0000
0000
0000
0000
,
0001
0000
0001
0000
,
1000
0000
1000
0000
,
0001
0000
0001
0000
,
0010
0000
0010
0000
,
1001
0001
0001
0000
,
0100
0100
0100
0000
,
0010
0010
0010
0000
,
1000
1000
1000
0000
,
1002
1000
0010
0000
,
1000
1000
0100
0000
,
1000
1000
0010
0000
,
1003
0001
1000
0110
,
1001
0000
0001
0100
,
0010
0000
1000
0100
,
0010
0000
0001
0100
,
0010
0000
1000
0001
,
0010
0000
0100
1000
,
0010
0000
0100
0001
,
0010
0000
0100
1000
,
0010
0000
1000
0001
,
1001
0000
1001
0000
,
0001
0010
0100
1000
,
1001
0000
1001
0000
,
1000
0010
0100
0001
,
1100
0000
0101
0000
,
0001
0100
0010
1000
,
0101
0000
1100
0000
,
0001
0010
0100
1000
,
1001
0000
0001
0100
,
0001
0000
0100
1000
,
0100
0000
1000
0010
,
1000
0000
0010
0001
,
0010
0000
0001
0100
,
1000
0000
1000
0010
,
0001
0000
0001
0100
,
0010
0010
0100
0010
,
2001
0000
0000
0000
,
3002
0000
0000
0000
,
0203
0000
0000
0000
,
0320
0000
0000
0000
,
2030
0000
3002
0000
,
2003
0000
3200
0000
,
0320
0000
0032
0000
,
2003
0000
3001
0100
,
0002
0000
0000
0103
,
0200
0000
0320
0000
,
2030
0000
0000
3100
,
0200
0000
0320
0000
,
0032
0000
0203
0000
,
0320
0000
2030
0000
,
3002
0000
0000
0000
,
1003
0001
1000
0110
,
1001
0000
1000
0100
,
1000
0000
0100
0001
,
0100
0000
0001
0010
,
0001
0000
0010
1000
,
0010
0000
1000
0100
,
0001
0000
0001
0010
,
1000
0000
1000
0100
,
0010
0001
1000
0010
,
0200
0000
0001
0000
,
0010
0000
1000
0001
,
0320
0000
1000
0000
,
0100
0000
0001
1000
,
0130
0001
1000
0100
,
0010
0000
0110
0000
,
0100
1000
0001
0100
,
0010
0000
0110
0001
,
2001
0000
3001
1000
,
2200
3300
0022
0033
,
1002
0000
1003
0001
,
0202
0303
2020
3030
,
2000
3100
0200
0301
,
0002
0013
0020
1030
,
2000
0000
3001
1000
,
0100
0100
0010
0100
,
1001
1000
0000
1000
,
0001
0100
0000
0100
,
0001
0010
0000
0010
,
0001
1000
0000
1000
,
0010
0101
0000
0001
,
0010
1100
0000
1000
,
0001
0110
0000
1000
,
0001
1000
0001
0110
,
2002
0000
0000
3003
;

//---------------dance-single - ----------------
#NOTEDATA:;
#CHARTNAME:;
#STEPSTYPE:dance-single;
#DESCRIPTION:;
#CHARTSTYLE:;
#DIFFICULTY:Beginner;
#METER:2;
#RADARVALUES:0.131109,0.218279,0.033073,0.082682,0.000000,111.000000,107.000000,4.000000,10.000000,0.000000,0.000000,0.000000,0.000000,0.000000,0.131109,0.218279,0.033073,0.082682,0.000000,111.000000,107.000000,4.000000,10.000000,0.000000,0.000000,0.000000,0.000000,0.000000;
#CREDIT:;
#NOTES:
0000
0000
0000
0000
,
0000
0000
0000
0000
,
0000
0000
0000
0000
,
0000
0000
0000
0000
,
0001
0000
0000
0000
,
0001
0000
0000
0000
,
1000
0000
0000
0000
,
1000
0000
0000
0000
,
0010
0000
0000
0000
,
1000
0000
0000
0000
,
0001
0000
0000
0000
,
0010
0000
0000
0000
,
0100
0000
0000
0000
,
0100
0000
0000
0000
,
0100
0000
0000
0000
,
0100
0000
0000
0000
,
1001
0000
0000
0000
,
0100
0000
0000
0000
,
0010
0000
0000
0000
,
1000
0000
0000
0000
,
0100
0000
0000
0000
,
0010
0000
0000
0000
,
0001
0000
0000
0000
,
0100
0000
0000
0000
,
0001
0000
1000
0000
,
0001
0000
0000
0000
,
1000
0000
0001
0000
,
1000
0000
0000
0000
,
0100
0000
0010
0000
,
0100
0000
0000
0000
,
0010
0000
0100
0000
,
0010
0000
0000
0000
,
0001
0000
0100
0000
,
0100
0000
0000
0000
,
0010
0000
1000
0000
,
1000
0000
0000
0000
,
0001
0000
0010
0000
,
0010
0000
0000
0000
,
0100
0000
1000
0000
,
1000
0000
0001
0000
,
1002
0000
0000
0000
,
0003
0000
0000
0000
,
0200
0000
0000
0000
,
0300
0000
0000
0000
,
0020
0000
0000
0000
,
0030
0000
0000
0000
,
2000
0000
0000
0000
,
3000
0000
0000
0000
,
0002
0000
0003
0000
,
0100
0000
0010
0000
,
2000
0000
3000
0000
,
0100
0000
0010
0000
,
0001
0000
1000
0000
,
0001
0000
1000
0000
,
0002
0000
0003
0000
,
0100
0000
0000
0000
,
0001
0000
0001
0000
,
0001
0000
0000
0000
,
0010
0000
0010
0000
,
0010
0000
0000
0000
,
0100
0000
0100
0000
,
0100
0000
0000
0000
,
1000
0000
1000
0000
,
1000
0000
0000
0000
,
0001
0000
0100
0000
,
0001
0000
0000
0000
,
1000
0000
0100
0000
,
1000
0000
0000
0000
,
0010
0000
0100
0000
,
0001
0000
0000
0000
,
0010
0000
0100
0000
,
1000
0000
0000
0000
,
2000
0000
3000
0000
,
0001
0000
0010
0000
,
0002
0000
0003
0000
,
1000
0000
0010
0000
,
1000
0000
0001
0000
,
1000
0000
0001
0000
,
2000
0000
3000
0000
,
0001
0000
1000
0000
,
1001
0000
0000
0000
,
1000
0000
0000
0000
,
0001
0000
0000
0000
,
1000
0000
0000
0000
,
0100
0000
0000
0000
,
0010
0000
0000
0000
,
0100
0000
0000
0000
,
0010
0000
0000
0000
,
1001
0000
0000
0000
;
