#VERSION:0.83;
#TITLE:Poinsettia;
#SUBTITLE:;
#ARTIST:ARM;
#TITLETRANSLIT:;
#SUBTITLETRANSLIT:;
#ARTISTTRANSLIT:;
#GENRE:Touhou Metal;
#ORIGIN:;
#CREDIT:;
#BANNER:Poinsettia.png;
#BACKGROUND:Poinsettia-bg.png;
#PREVIEWVID:;
#JACKET:Poinsettia-jacket.png;
#CDIMAGE:;
#DISCIMAGE:;
#LYRICSPATH:;
#CDTITLE:cdtitle.png;
#MUSIC:Poinsettia.ogg;
#OFFSET:-0.010090;
#SAMPLESTART:10.674757;
#SAMPLELENGTH:10.666666;
#SELECTABLE:YES;
#BPMS:0.000=180.000,
368.000=169.000,
368.667=165.000,
369.333=154.000,
370.000=143.500,
370.667=140.500,
371.333=133.500,
372.000=131.500,
372.667=103.250,
373.333=102.000,
374.000=85.700,
374.667=73.600,
375.333=41.750;
#STOPS:;
#DELAYS:;
#WARPS:;
#TIMESIGNATURES:0.000=4=4;
#TICKCOUNTS:0.000=4;
#COMBOS:0.000=1;
#SPEEDS:0.000=1.000=0.000=0;
#SCROLLS:0.000=1.000;
#FAKES:;
#LABELS:0.000=Song Start;
#BGCHANGES:;
#KEYSOUNDS:;
#ATTACKS:
;

//---------------dance-single - ----------------
#NOTEDATA:;
#CHARTNAME:;
#STEPSTYPE:dance-single;
#DESCRIPTION:;
#CHARTSTYLE:;
#DIFFICULTY:Challenge;
#METER:17;
#RADARVALUES:1.016978,1.111084,1.011545,0.532392,0.908870,936.000000,803.000000,133.000000,70.000000,9.000000,0.000000,0.000000,0.000000,0.000000,1.016978,1.111084,1.011545,0.532392,0.908870,936.000000,803.000000,133.000000,70.000000,9.000000,0.000000,0.000000,0.000000,0.000000;
#CREDIT:;
#NOTES:
0000
0000
0000
0000
,
0000
0000
0000
0000
,
0000
0000
0000
0000
,
0000
0000
0000
0000
,
1000
0000
0100
0000
0001
0000
0100
0010
0100
0000
1100
0000
0000
0000
0011
0000
,
0000
0000
0001
0000
1000
0000
0001
0000
0100
0000
0001
0000
1000
0000
0100
0010
,
0001
0000
0100
0000
1000
0000
0100
0010
0100
0000
0101
0000
0000
0000
1010
0000
,
0000
0000
0010
1000
0001
0000
0010
0001
1000
0010
1000
0010
0100
0001
0100
0001
,
1000
0000
0100
1000
0010
0000
0100
0000
0001
0000
0100
0001
0010
0000
0100
0000
,
1000
0000
0100
1000
0010
0000
0100
0000
0001
0000
0100
0001
0010
0000
0100
0000
,
1000
0000
0100
1000
0010
0000
0100
0000
0010
0000
1000
0001
0010
0000
0100
0000
,
0010
0000
0011
0000
1001
0000
0000
1000
0010
0000
0100
0001
0000
0001
1000
0000
,
0001
0000
0010
0001
0100
0000
0010
0000
1000
0000
0010
1000
0100
0000
0010
0000
,
0001
0000
0010
0001
0100
0000
0010
0000
1000
0000
0010
1000
0100
0000
0010
0000
,
0001
0000
0010
0001
0100
0000
0010
0000
0100
0000
0001
0010
0100
0000
1000
0000
,
0001
0000
0100
0000
1010
0000
0000
1000
0100
1000
0100
0000
0011
0000
0000
0000
,
0001
1100
0101
0000
1010
0000
0101
1001
,
0000
0000
1100
0000
1000
0001
1000
0000
0001
0100
0010
1000
0001
0100
0001
0100
,
0020
0030
0000
0000
1000
0000
0000
0000
0100
0000
0000
0000
0020
0030
0001
0000
0100
0000
0000
0000
0010
0000
0000
0000
1000
0000
0000
0000
0001
0000
0000
0000
,
0200
0300
0000
0000
0001
0000
0000
0000
1000
0000
0000
0000
0200
0300
0010
0000
0001
0000
0000
0000
0100
0000
0000
0000
0010
0000
0000
0000
1000
0000
0000
0000
,
0002
0003
0000
0000
0010
0000
0000
0000
0100
0000
0000
0000
0002
0003
0100
0000
0010
0000
0000
0000
0001
0000
0000
0000
0100
0000
0000
0000
0020
0030
2000
3000
,
0002
0003
0000
0000
1000
0000
0000
0000
2200
3300
0000
0000
0000
0000
0000
0000
0202
0303
0000
0000
0001
0000
0100
0000
0010
0000
1000
0000
0001
0000
0000
0000
,
0020
0030
0000
0000
0001
0000
0000
0000
0100
0000
0000
0000
0020
0030
1000
0000
0100
0000
0000
0000
0010
0000
0000
0000
0001
0000
0000
0000
1000
0000
0000
0000
,
0200
0300
0000
0000
1000
0000
0000
0000
0001
0000
0000
0000
0200
0300
0010
0000
1000
0000
0000
0000
0100
0000
0000
0000
0010
0000
0000
0000
0001
0000
0000
0000
,
2000
3000
0000
0000
0010
0000
0000
0000
0100
0000
0000
0000
2000
3000
0100
0000
0010
0000
0000
0000
1000
0000
0000
0000
0100
0000
0000
0000
0020
0030
0002
0003
,
0200
0300
0000
0000
2000
3000
0000
0000
0200
0300
0000
0000
0002
0003
0010
0000
0200
0300
1000
0000
0100
0000
1000
0000
0002
0003
0100
0000
0001
0000
0100
0000
,
0020
1030
0001
0020
MM3M
0010
1000
0100
,
0002
0103
1000
0020
0130
1000
0002
0013
,
2000
3100
1000
0020
MM3M
0010
0001
0100
,
0010
0000
1010
0000
1001
0000
1000
0000
0100
0000
0010
0001
0100
0010
1000
0000
,
0200
1300
0001
0200
M3MM
0100
2000
3010
,
0200
0301
1000
0100
2000
3020
0032
0023
,
2030
3100
0011
0000
0001
0100
1010
0000
,
1000
0000
0100
0010
0100
0010
0100
0010
0001
0000
0100
0010
0100
0010
0100
0010
,
1000
0000
0000
1000
0010
0000
0100
0000
0010
0000
1000
0000
0100
0000
0010
0000
,
0001
0100
0010
0000
0100
0000
0001
0010
0100
1000
0001
0000
0100
0000
0010
1000
,
0001
0000
1000
0000
0100
1000
0001
0000
0010
0001
0000
0100
0010
0000
1000
0000
,
0001
0000
0010
0000
1000
0000
0000
1000
0010
0000
0001
0000
0100
0000
0010
0000
,
1010
1000
0001
0011
0010
0001
0101
0100
,
0010
1010
0010
0100
0101
0001
1001
1000
,
0100
1000
0010
0000
0100
0000
0010
1000
0100
0000
0010
0000
0001
0100
0010
0000
,
0110
0000
0000
0110
0000
0000
0101
0000
0001
1000
0001
1000
0100
0010
0100
0010
,
0001
0000
0100
0001
0010
0000
0100
0000
1000
0000
0100
1000
0010
0000
0100
0000
,
0001
0000
0100
0001
0010
0000
0100
0000
1000
0000
0100
1000
0010
0000
0100
0000
,
0001
0000
0100
0001
0010
0000
0100
0000
0010
0000
0001
1000
0010
0000
0100
0000
,
0010
0000
1010
0000
1001
0000
0000
0001
0010
0000
0100
1000
0000
1000
0001
0000
,
1000
0000
0010
1000
0100
0000
0010
0000
0001
0000
0010
0001
0100
0000
0010
0000
,
1000
0000
0010
1000
0100
0000
0010
0000
0001
0000
0010
0001
0100
0000
0010
0000
,
1000
0000
0010
1000
0100
0000
0010
0000
0100
0000
1000
0010
0100
0000
0001
0000
,
1000
0000
0100
0000
0011
0000
0000
0001
0100
0001
0100
0000
1010
0000
0000
0000
,
1001
0000
0011
0000
1001
0000
0101
0000
0110
0000
0101
0000
,
1001
0000
1010
0000
1001
0000
1100
0000
0110
0000
1100
0000
,
1001
0000
0011
0000
1001
0000
0101
0000
0110
0000
1010
0000
,
1001
1000
0100
0010
0100
0010
0001
1000
0001
0100
0001
1000
,
1001
0000
1010
0000
0110
0000
0101
0000
1001
0000
1000
0001
,
0011
0000
0010
0001
1000
0001
0100
0001
1000
0100
0010
0001
,
1001
0000
0101
0000
1010
0000
1100
0000
0011
0000
1001
0000
,
1000
0010
1000
0010
0100
0001
0100
0001
1000
0100
1000
0100
0010
0001
0010
0001
,
2000
3010
0210
0000
0301
1000
1100
0000
,
1000
0100
0110
0010
0001
0100
0110
0010
,
1000
0001
1001
1010
0000
1100
0000
0021
,
0000
0000
0130
0000
2100
0000
0000
0000
3100
0000
0010
0001
0100
0010
0100
0010
,
1000
0001
0101
0200
0000
0310
1010
1000
,
0001
0000
1000
0000
1100
0000
0200
0000
0000
0000
0310
0001
0100
0000
0010
0000
,
1010
1000
1001
0001
1000
1100
1000
1002
,
0000
0000
1003
0000
0100
0000
0012
0000
0000
0000
0013
0001
0100
0010
0100
0010
,
1000
0000
0001
0000
1000
0000
0010
0000
1000
0000
0001
0000
1000
0000
0100
1000
,
0001
0000
1000
0001
0100
0001
1000
0000
0001
0000
1000
0001
0010
0000
0100
0000
,
1000
0000
0001
1000
0010
0000
1000
0001
0010
0001
0010
0001
1000
0010
0100
0001
,
1000
0000
0100
0010
0100
1000
0001
1000
0010
0100
0001
0100
0010
1000
0001
1000
,
0100
0000
0000
0010
0000
0000
0100
0000
0000
0010
0000
0000
0001
0000
0000
0000
0000
0000
0000
0000
0000
0000
0000
0000
1100
0000
0000
0000
0000
0000
0000
0000
1001
0000
0000
0000
0000
0000
0000
0000
2010
0000
0000
0000
0000
0000
0000
0000
,
0000
0000
0000
3010
0000
0000
0100
0000
0000
0010
0000
0000
1000
0000
0000
0000
0000
0000
0000
0000
0000
0000
0000
0000
0011
0000
0000
0000
0000
0000
0000
0000
1001
0000
0000
0000
0000
0000
0000
0000
0102
0000
0000
0000
0000
0000
0000
0000
,
0000
0000
0000
1003
0000
0000
0100
0000
0000
0000
0000
0000
1001
0000
0000
0000
0000
0000
0000
0000
0000
0000
0000
0000
1100
0000
0000
0000
0000
0000
0000
0000
0110
0000
0000
0000
0000
0000
0000
0000
0012
0000
0000
0000
0000
0000
0000
0000
,
0000
0000
0000
0000
0000
0000
0103
0000
0000
0000
0000
0000
0000
0000
0000
1001
0000
0000
0000
0000
0000
0000
0000
0000
0101
0000
0000
0000
0000
0000
0000
0000
0110
0000
0000
0000
0000
0000
0000
0000
1020
0000
0000
0000
0000
0000
0000
0000
,
0000
0000
1030
0000
1000
0000
1000
0000
0001
0000
0001
0000
0001
0000
1000
0100
,
0020
0000
0030
0001
0100
0000
0020
0000
0030
1000
0100
0000
0010
0001
1000
0001
,
0100
0000
0010
1000
0100
0000
0001
0000
0100
0000
0010
0001
0100
0000
1000
0000
,
0100
0000
0010
1000
0100
0000
0001
0000
0100
0000
0010
0001
0100
0000
1000
0000
,
0100
0000
0010
1000
0100
0000
0001
0000
0100
0000
0010
0001
1000
0000
0001
0000
,
0100
0000
0101
0000
1001
0000
0000
1000
0100
0000
0010
0001
0000
0001
1000
0000
,
0010
0000
0100
0001
0010
0000
1000
0000
0010
0000
0100
1000
0010
0000
0001
0000
,
0010
0000
0100
0001
0010
0000
1000
0000
0010
0000
0100
1000
0010
0000
0001
0000
,
0010
0000
0100
0001
0010
0000
1000
0000
0010
0000
0001
1000
0010
0000
0100
0000
,
0001
0010
1001
0000
1000
0010
1001
0000
,
0011
0000
1001
0000
0101
0000
1010
0000
1001
0000
1100
0000
,
0011
0000
1001
0000
0101
0000
1010
0000
1001
0000
1100
0000
,
0011
0000
1001
0000
0101
0000
1010
0000
1001
0000
1100
0000
,
1001
1000
0100
1000
0100
0010
0100
0001
0100
1000
0010
1000
,
1010
0000
0011
0000
0101
0000
1100
0000
0101
0000
0001
0010
,
0011
0000
0001
0100
0010
0100
1000
0100
0010
0100
0001
1000
,
1001
0000
1010
0000
1100
0000
0101
0000
0011
0000
1010
0000
,
1001
0000
0001
0000
1000
0000
1100
0000
0100
0000
0010
0001
,
1002
0000
2003
0000
3200
0000
0320
0000
0032
0000
0203
0000
,
0320
0000
2030
0000
3200
0000
0302
0000
2003
0000
3020
0000
,
0032
0003
0000
0000
;

//---------------dance-single - ----------------
#NOTEDATA:;
#CHARTNAME:;
#STEPSTYPE:dance-single;
#DESCRIPTION:;
#CHARTSTYLE:;
#DIFFICULTY:Hard;
#METER:15;
#RADARVALUES:0.794242,0.824352,0.349858,0.646476,0.718730,731.000000,685.000000,46.000000,85.000000,0.000000,0.000000,0.000000,0.000000,0.000000,0.794242,0.824352,0.349858,0.646476,0.718730,731.000000,685.000000,46.000000,85.000000,0.000000,0.000000,0.000000,0.000000,0.000000;
#CREDIT:;
#NOTES:
0000
0000
0000
0000
,
0000
0000
0000
0000
,
0000
0000
0000
0000
,
0000
0000
0000
0000
,
1000
0100
0010
0100
0000
0011
0000
1100
,
0000
1000
0001
0100
0010
0100
1000
0100
,
0001
0100
0010
0100
0000
1010
0000
0101
,
0000
0000
0001
0100
0001
0000
1000
0100
1000
0000
0001
0100
0001
0100
0001
0000
,
1000
0000
0100
0020
0000
0000
1030
0000
0010
0000
0100
2000
0000
0000
3010
0000
,
0100
0000
1000
0200
0000
0000
0310
0000
1000
0000
0100
0020
0000
0000
1030
0000
,
0010
0000
0100
2000
0000
0000
3010
0000
0100
0000
1000
0200
0000
0000
0301
0000
,
0010
0000
0100
0000
0110
0000
0000
1000
0001
0000
0100
0010
0000
0010
1000
0000
,
0001
0000
0100
0020
0000
0000
0031
0000
0010
0000
0100
0002
0000
0000
0013
0000
,
0100
0000
0001
0200
0000
0000
0310
0000
0001
0000
0100
0020
0000
0000
0031
0000
,
0010
0000
0100
0002
0000
0000
0013
0000
0100
0000
0001
0200
0000
0000
1300
0000
,
0010
0100
0101
0000
0001
0010
1100
0000
,
0010
1001
1001
0000
0012
0000
1003
2010
,
0000
0000
3010
0000
0100
0001
0100
0000
0010
1000
0010
0000
1000
0001
1000
0001
,
1000
0100
0010
0001
1000
0001
1000
0001
,
0010
0100
1000
0010
0100
0010
0100
0010
,
1000
0000
0001
0000
0010
0000
0100
0000
1000
0000
0100
0000
1000
0000
0100
0010
,
0001
0000
0000
0000
0101
0000
0000
0000
1001
0000
0000
0001
0010
0100
1000
0000
,
0001
0100
0010
1000
0001
1000
0001
1000
,
0010
0100
0001
0010
0100
0010
0100
0010
,
0001
0000
1000
0000
0010
0000
0100
0000
0001
0000
0100
0000
0001
0000
0010
0100
,
1000
0000
0010
0000
0001
0000
0010
0000
1000
0010
1000
0000
0001
0100
0001
0000
,
1000
0100
0010
0002
0000
1003
0100
0010
,
0001
0100
1000
0001
0010
1000
0001
0100
,
0001
0010
0100
2000
0000
3001
0010
0100
,
1000
0000
0010
0000
0100
0000
0001
0000
1000
0000
0100
0010
0000
0010
0001
0000
,
1000
0010
1000
0200
0000
0310
0002
0000
,
1003
0001
0100
0000
0010
1000
0100
0001
,
0100
1000
0010
0000
0100
0001
0010
0000
,
1001
0000
0000
0000
1000
0100
1000
0100
0010
0000
0000
0000
0001
0100
0001
0100
,
0020
0000
0000
0000
1030
0000
1000
0000
0020
0000
0000
2030
0000
0000
3002
0000
,
0023
0000
0000
0000
0031
0000
0001
0000
2000
0000
0000
3020
0000
0000
0230
0000
,
0302
0023
2030
3200
,
0302
0000
0000
0000
0013
0000
0000
0010
0001
0000
0100
0000
0010
0000
1000
0000
,
2010
0000
0000
0000
3001
0000
0100
0000
1010
0000
0000
1001
0000
0000
0011
0000
,
0012
0000
0000
0000
1003
0000
0100
0000
0011
0000
0000
1001
0000
0000
1010
0000
,
1000
0010
1000
0000
0001
0000
0010
0001
0010
0000
0001
0000
1000
0010
0100
0000
,
0120
0000
0000
0100
0000
0000
0130
0000
0010
1000
0001
0000
0010
0001
1000
0000
,
0001
0000
0100
0020
0000
0000
0031
0000
0010
0000
0100
0002
0000
0000
0013
0000
,
0100
0000
0001
0200
0000
0000
0310
0000
0001
0000
0100
0020
0000
0000
0031
0000
,
0010
0000
0100
0002
0000
0000
0013
0000
0100
0000
0001
0200
0000
0000
1300
0000
,
0010
0000
0100
0000
0110
0000
0000
0001
1000
0000
0100
0010
0000
0010
0001
0000
,
1000
0000
0100
0020
0000
0000
1030
0000
0010
0000
0100
2000
0000
0000
3010
0000
,
0100
0000
1000
0200
0000
0000
0310
0000
1000
0000
0100
0020
0000
0000
1030
0000
,
0010
0000
0100
2000
0000
0000
3010
0000
0100
0000
1000
0200
0000
0000
0301
0000
,
0010
0100
1100
0000
1000
0010
0101
0000
,
1000
0000
0010
0000
0001
0000
1000
0000
0100
0000
0001
0000
,
1000
0000
0010
0000
0001
0000
1000
0000
0100
0000
0001
0000
,
1000
0000
0010
0000
0001
0000
1000
0000
0100
0000
0001
0000
,
1000
0100
1000
0100
0010
0001
0100
0010
0100
0010
1000
0001
,
0010
0000
1000
0000
0001
0000
0100
0000
1000
0000
0001
0100
,
0010
0000
1000
0010
0100
0001
1000
0100
1000
0100
0010
0001
,
0100
0000
1000
0000
0001
0000
0010
0000
1000
0000
0100
0000
,
0010
0000
0001
0100
0001
0100
0001
0000
1000
0100
0010
0000
0001
0100
0010
0000
,
1000
0100
0002
0000
0103
1000
0001
0000
,
1000
0010
0001
0010
1000
0100
0001
0100
,
1000
0010
0100
0101
0000
1001
0000
0021
,
0000
0000
0100
0000
0230
0000
0000
0000
0310
0000
0001
1000
0001
1000
0010
0000
,
0200
0000
0310
2000
0000
3100
0001
1000
,
0010
0001
0100
2000
0000
3100
0001
1000
,
0100
0100
0010
0010
0001
0100
0010
2010
,
0000
0000
3100
0000
0010
0000
0012
0000
0000
0000
1003
0010
0100
0001
1000
0000
,
0001
0000
0000
0000
0001
0000
0000
0000
0001
0000
0000
0000
0001
0000
1000
0100
,
1000
0000
0000
1000
0100
0000
1000
0000
0001
0000
0100
0001
0100
0000
0001
0000
,
1000
0000
0000
1000
0100
0000
0010
0000
0001
0000
0100
0000
1000
0000
0100
0000
,
0001
0000
0000
0001
0010
0000
1000
0000
0010
0000
0001
0000
0100
0000
0010
0000
,
1000
0000
0000
0001
0000
0000
1000
0000
0000
0001
0000
0000
0010
0000
0000
0000
0000
0000
0000
0000
0000
0000
0000
0000
1100
0000
0000
0000
0000
0000
0000
0000
1001
0000
0000
0000
0000
0000
0000
0000
0201
0000
0000
0000
0000
0000
0000
0000
,
0000
0000
0000
0310
0000
0000
0101
0000
1001
0000
2010
0000
,
0000
0000
0000
0001
0000
0000
3001
0000
0000
0000
0000
0000
1010
0000
0000
0000
1001
0000
0000
0000
0021
0000
0000
0000
,
0000
0000
0000
0000
0000
0000
0100
0000
0000
0000
0000
0000
0000
0000
0000
0031
0000
0000
0000
0000
0000
0000
0000
0000
0011
0000
0000
0000
0000
0000
0000
0000
1001
0000
0000
0000
0000
0000
0000
0000
1020
0000
0000
0000
0000
0000
0000
0000
,
0000
0000
1000
0000
1000
0000
1030
0000
0010
0000
1000
0000
0010
0000
1000
0001
,
0020
0000
0000
0130
1000
0000
0020
0000
0000
0130
0001
0000
1000
0100
0010
0001
,
1000
0000
0010
0002
0000
0000
0013
0000
1000
0000
0100
0002
0000
0000
0103
0000
,
1000
0000
0010
0002
0000
0000
0013
0000
1000
0000
0100
0002
0000
0000
0103
0000
,
1000
0000
0010
0002
0000
0000
1003
0000
0100
0000
0001
0020
0000
0000
0130
0000
,
0010
0000
0001
0000
0101
0000
0000
1000
0100
0000
1000
0010
0000
0010
0100
0000
,
0001
0000
0010
2000
0000
0000
3010
0000
0001
0000
0100
2000
0000
0000
3100
0000
,
0001
0000
0010
2000
0000
0000
3010
0000
0001
0000
0100
2000
0000
0000
3100
0000
,
0001
0000
0010
2000
0000
0000
3001
0000
0100
0000
1000
0020
0000
0000
0031
0000
,
0010
1000
1001
0000
0100
0010
1001
0000
,
0001
0000
0010
0000
1000
0000
0001
0000
0100
0000
1000
0000
,
0001
0000
0010
0000
1000
0000
0001
0000
0100
0000
1000
0000
,
0001
0000
0010
0000
1000
0000
0001
0000
0100
0000
1000
0000
,
0001
0100
0001
0100
0010
1000
0001
0010
0001
0010
0001
1000
,
0010
0000
0001
0000
1000
0000
0100
0000
0001
0000
1000
0100
,
0010
0000
0001
0100
0001
0100
0010
1000
0001
1000
0001
1000
,
0100
0000
0001
0000
1000
0000
0010
0000
0001
0000
0100
0000
,
1000
0000
0100
0000
0001
0000
1000
0000
0100
0000
0010
0000
,
0002
0000
0203
0000
0302
0000
2003
0000
3200
0000
2300
0000
,
3020
0000
0230
0000
0302
0000
0023
0000
0230
0000
2300
0000
,
3020
0030
0000
0000
;

//---------------dance-single - ----------------
#NOTEDATA:;
#CHARTNAME:;
#STEPSTYPE:dance-single;
#DESCRIPTION:;
#CHARTSTYLE:;
#DIFFICULTY:Medium;
#METER:13;
#RADARVALUES:0.617140,0.609304,0.250985,0.532392,0.460139,568.000000,535.000000,33.000000,70.000000,0.000000,0.000000,0.000000,0.000000,0.000000,0.617140,0.609304,0.250985,0.532392,0.460139,568.000000,535.000000,33.000000,70.000000,0.000000,0.000000,0.000000,0.000000,0.000000;
#CREDIT:;
#NOTES:
0000
0000
0000
0000
,
0000
0000
0000
0000
,
0000
0000
0000
0000
,
0000
0000
0000
0000
,
1000
0001
1000
0001
0000
0101
0000
1010
,
0000
1000
0001
0010
0001
0100
0001
0010
,
0001
1000
0001
1000
0000
1100
0000
0011
,
0000
0001
0100
0000
0100
0010
1000
0001
,
0010
0000
0000
0001
0000
0000
0100
0000
0010
0000
0000
0100
0000
0000
0001
0000
,
0010
0000
0000
0001
0000
0000
0100
0000
0010
0000
0000
0100
0000
0000
0001
0000
,
0010
0000
0000
0001
0000
0000
0100
0000
1000
0000
0000
0100
0000
0000
0001
0000
,
2000
0000
0100
0000
0100
0000
0000
0000
3001
0000
0000
0001
0000
0000
0100
0000
,
0010
0000
0000
1000
0000
0000
0100
0000
0010
0000
0000
0100
0000
0000
1000
0000
,
0010
0000
0000
1000
0000
0000
0100
0000
0010
0000
0000
0100
0000
0000
1000
0000
,
0010
0000
0000
1000
0000
0000
0100
0000
0001
0000
0000
0100
0000
0000
0010
0000
,
0002
1000
1003
0000
0010
1000
0001
0000
,
1000
1000
0100
0000
0022
0000
0033
0202
,
0000
0303
1001
0000
0001
0100
0010
1000
,
0001
0000
0001
0100
0000
0100
0010
0000
,
1000
0000
1000
0100
0000
0100
0010
0000
,
0001
0000
1000
0010
0000
0010
0100
0001
,
0010
0000
1100
0000
0101
0000
0100
0001
,
1000
0000
1000
0100
0000
0100
0010
0000
,
0001
0000
0001
0100
0000
0100
0010
0000
,
1000
0000
0001
0010
0000
0001
0010
1000
,
0010
0001
0100
0010
1000
0000
0110
0000
,
1002
0000
1003
0200
0000
0310
0001
0000
,
2000
0000
3010
0200
0000
0301
0020
0000
,
0032
0000
1003
0200
0000
0310
0001
1000
,
0000
1000
0001
0100
0010
1000
0100
0010
,
0002
0000
1003
0020
0000
1030
0002
0000
,
0023
0000
0130
0000
0010
0001
1000
0010
,
0200
0010
0310
0100
,
0001
1000
0100
1000
0001
1000
0100
1000
,
0002
0000
0000
0000
0103
0000
0000
0000
0002
0000
0000
0203
0000
0000
0320
0000
,
2030
0000
0000
0000
3001
0000
0000
0000
2000
0000
0000
3200
0000
0000
0320
0000
,
0032
0203
2300
3200
,
0302
0000
0013
0000
0010
0001
0100
0010
,
1020
0000
0000
0000
0130
0000
0000
0000
0010
0000
0000
1000
0000
0000
0001
0000
,
0021
0000
0000
0000
0130
0000
0000
0000
0010
0000
0000
0001
0000
0000
1000
0000
,
1010
0101
0011
1100
,
1001
0000
0000
0001
0000
0000
1000
0000
0010
0000
0100
0000
0001
0000
0010
0000
,
0100
0000
0000
1000
0000
0000
0010
0000
0100
0000
0000
0010
0000
0000
1000
0000
,
0100
0000
0000
1000
0000
0000
0010
0000
0100
0000
0000
0010
0000
0000
1000
0000
,
0100
0000
0000
1000
0000
0000
0010
0000
0001
0000
0000
0010
0000
0000
1000
0000
,
0002
0000
0010
0000
0010
0000
0000
0000
1003
0000
0000
1000
0000
0000
0010
0000
,
0100
0000
0000
0001
0000
0000
0010
0000
0100
0000
0000
0010
0000
0000
0001
0000
,
0100
0000
0000
0001
0000
0000
0010
0000
0100
0000
0000
0010
0000
0000
0001
0000
,
0100
0000
0000
0001
0000
0000
0010
0000
1000
0000
0000
0010
0000
0000
0100
0000
,
2000
0001
3001
0000
0100
0001
1000
0000
,
0001
0000
0010
0000
0001
0000
1000
0000
0100
0000
1000
0000
,
0001
0000
0010
0000
0001
0000
1000
0000
0100
0000
1000
0000
,
0001
0000
0010
0000
0001
0000
1000
0000
0100
0000
1000
0000
,
0002
0000
0100
0000
0100
0000
0103
0000
0001
0000
0100
0000
,
1010
0000
0010
0000
1000
0000
0001
0000
1000
0000
0100
0000
,
0011
0000
0010
0000
0001
0000
1000
0000
0001
0000
0100
0000
,
1010
0000
0010
0000
1000
0000
0001
0000
0010
0000
0100
0000
,
1000
0001
0100
0010
1000
0001
0010
0100
,
2000
0000
3002
0000
0103
0001
0010
0000
,
0100
1000
0010
1000
0001
1000
0100
0010
,
0001
0100
0010
1000
0000
0101
0000
2010
,
0000
3002
0000
1003
0100
0010
0001
0100
,
0020
0000
1030
0200
0000
0310
0001
1000
,
0001
0100
0010
0200
0000
0310
1000
0001
,
0010
0100
0010
0100
0010
0001
0100
2000
,
0000
3100
0001
0020
0000
0031
0100
0010
,
1000
0100
1000
0001
1000
0100
1000
0010
,
1000
0100
1000
0001
1000
0100
1000
0010
,
0100
0001
0100
0010
0100
0001
0100
1000
,
0100
0001
0100
0010
0100
0001
0100
1000
,
0100
0000
0000
0001
0000
0000
1000
0000
0000
0000
0000
0000
0001
0000
0000
0000
0001
0000
0000
0000
0002
0000
0000
0000
,
0000
0003
0000
0011
0000
0000
1000
0000
1000
0000
2000
0000
,
0000
0000
0000
3010
0000
0000
1010
0000
0000
0000
0000
0000
0001
0000
0000
0000
1000
0000
0000
0000
0002
0000
0000
0000
,
0000
0000
0000
0000
0000
0000
0013
0000
0000
0000
0000
0000
0000
0000
0000
1001
0000
0000
0000
0000
0000
0000
0000
0000
0100
0000
0000
0000
0000
0000
0000
0000
0100
0000
0000
0000
0000
0000
0000
0000
2001
0000
0000
0000
0000
0000
0000
0000
,
0000
3010
0100
0010
1000
0001
1000
0100
,
2002
0000
3003
0220
0000
0330
1000
0001
,
1000
0000
0000
0010
0000
0000
0001
0000
1000
0000
0000
0001
0000
0000
0010
0000
,
1000
0000
0000
0100
0000
0000
0001
0000
1000
0000
0000
0001
0000
0000
0100
0000
,
1000
0000
0000
0010
0000
0000
0001
0000
1000
0000
0000
0100
0000
0000
0001
0000
,
2000
0000
0100
0000
0100
0000
0000
0000
3001
0000
0000
0001
0000
0000
1000
0000
,
0001
0000
0000
0010
0000
0000
1000
0000
0001
0000
0000
1000
0000
0000
0010
0000
,
0001
0000
0000
0100
0000
0000
1000
0000
0001
0000
0000
1000
0000
0000
0100
0000
,
0001
0000
0000
0010
0000
0000
1000
0000
0001
0000
0000
0100
0000
0000
1000
0000
,
0020
0100
0130
0000
0010
0100
0001
0000
,
1000
0000
0100
0000
0010
0000
0001
0000
0100
0000
0010
0000
,
1000
0000
0100
0000
0010
0000
0001
0000
0100
0000
0010
0000
,
1000
0000
0100
0000
0010
0000
0001
0000
0100
0000
0010
0000
,
2000
0000
0010
0000
0010
0000
3010
0000
1000
0000
0001
0000
,
0011
0000
0010
0000
0001
0000
0100
0000
0010
0000
1000
0000
,
1010
0000
0010
0000
1000
0000
0100
0000
0010
0000
0001
0000
,
0011
0000
0010
0000
0001
0000
0100
0000
0010
0000
1000
0000
,
1002
0000
1000
0000
1003
0000
0100
0000
0010
0000
0001
0000
,
2000
0000
3020
0000
2030
0000
3002
0000
0203
0000
0302
0000
,
2003
0000
3200
0000
2300
0000
3002
0000
0023
0000
0032
0000
,
2003
3000
0000
0000
;

//---------------dance-single - ----------------
#NOTEDATA:;
#CHARTNAME:;
#STEPSTYPE:dance-single;
#DESCRIPTION:;
#CHARTSTYLE:;
#DIFFICULTY:Easy;
#METER:9;
#RADARVALUES:0.433519,0.537621,0.463942,1.003940,0.000000,399.000000,338.000000,61.000000,132.000000,0.000000,0.000000,0.000000,0.000000,0.000000,0.433519,0.537621,0.463942,1.003940,0.000000,399.000000,338.000000,61.000000,132.000000,0.000000,0.000000,0.000000,0.000000,0.000000;
#CREDIT:;
#NOTES:
0000
0000
0000
0000
,
0000
0000
0000
0000
,
0000
0000
0000
0000
,
0000
0000
0000
0000
,
1000
0000
0001
0010
0000
1100
0000
0011
,
0000
0000
0001
0000
0010
0001
1000
0000
,
0001
0000
1000
0010
0000
0101
0000
1010
,
0000
0010
0010
0010
,
2001
0100
3002
0100
,
2003
0100
3002
0100
,
2003
0100
3002
0100
,
1003
0001
1000
0000
1001
0000
0110
0000
,
1002
0100
2003
0100
,
3002
0100
2003
0100
,
3002
0100
2003
0100
,
3001
0011
1000
1010
,
0001
1000
0001
0000
2001
0000
0000
0200
,
0000
0300
0100
0001
,
3001
0000
1000
0010
0000
1000
0010
0000
,
1000
0000
0001
0010
0000
0001
0010
0000
,
0100
0000
1000
0010
0000
1000
0001
0000
,
0011
0110
2200
3300
,
1000
0000
0001
0010
0000
0001
0010
0000
,
0001
0000
1000
0010
0000
1000
0010
0000
,
0100
0000
0001
0010
0000
0100
1000
0000
,
0001
0100
0001
0100
0010
0000
0110
0000
,
2001
0000
3100
0020
0000
0000
0130
0000
,
2000
0000
3100
0002
0000
0000
0203
0000
,
2300
0000
3001
0200
0000
0000
0310
0000
,
0000
0010
1000
0000
0100
0010
0001
0000
,
1002
0000
0103
0020
0000
0000
0230
0000
,
2300
0000
3100
0000
0010
0100
0010
0100
,
0002
0013
0001
0010
,
0100
0000
1000
0001
0100
0000
0001
1000
,
0200
0000
0300
0000
0100
0000
0010
0001
,
2000
0000
3000
0000
1000
0000
0001
0100
,
0020
2030
3002
0203
,
0320
0000
1030
0001
,
0022
0033
0011
1100
,
2002
3003
1001
0101
,
2010
3001
0012
1003
,
2002
0000
3003
0000
1000
0100
0010
0001
,
2000
0010
3002
0010
,
2003
0010
3002
0010
,
2003
0010
3002
0010
,
1003
0001
1000
0000
1001
0000
0110
0000
,
1002
0010
2003
0010
,
3002
0010
2003
0010
,
3002
0010
2003
0010
,
3001
0101
1000
1100
,
2020
0030
0002
3003
,
0022
0030
2000
3003
,
2020
0030
0002
3003
,
2200
0000
0000
3300
,
0022
0030
2000
3003
,
0202
0003
0020
0330
,
2020
0030
0002
3003
,
1000
0100
1000
0000
0001
0100
0001
0000
,
2000
3020
0130
0010
,
1000
0001
1000
0000
0100
0010
0001
0000
,
1000
0000
0001
0100
0000
0110
0000
1002
,
0000
0023
0000
0000
0031
0000
0010
0100
,
2000
0000
3010
0200
0000
0000
0301
0100
,
0001
0000
0010
0200
0000
0000
1300
0000
,
0010
0100
0010
0000
0100
0010
0000
2001
,
0000
3100
0000
0022
0000
0000
0033
0000
,
1000
0100
1000
0010
,
1000
0100
1000
0010
,
0100
0001
0010
0001
,
0100
0001
0010
0001
,
1000
0100
1000
0000
2002
0000
0000
0000
,
3003
0001
0100
0000
0202
0000
0000
0000
,
0303
1000
0100
0000
2200
0000
0000
0000
,
3300
0010
0220
0000
,
0330
0000
0001
0000
1000
0001
1000
0000
,
1001
0000
0000
1001
0000
0000
1001
0000
,
2000
0010
3002
0100
,
2003
0010
3002
0100
,
2003
0010
3002
0100
,
1003
0001
1000
0000
0110
0000
1001
0000
,
0002
0010
2003
0100
,
3002
0010
2003
0100
,
3002
0010
2003
0100
,
3001
0101
1000
1010
,
0022
0030
0200
0303
,
2020
0030
0200
3300
,
0022
0030
0200
0303
,
2002
0000
0000
3003
,
2020
0030
0200
3300
,
0202
0300
0020
0033
,
2020
0030
0002
3003
,
0220
0000
0000
0330
,
0002
0000
0203
0000
,
2300
0000
3020
0000
,
0032
0003
0000
0000
;

//---------------dance-single - ----------------
#NOTEDATA:;
#CHARTNAME:;
#STEPSTYPE:dance-single;
#DESCRIPTION:;
#CHARTSTYLE:;
#DIFFICULTY:Beginner;
#METER:7;
#RADARVALUES:0.321608,0.358414,0.228168,0.669293,0.000000,296.000000,266.000000,30.000000,88.000000,0.000000,0.000000,0.000000,0.000000,0.000000,0.321608,0.358414,0.228168,0.669293,0.000000,296.000000,266.000000,30.000000,88.000000,0.000000,0.000000,0.000000,0.000000,0.000000;
#CREDIT:;
#OFFSET:-0.010090;
#BPMS:0.000000=180.000000
,368.000000=169.000000
,368.666656=165.000000
,369.333344=154.000000
,370.000000=143.500000
,370.666656=140.500000
,371.333344=133.500000
,372.000000=131.500000
,372.666656=103.250000
,373.333344=102.000000
,374.000000=85.699997
,374.666656=73.599998
,375.333344=41.750000
;
#STOPS:;
#DELAYS:;
#WARPS:;
#TIMESIGNATURES:0.000000=4=4
;
#TICKCOUNTS:0.000000=4
;
#COMBOS:0.000000=1
;
#SPEEDS:0.000000=1.000000=0.000000=0
;
#SCROLLS:0.000000=1.000000
,368.000000=1.065089
,368.666656=1.090909
,369.333344=1.168831
,370.000000=1.254355
,370.666656=1.281139
,371.333344=1.348315
,372.000000=1.368821
,372.666656=1.743341
,373.333344=1.764706
,374.000000=2.100350
,374.666656=2.445652
,375.333344=4.311377
;
#FAKES:;
#LABELS:0.000000=Song Start
;
#NOTES:
0000
0000
0000
0000
,
0000
0000
0000
0000
,
0000
0000
0000
0000
,
0000
0000
0000
0000
,
1000
0000
0000
0010
0000
0000
0000
1001
,
0000
0001
1000
1000
,
0001
0000
0000
0010
0000
0000
0000
1001
,
0000
0001
0001
0001
,
2000
3010
0200
0301
,
2000
3100
0020
0031
,
2000
3010
0200
0301
,
2000
0000
3001
0001
,
0002
0103
0020
1030
,
0002
0013
0200
1300
,
0002
0103
0020
1030
,
0002
0000
1003
0000
,
1001
0000
1001
0000
0210
0000
0000
0020
,
0000
0000
0000
0330
,
0001
0010
0001
0000
,
0010
0100
0010
0000
,
0100
1000
0100
0000
,
1000
1000
0002
0003
,
1000
0010
1000
0000
,
0010
0100
0010
0000
,
0100
0001
0100
0000
,
0001
0010
0100
1000
,
0001
0100
0020
0030
,
0010
0100
0001
0010
,
0001
0100
0020
0030
,
1000
0100
0010
0001
,
1000
0100
0020
0030
,
0200
0300
0010
0100
,
2000
3000
0001
0000
,
1000
0001
1000
0001
,
0200
0300
0100
0100
,
0020
0030
0010
0010
,
1000
0100
0010
0001
,
2000
3000
0001
0100
,
2002
3003
1000
0100
,
2002
3003
0001
0100
,
0010
1000
0100
0010
,
2002
3003
1000
0001
,
2000
3100
0020
0031
,
2000
3010
0200
0301
,
2000
3100
0020
0031
,
2000
0000
3001
0001
,
0002
0013
0200
1300
,
0002
0103
0020
1030
,
0002
0013
0200
1300
,
0002
0000
1003
0001
,
1001
0000
0001
0000
,
0011
0000
0001
0000
,
0101
0000
0001
0000
,
2002
0000
0000
3003
,
1001
0000
1000
0000
,
1010
0000
1000
0000
,
1001
0000
1000
0000
,
0001
1000
0001
1000
,
0200
0000
0310
0000
,
0100
0010
0001
1000
,
0010
0000
0000
0100
0000
0010
0000
0220
,
0000
0300
0000
0000
1030
0000
0001
0000
,
0010
0100
2000
3000
,
0010
0100
0002
0003
,
1000
0000
0100
0000
0100
0000
0000
0020
,
0000
0030
0000
2002
0000
0000
3003
0000
,
1000
1000
0001
0001
,
1000
1000
0001
0001
,
0100
0100
0010
0010
,
0100
0100
0010
0010
,
1000
0000
2200
0000
,
3300
0000
0220
0000
,
0330
0000
0022
0000
,
0033
0000
2002
0000
,
3003
0001
1000
0001
,
2002
0000
0000
3003
,
0002
0013
0002
0103
,
0020
1030
0200
1300
,
0002
0013
0002
0103
,
0020
0000
1030
1000
,
2000
3010
2000
3100
,
0020
0031
0200
0301
,
2000
3010
2000
3100
,
0020
0000
0130
0010
,
0011
0000
0001
0000
,
0101
0000
0100
0000
,
1010
0000
1000
0000
,
2200
0000
0000
3300
,
1010
0000
1000
0000
,
1100
0000
0100
0000
,
0011
0000
0001
0000
,
0202
0000
0000
0303
,
2000
0000
3200
0000
,
0320
0000
0032
0000
,
0203
0300
0000
0000
;
