#VERSION:0.83;
#TITLE:Pink Cloud (feat. Max Collins);
#SUBTITLE:;
#ARTIST:Pegboard Nerds;
#TITLETRANSLIT:;
#SUBTITLETRANSLIT:;
#ARTISTTRANSLIT:;
#GENRE:Indie Dance;
#ORIGIN:;
#CREDIT:;
#BANNER:Pink Cloud (feat. Max Collins).png;
#BACKGROUND:Pink Cloud (feat. Max Collins)-bg.png;
#PREVIEWVID:;
#JACKET:Pink Cloud (feat. Max Collins)-jacket.png;
#CDIMAGE:;
#DISCIMAGE:;
#LYRICSPATH:;
#CDTITLE:cdtitle.png;
#MUSIC:Pink Cloud (feat. Max Collins).ogg;
#OFFSET:2.483364;
#SAMPLESTART:58.604546;
#SAMPLELENGTH:11.636368;
#SELECTABLE:YES;
#BPMS:0.000=82.500;
#STOPS:;
#DELAYS:;
#WARPS:;
#TIMESIGNATURES:0.000=4=4;
#TICKCOUNTS:0.000=4;
#COMBOS:0.000=1;
#SPEEDS:0.000=1.000=0.000=0;
#SCROLLS:0.000=1.000;
#FAKES:;
#LABELS:0.000=Song Start;
#BGCHANGES:;
#KEYSOUNDS:;
#ATTACKS:
;

//---------------dance-single - ----------------
#NOTEDATA:;
#CHARTNAME:;
#STEPSTYPE:dance-single;
#DESCRIPTION:;
#CHARTSTYLE:;
#DIFFICULTY:Challenge;
#METER:10;
#RADARVALUES:0.427829,0.435515,0.284252,0.385771,0.517745,295.000000,267.000000,28.000000,38.000000,0.000000,1.000000,0.000000,0.000000,0.000000,0.427829,0.435515,0.284252,0.385771,0.517745,295.000000,267.000000,28.000000,38.000000,0.000000,1.000000,0.000000,0.000000,0.000000;
#CREDIT:;
#NOTES:
0000
0000
0000
0000
,
0000
0000
0000
0000
,
0000
0000
0000
0000
,
0001
0000
0001
0000
0010
0001
1000
0001
0010
0000
0001
0000
0100
0001
1000
0001
,
0200
0000
0000
0000
0000
0000
0300
0110
,
1001
0000
1000
0010
1000
0010
0100
0002
0000
0000
0013
0100
0010
0100
1000
0002
,
0000
0000
0000
0103
0000
0100
0000
0010
1000
0100
1000
0100
0010
0000
0001
0000
,
0100
0000
0100
0000
0010
1000
0000
1000
0100
0000
0100
0000
0010
0001
0000
2002
,
0000
0000
0000
0000
0000
3003
0000
0001
0000
0001
0000
0001
1000
0010
0100
0001
,
1000
0000
1000
0100
0010
0100
1000
0000
0100
0000
0100
0010
0001
0000
0022
0000
,
0033
0000
0001
0100
0010
0100
0001
0000
0100
0000
0100
0000
0010
0000
2020
0000
,
3030
0000
1000
0100
0010
0000
0001
0100
0010
0000
1000
0000
0100
0000
0010
0000
,
0001
0100
0000
0010
0000
1000
0000
0001
0000
0001
0000
0001
0010
0100
0010
0100
,
1000
0000
0001
0100
0010
0000
0100
0001
0010
0000
0001
0100
0010
0000
2020
0000
,
3030
0000
1000
0100
1000
0100
0010
0100
1000
0000
0010
1000
0100
0000
0022
0000
,
0033
0000
0001
0010
0100
0010
0100
1000
0001
0100
0001
0100
0010
0000
2000
0002
,
0000
0000
0000
0000
3003
1001
0000
1001
,
1000
0100
1000
0000
0200
0001
0300
0100
1000
0000
0100
0000
0010
0000
0012
0000
,
0103
0000
2010
0000
3100
0010
0000
0100
0000
0100
0000
0010
0002
0000
1003
0000
,
0001
0100
0001
0000
0200
1000
0300
0100
0001
0000
0000
0100
0010
1000
0000
2002
,
0000
3003
0110
0000
0001
0000
0110
0000
1000
0000
0110
0000
0001
0100
0010
1000
,
0001
0010
0001
0000
0020
1000
0030
0010
0001
0000
0100
0000
0010
0000
2010
0000
,
3100
0000
0012
0000
0103
0010
0000
0010
1000
0100
1000
0100
0010
0000
0001
0000
,
0100
0000
0010
0000
1000
0100
0000
0100
0010
0000
0001
0000
0100
0010
0000
2002
,
0000
3003
0110
0000
1000
0000
0110
0000
0001
0000
0110
0000
2000
0000
0000
0000
,
3001
0000
0100
0000
0001
0100
0000
0010
0000
1000
0000
0100
0000
0010
0001
0100
,
0000
0001
0010
0000
0200
0010
0000
0310
0001
0100
0001
0100
0010
0000
1000
0000
,
0001
0000
0010
0000
0001
0010
0000
2100
0000
3001
0000
0001
1000
0010
0000
0220
,
0000
0330
1001
0000
0010
0000
1001
0000
0100
0000
1001
0000
0002
0000
0000
0000
,
1003
0010
1000
0000
0020
0001
0030
0010
1000
0000
0100
0000
0010
0000
0012
0000
,
0103
0000
2010
0000
3100
0010
0000
0010
0001
0100
0001
0100
0010
0000
1000
0000
,
0002
0000
0000
0200
0000
0000
1000
0000
,
0000
0000
0000
0000
,
0303
0000
0000
0000
;

//---------------dance-single - ----------------
#NOTEDATA:;
#CHARTNAME:;
#STEPSTYPE:dance-single;
#DESCRIPTION:;
#CHARTSTYLE:;
#DIFFICULTY:Hard;
#METER:8;
#RADARVALUES:0.362567,0.385264,0.233493,0.395923,0.365467,250.000000,227.000000,23.000000,39.000000,0.000000,0.000000,0.000000,0.000000,0.000000,0.362567,0.385264,0.233493,0.395923,0.365467,250.000000,227.000000,23.000000,39.000000,0.000000,0.000000,0.000000,0.000000,0.000000;
#CREDIT:;
#NOTES:
0000
0000
0000
0000
,
0000
0000
0000
0000
,
0000
0000
0000
0000
,
0001
0100
0001
0100
0010
1000
0010
1000
,
0200
0000
0000
0000
0000
0000
0300
0110
,
1001
0000
1000
0000
0100
0000
0010
0002
0000
0000
1003
0000
0010
0000
0100
0002
,
0000
0000
0000
0013
0000
0100
0000
0010
0001
0010
0001
1000
0010
0000
0100
0000
,
0001
0000
0001
0000
1000
0100
0000
0100
1000
0000
1000
0000
0001
0100
0000
0220
,
0000
0000
0000
0000
0000
0330
0000
0010
0000
0010
0000
0100
0010
0100
0001
0000
,
1000
0000
0001
0000
0001
0000
0010
0001
0010
0000
0100
0000
1000
0000
2020
0000
,
3030
0000
1000
0000
1000
0000
0010
1000
0010
0000
0100
0000
0001
0000
0022
0000
,
0033
0000
0001
0000
0010
0000
0100
1000
0001
0000
0100
0000
0010
0000
1000
0000
,
0001
0010
0000
0100
0000
1000
0000
0002
0000
0000
0003
0000
1000
0001
1000
0001
,
1000
0000
0001
0000
0001
0000
0010
0001
0100
0000
1000
0000
0100
0000
0220
0000
,
0330
0000
1000
0000
1000
0000
0010
1000
0100
0000
0001
0000
0100
0000
0220
0000
,
0330
0000
1000
0000
0100
0000
0010
0001
0100
0000
0010
0000
1000
0000
0000
2002
,
0000
0000
0000
0000
3003
1001
0000
1001
,
1000
0001
0010
0000
0200
0000
0300
0010
0001
0000
0100
0000
0010
0000
2020
0000
,
3030
0000
0011
0000
1000
0100
0000
1000
0000
0100
0000
0010
0002
0000
1003
0000
,
0001
1000
0010
0000
0200
0010
0300
0010
1000
0000
0000
1000
0100
0010
0000
0210
,
0000
0000
1000
0000
0000
0000
0001
0000
0000
0000
1300
0000
0100
0010
0001
0000
,
1000
0010
0100
0000
0002
0000
0003
0010
0100
0000
1000
0000
0001
0000
0022
0000
,
0033
0000
1010
0000
0001
0010
0000
0010
0001
0010
0001
1000
0010
0000
0100
0000
,
0001
0000
0001
0000
0010
0100
0000
0100
1000
0000
1000
0000
0010
0100
0000
0210
,
0000
0001
0000
1000
0000
0301
0220
0330
,
1001
0000
0001
0000
1000
0100
0000
0010
0000
0100
0000
0100
0000
0010
0001
0100
,
0000
0010
1000
0000
2020
0000
3030
0010
1000
0010
1000
0001
0010
0000
0100
0000
,
1000
0000
0001
0000
0100
0010
0000
1000
0000
0010
0000
1000
0100
0010
0000
0210
,
0000
1000
0000
0001
0000
1300
2200
3300
,
0001
0100
0010
0000
2000
0000
0000
3100
0010
0000
0001
0000
1000
0000
2002
0000
,
3003
0000
0110
0000
0001
0000
0000
0001
0010
0001
0010
0100
1000
0000
0001
0000
,
2000
0000
0000
3002
0000
0000
0200
0000
,
0000
0000
0000
0000
,
0303
0000
0000
0000
;

//---------------dance-single - ----------------
#NOTEDATA:;
#CHARTNAME:;
#STEPSTYPE:dance-single;
#DESCRIPTION:;
#CHARTSTYLE:;
#DIFFICULTY:Medium;
#METER:6;
#RADARVALUES:0.247996,0.268009,0.121822,0.345164,0.035532,171.000000,159.000000,12.000000,34.000000,0.000000,0.000000,0.000000,0.000000,0.000000,0.247996,0.268009,0.121822,0.345164,0.035532,171.000000,159.000000,12.000000,34.000000,0.000000,0.000000,0.000000,0.000000,0.000000;
#CREDIT:;
#NOTES:
0000
0000
0000
0000
,
0000
0000
0000
0000
,
0000
0000
0000
0000
0000
0000
0000
0001
,
0002
0000
0003
2000
0000
3000
0200
0000
,
0020
0000
0330
0110
,
1001
0000
1000
0010
0200
0000
0301
0010
,
0200
0000
1300
0000
0001
0010
1000
0100
,
0001
0000
0000
0000
0001
0000
0100
0000
0010
0000
0000
0000
1000
0000
0000
2002
,
0000
0000
0000
0000
0000
0000
0000
3000
0000
0003
0000
0000
1000
0000
1000
0000
,
0001
1000
1000
0100
0010
0001
0100
0020
,
0030
1000
1000
0010
0100
0001
1000
0200
,
0300
0010
0010
0001
1000
0010
1000
0001
,
0020
0000
0130
0100
2000
0000
3001
0001
,
1000
0001
0001
0100
0010
1000
0001
0020
,
0030
0001
0001
0010
0100
1000
0001
0200
,
0300
0000
0010
0000
0010
0000
0100
0000
0001
0000
1000
0000
0001
0000
0000
2002
,
0000
0000
0000
0000
3003
1001
0000
1001
,
0000
1000
2000
0000
3010
1000
0100
0020
,
0000
0031
1000
0000
0001
0100
0020
1030
,
0000
0000
0001
0000
0001
0000
0010
0000
0100
0000
0000
0000
1000
0000
0000
1002
,
0000
0100
0000
0100
0000
0103
0110
0000
,
0001
1000
2000
0000
3010
1000
0100
0020
,
0000
0031
1000
0000
0001
0010
1000
0100
,
0001
0000
0000
0000
0100
0000
0000
0020
0000
0000
0030
0000
1000
0000
0000
2001
,
0000
0010
0000
0010
0000
3010
0202
0303
,
0001
1000
0001
0000
0010
0000
0001
0100
,
0000
0010
0020
0030
1000
0100
0001
0100
,
1000
0000
0000
0000
0100
0000
0000
0020
0000
0000
0030
0000
0001
0000
0000
1002
,
0000
0100
0000
0100
0000
0103
0110
0000
,
1000
0001
0002
0000
0013
0001
0100
0020
,
0000
1030
0001
0000
1000
0100
0001
0010
,
2000
0000
0000
3200
0000
0000
0020
0000
,
0000
0000
0000
0000
,
0330
0000
0000
0000
;

//---------------dance-single - ----------------
#NOTEDATA:;
#CHARTNAME:;
#STEPSTYPE:dance-single;
#DESCRIPTION:;
#CHARTSTYLE:;
#DIFFICULTY:Beginner;
#METER:1;
#RADARVALUES:0.079765,0.083753,0.000000,0.040607,0.000000,55.000000,55.000000,0.000000,4.000000,0.000000,0.000000,0.000000,0.000000,0.000000,0.079765,0.083753,0.000000,0.040607,0.000000,55.000000,55.000000,0.000000,4.000000,0.000000,0.000000,0.000000,0.000000,0.000000;
#CREDIT:;
#NOTES:
0000
0000
0000
0000
,
0000
0000
0000
0000
,
0000
0000
0000
0000
,
1000
0000
0100
0000
,
0020
0000
0030
0000
,
0001
0000
0100
0000
,
0010
0000
1000
0000
,
0001
0000
1000
0000
,
0200
0000
0300
0000
,
1000
0000
1000
0000
,
0001
0000
0001
0000
,
1000
0000
1000
0000
,
0010
0000
0100
0000
,
0001
0000
0001
0000
,
1000
0000
1000
0000
,
0001
0000
0001
0000
,
0020
0000
0030
0000
,
0001
0000
0100
0000
,
0010
0000
1000
0000
,
0100
0000
0010
0000
,
0001
0000
1000
0000
,
0001
0000
0100
0000
,
0010
0000
1000
0000
,
0001
0000
1000
0000
,
0100
0000
0010
0000
,
0001
0000
0001
0000
,
1000
0000
0010
0000
,
1000
0000
1000
0000
,
0001
0000
0001
0000
,
1000
0000
0100
0000
,
0010
0000
0001
0000
,
0100
0000
0000
0020
,
0000
0000
0000
0000
,
0030
0000
0000
0000
;

//---------------dance-single - ----------------
#NOTEDATA:;
#CHARTNAME:;
#STEPSTYPE:dance-single;
#DESCRIPTION:;
#CHARTSTYLE:;
#DIFFICULTY:Easy;
#METER:3;
#RADARVALUES:0.191435,0.217758,0.081215,0.101519,0.000000,132.000000,124.000000,8.000000,10.000000,0.000000,0.000000,0.000000,0.000000,0.000000,0.191435,0.217758,0.081215,0.101519,0.000000,132.000000,124.000000,8.000000,10.000000,0.000000,0.000000,0.000000,0.000000,0.000000;
#CREDIT:;
#NOTES:
0000
0000
0000
0000
,
0000
0000
0000
0000
,
0000
0000
0000
0000
,
1000
0001
1000
0001
,
0020
0000
0030
0000
,
0001
0100
0010
1000
,
0001
0000
1000
0000
0100
0100
0100
0000
,
1000
0010
0100
0001
,
2002
0000
3003
0110
,
1001
0000
1000
0000
0100
0100
0010
0000
,
0001
0000
0001
0000
0100
0100
0010
0000
,
1000
0000
1000
0000
0100
0100
0010
0000
,
0010
0010
0100
0000
1000
0000
0001
1000
,
0001
0000
0100
0000
0010
0010
1000
0000
,
1000
0000
0100
0000
0010
0010
0001
0000
,
0001
0000
0100
0000
0010
0010
0010
0000
,
2002
0000
3003
0000
,
1000
0000
1000
0000
0001
1000
0001
1000
,
0001
0000
0010
0000
0100
0100
0010
0000
,
0001
0001
0100
0010
,
2002
3003
1000
0001
,
1000
0000
1000
0000
0001
1000
0001
1000
,
0001
0000
0010
0000
0100
0100
0100
0000
,
0010
0001
0100
0010
,
2002
0000
3003
0110
,
1001
0001
0010
0001
,
1000
0001
1000
0000
0010
0010
0010
0000
,
1000
0001
0010
0001
,
0100
0010
0100
0010
,
1000
0000
1000
0000
0001
1000
0001
1000
,
0001
0000
0010
0000
0100
0100
0100
0000
,
1000
0000
0000
0001
0000
0000
0200
0000
,
0000
0000
0000
0000
,
0300
0000
0000
0000
;
