#VERSION:0.83;
#TITLE:アウターサイエンス;
#SUBTITLE:;
#ARTIST:自然の敵P;
#TITLETRANSLIT:Outer Science;
#SUBTITLETRANSLIT:;
#ARTISTTRANSLIT:Shizen no Teki-P;
#GENRE:Vocaloid Rock;
#ORIGIN:;
#CREDIT:;
#BANNER:Outer Science.png;
#BACKGROUND:Outer Science-bg.png;
#PREVIEWVID:;
#JACKET:Outer Science-jacket.png;
#CDIMAGE:;
#DISCIMAGE:;
#LYRICSPATH:;
#CDTITLE:cdtitle.png;
#MUSIC:Outer Science.ogg;
#OFFSET:0.000394;
#SAMPLESTART:49.230381;
#SAMPLELENGTH:19.692303;
#SELECTABLE:YES;
#BPMS:0.000=195.000,
128.000=97.500,
140.000=195.000,
212.000=97.500,
228.000=195.000,
264.000=97.500,
280.000=195.000;
#STOPS:;
#DELAYS:;
#WARPS:;
#TIMESIGNATURES:0.000=4=4;
#TICKCOUNTS:0.000=4;
#COMBOS:0.000=1;
#SPEEDS:0.000=1.000=0.000=0;
#SCROLLS:0.000=1.000;
#FAKES:;
#LABELS:0.000=Song Start;
#BGCHANGES:0.063=Outer Science.avi=1.000=1=0=1===CrossFade==,
99999=-nosongbg-=1.000=0=0=0 // don't automatically add -songbackground-
;
#KEYSOUNDS:;
#ATTACKS:
;

//---------------dance-single - ----------------
#NOTEDATA:;
#CHARTNAME:;
#STEPSTYPE:dance-single;
#DESCRIPTION:;
#CHARTSTYLE:;
#DIFFICULTY:Challenge;
#METER:14;
#RADARVALUES:0.781961,1.040972,0.808704,0.359424,0.254592,731.000000,623.000000,108.000000,48.000000,24.000000,0.000000,1.000000,0.000000,0.000000,0.781961,1.040972,0.808704,0.359424,0.254592,731.000000,623.000000,108.000000,48.000000,24.000000,0.000000,1.000000,0.000000,0.000000;
#CREDIT:;
#OFFSET:0.000394;
#BPMS:0.000000=195.000000
,128.000000=97.500000
,140.000000=195.000000
,212.000000=97.500000
,228.000000=195.000000
,264.000000=97.500000
,280.000000=195.000000
;
#STOPS:;
#DELAYS:;
#WARPS:;
#TIMESIGNATURES:0.000000=4=4
;
#TICKCOUNTS:0.000000=4
;
#COMBOS:0.000000=1
;
#SPEEDS:0.000000=1.000000=0.000000=0
;
#SCROLLS:0.000000=1.000000
,140.000000=0.500000
,140.500000=1.000000
;
#FAKES:;
#LABELS:0.000000=Song Start
;
#NOTES:
// measure 0
0000
0000
0000
0000
,  // measure 1
0000
0000
0000
0000
,  // measure 2
0000
0000
0000
0000
,  // measure 3
0000
0000
0000
0000
,  // measure 4
1002
0000
1003
1200
0000
0310
0001
0201
,  // measure 5
0000
0310
1000
2001
0000
3100
0010
0100
,  // measure 6
2001
0000
3001
0201
0000
0310
1000
1200
,  // measure 7
0000
0310
0001
1002
0000
0100
0103
0000
,  // measure 8
1010
1000
0001
0000
0011
0001
1000
0000
,  // measure 9
1010
1000
0100
0000
0011
0001
0100
0000
,  // measure 10
1001
1000
0100
0000
1001
0001
0100
0000
,  // measure 11
0001
0010
1000
0010
0002
0000
0103
0000
,  // measure 12
0101
0001
1000
0000
1100
1000
0001
0000
,  // measure 13
0101
0001
0010
0000
1100
1000
0010
0000
,  // measure 14
1001
0001
0100
0000
1001
1000
0100
0000
,  // measure 15
1000
0010
0100
0001
0000
1001
0000
0000
,  // measure 16
1000
0000
0010
1000
0100
1000
0010
1000
,  // measure 17
0100
1000
0010
0002
0000
0023
0000
1030
,  // measure 18
0001
0000
0010
0001
0100
0001
0010
0001
,  // measure 19
0100
0010
1000
0200
0000
0310
0011
0000
,  // measure 20
1000
0000
0010
1000
0100
1000
0010
1000
,  // measure 21
0100
0010
0001
0200
0000
1300
0100
0001
,  // measure 22
0010
0100
2000
0001
3001
1000
1000
0001
,  // measure 23
0100
0010
0010
0020
0000
0100
0100
0130
,  // measure 24
1001
0000
0001
0100
0001
0010
0001
0100
,  // measure 25
1000
0100
0001
0010
0000
1001
0000
0010
,  // measure 26
1000
0000
1000
0100
1000
0010
1000
0100
,  // measure 27
0001
0100
1000
0002
0000
0103
0100
0010
,  // measure 28
1001
0000
1000
0010
1000
0100
1000
0010
,  // measure 29
0001
0010
1000
0200
0000
0301
0100
1000
,  // measure 30
0010
0100
0002
0000
0103
0001
1000
0100
,  // measure 31
0110
0000
0000
1001
0000
0010
0010
0010
,  // measure 32
2002
0000
3003
0000
0000
1000
0100
1000
0100
0010
0000
0001
0000
0100
0000
0010
,  // measure 33
2000
0000
3000
0000
0000
0001
0100
0001
0010
0001
1000
0001
0100
1000
0100
0001
,  // measure 34
0020
0000
0030
0000
0000
0001
0010
0100
1000
0010
0000
0200
0000
0310
1000
0100
,  // measure 35
0000
0011
0011
0000
1001
1001
0000
0101
,  // measure 36
0101
0110
2000
3001
,  // measure 37
0011
0000
0010
0001
0100
1000
0000
1100
,  // measure 38
0000
0110
0000
0101
0000
0001
0100
0000
,  // measure 39
1010
0000
0010
1000
0100
0001
0000
0101
,  // measure 40
0000
0110
0000
1100
0000
0100
1000
0010
,  // measure 41
0001
0010
1000
0100
M0MM
0100
0001
0010
,  // measure 42
1000
0010
0001
0100
M0MM
0100
1000
0001
,  // measure 43
0101
0000
0010
1000
0001
0010
0000
0110
,  // measure 44
0000
0010
0001
0001
1000
1000
0001
0100
,  // measure 45
0110
0000
0100
0001
0010
1000
0000
1010
,  // measure 46
0000
0110
0000
0011
0000
1000
0100
0000
,  // measure 47
0110
0000
0100
1000
0010
0001
0000
0011
,  // measure 48
0000
0110
0000
1010
0000
0010
1000
0100
,  // measure 49
0001
0100
1000
0010
MM0M
0010
0001
0100
,  // measure 50
1000
0100
0001
0010
MM0M
0010
1000
0001
,  // measure 51
1000
0100
0001
1000
0010
0001
1000
0100
,  // measure 52
0001
0101
0000
0110
0000
0100
1000
0000
,  // measure 53
0002
0000
1003
0010
1000
0100
0000
0010
0000
0100
1000
0001
0200
0320
0230
0320
,  // measure 54
2030
0000
3001
0010
0001
0100
0000
0010
0000
1000
0001
0010
0200
0000
0000
0000
,  // measure 55
2300
0000
3010
1000
0100
1000
0000
0001
0000
0100
0001
1000
0200
0320
0230
0320
,  // measure 56
0032
0000
0013
0001
0100
0001
0000
2000
0000
3200
0302
2003
3020
0030
0110
0000
,  // measure 57
1001
0000
0001
0100
0010
1010
0000
1001
,  // measure 58
0000
1100
0100
0010
0001
0100
1000
0100
,  // measure 59
0110
0000
0001
0100
0010
1010
0000
1001
,  // measure 60
0000
0011
0001
1000
0020
0100
0130
0000
,  // measure 61
1001
0000
1000
0100
0010
0011
0000
1001
,  // measure 62
0000
0101
0100
0010
1000
0100
0001
0100
,  // measure 63
0110
0000
1000
0100
0010
0011
0000
1001
,  // measure 64
0000
1010
0010
0100
0001
0010
1000
0010
,  // measure 65
0001
0001
0200
0000
0040
0000
0330
0000
,  // measure 66
1001
0000
1000
0100
0010
0001
0000
0100
0000
0010
0000
2000
0000
0000
3000
0000
,  // measure 67
1001
0000
0001
0100
0010
1000
0000
0100
0000
0010
0000
0002
0000
0000
0013
0100
,  // measure 68
1000
0001
0100
0010
0000
0100
0001
0100
0001
1000
0100
0010
0000
0100
1000
0001
,  // measure 69
0100
0000
0010
1000
0001
0010
0000
0200
0000
0310
0100
0010
0100
0010
0100
0010
,  // measure 70
1001
0000
0010
0001
0100
1000
0000
1100
,  // measure 71
0000
0110
0000
0101
0000
0100
0010
0000
,  // measure 72
1001
0000
0010
1000
0100
0001
0000
0101
,  // measure 73
0000
0110
0000
1100
0000
0100
1000
0010
,  // measure 74
0001
0010
1000
0100
M0MM
0100
0001
0010
,  // measure 75
1000
0010
0001
0100
M0MM
0100
1000
0001
,  // measure 76
0101
0000
1000
0010
0100
0001
0000
0110
,  // measure 77
0000
0001
1000
1000
0001
0001
1000
0100
,  // measure 78
0110
0000
0100
1000
0010
0001
0000
0011
,  // measure 79
0000
1010
0000
1100
0000
1000
0010
0000
,  // measure 80
0110
0000
0100
0001
0010
1000
0000
1010
,  // measure 81
0000
0011
0000
0101
0000
0100
0001
0010
,  // measure 82
1000
0010
0001
0100
M0MM
0100
1000
0010
,  // measure 83
0001
0010
1000
0100
M0MM
0100
0001
1000
,  // measure 84
0001
0100
1000
0001
0010
1000
0001
0001
,  // measure 85
1000
0100
0001
1000
0010
0001
1000
1000
,  // measure 86
0001
0100
1000
0001
0010
1000
0001
0100
,  // measure 87
1000
0100
0000
0100
0000
0001
0010
0000
,  // measure 88
0110
0000
1000
0010
1000
1100
0000
1001
,  // measure 89
0000
1010
0010
1000
0100
0001
0100
1000
,  // measure 90
1100
0000
0001
0010
0001
0101
0000
0110
,  // measure 91
0000
1010
1000
0001
0020
0000
0130
0000
,  // measure 92
0110
0000
0001
0010
0001
0101
0000
1001
,  // measure 93
0000
0011
0010
0001
0100
1000
0100
0001
,  // measure 94
0101
0000
1000
0010
1000
1100
0000
0011
,  // measure 95
0000
1001
0001
0100
0010
1000
0010
1000
;

//---------------dance-single - ----------------
#NOTEDATA:;
#CHARTNAME:;
#STEPSTYPE:dance-single;
#DESCRIPTION:;
#CHARTSTYLE:;
#DIFFICULTY:Hard;
#METER:12;
#RADARVALUES:0.642898,0.825599,0.479232,0.471744,0.097344,601.000000,537.000000,64.000000,63.000000,0.000000,0.000000,0.000000,0.000000,0.000000,0.642898,0.825599,0.479232,0.471744,0.097344,601.000000,537.000000,64.000000,63.000000,0.000000,0.000000,0.000000,0.000000,0.000000;
#CREDIT:;
#OFFSET:0.000394;
#BPMS:0.000000=195.000000
,128.000000=97.500000
,140.000000=195.000000
,212.000000=97.500000
,228.000000=195.000000
,264.000000=97.500000
,280.000000=195.000000
;
#STOPS:;
#DELAYS:;
#WARPS:;
#TIMESIGNATURES:0.000000=4=4
;
#TICKCOUNTS:0.000000=4
;
#COMBOS:0.000000=1
;
#SPEEDS:0.000000=1.000000=0.000000=0
;
#SCROLLS:0.000000=1.000000
,140.000000=0.500000
,140.500000=1.000000
;
#FAKES:;
#LABELS:0.000000=Song Start
;
#NOTES:
0000
0000
0000
0000
,
0000
0000
0000
0000
,
0000
0000
0000
0000
,
0000
0000
0000
0000
,
2001
0000
3100
0020
0000
0130
1000
0020
,
0000
0130
0001
0020
0000
0031
1000
0000
,
1002
0000
0103
0020
0000
1030
0001
0020
,
0000
0130
1000
0002
0000
0100
0103
0000
,
0001
0001
0200
0000
0310
0010
0200
0000
,
1300
1000
0200
0000
0310
0010
0200
0000
,
0301
0001
0020
0000
0130
0100
2000
0000
,
3001
0100
0010
1000
0001
0000
1001
0000
,
1000
1000
0200
0000
0310
0010
0200
0000
,
0301
0001
0200
0000
0310
0010
0200
0000
,
1300
1000
0020
0000
0130
0100
0002
0000
,
1003
0100
0010
0001
0000
1000
0000
0000
,
0002
0000
1003
0010
1000
0010
1000
0010
,
0100
0000
0001
0010
0000
0200
0000
0310
,
0001
0000
1000
0100
1000
0100
1000
0100
,
0010
0000
0001
0200
0000
0010
0310
0000
,
2000
0000
3001
0010
0001
0010
0001
0010
,
0100
0000
0010
0002
0000
0103
0001
1000
,
0001
1000
0200
0000
0010
0000
0310
0000
,
0001
0100
0010
2000
0000
3001
0100
0010
,
2000
0000
3100
0010
0100
0010
0001
1000
,
0001
0000
0100
0010
0000
2000
0000
3010
,
0100
0000
0001
1000
0001
1000
0100
0010
,
0100
0000
1000
0002
0000
1000
1003
0000
,
0002
0000
0103
0010
0100
0010
1000
0001
,
1000
0000
0100
0020
0000
0130
1000
0001
,
1000
0001
0200
0000
0010
0000
0310
0000
,
0110
0000
0000
1001
0000
0001
1000
0001
,
2000
0000
3000
0000
0000
0000
0100
0000
1000
0010
0000
0001
0000
0010
0000
1000
,
0200
0300
0000
0010
0001
0100
1000
0100
,
0002
0000
0003
0000
0000
0000
1000
0000
0100
0010
0000
0001
0000
0100
0010
1000
,
0000
0001
0101
0000
1000
1100
0000
0001
,
0101
1001
0200
0310
,
1001
0000
1000
0100
1000
0100
0000
0011
,
0000
1001
0000
1020
0000
0100
0130
0000
,
1001
0000
0001
0100
0001
0100
0000
1010
,
0000
1001
0000
0021
0000
0100
0130
0000
,
1000
0010
0100
0001
0000
0100
0001
0000
,
1000
0100
0010
0001
0000
0010
0001
0000
,
1000
0000
0001
0100
0001
0100
0000
0020
,
0000
1030
0001
1000
0001
1000
0001
1000
,
1001
0000
0001
0010
0001
0010
0000
1100
,
0000
1001
0000
0201
0000
0010
0310
0000
,
1001
0000
1000
0010
1000
0010
0000
0101
,
0000
1001
0000
1200
0000
0010
0310
0000
,
0001
0100
0010
1000
0000
0010
1000
0000
,
0001
0010
0100
1000
0000
0100
1000
0000
,
0001
0000
1000
0010
0000
0001
0010
0000
,
1000
0100
0000
0001
0000
0010
1000
0000
,
1002
0000
1003
0000
0100
0000
0000
0010
0000
0000
0001
0000
0101
0000
1010
0000
,
2001
0000
3001
0000
0100
0000
0000
1000
0000
0000
0010
0000
0002
0000
0003
0000
,
2001
0000
3100
0000
0010
0000
0000
0100
0000
0000
1000
0000
1010
0000
0101
0000
,
1002
0000
0013
0000
0100
0000
0000
2000
0000
3002
0203
0320
2030
3000
0110
0000
,
1001
0000
1000
0010
1000
0100
0000
1001
,
0000
0100
0001
0000
0100
0010
0100
0010
,
1000
0000
0001
0010
0001
0100
0000
1001
,
0000
0100
1000
0001
0200
0000
0310
0000
,
1001
0000
0001
0100
0001
0010
0000
1001
,
0000
0010
1000
0000
0001
0010
0001
0010
,
0100
0000
1000
0100
1000
0010
0000
1001
,
0000
0010
0001
1000
0020
0000
0000
0000
,
0130
0010
1000
0000
0100
0010
0001
0000
,
1001
0000
0001
0000
0100
0000
0000
0100
0000
0001
0000
0020
0000
0000
0030
0000
,
1001
0000
1000
0000
0100
0000
0000
0100
0000
1000
0000
0020
0000
0000
1030
0000
,
0100
0000
0010
0001
0000
0010
0001
0000
0100
0000
0010
1000
0000
0010
1000
0000
,
0001
0000
1000
0000
0100
0010
0000
0002
0000
0000
0100
0000
0100
0000
0103
0000
,
1001
0000
1000
0010
1000
0010
0000
0011
,
0000
0101
0000
2100
0000
0001
3001
0000
,
1001
0000
0001
0010
0001
0010
0000
1010
,
0000
1100
0000
0102
0000
1000
1003
0000
,
0001
0010
0100
1000
0000
0100
1000
0000
,
0001
0100
0010
1000
0000
0010
1000
0000
,
0001
0000
1000
0100
1000
0100
0000
0020
,
0000
0031
1000
0001
1000
0001
1000
0001
,
1001
0000
0001
0100
0001
0100
0000
1100
,
0000
1010
0000
0012
0000
1000
1003
0000
,
1001
0000
1000
0100
1000
0100
0000
0101
,
0000
0011
0000
2010
0000
0001
3001
0000
,
1000
0100
0010
0001
0000
0010
0001
0000
,
1000
0010
0100
0001
0000
0100
0001
0000
,
1000
0000
0010
0001
0000
0010
1000
0000
,
0001
0000
0010
1000
0000
0010
0001
0000
,
1000
0000
0010
0001
0000
0010
1000
0000
,
0001
0010
0000
1000
0000
0100
0001
0000
,
1001
0000
0001
0010
0001
0100
0000
1001
,
0000
0100
1000
0000
0001
0100
0010
0100
,
0001
0000
1000
0010
1000
0100
0000
1001
,
0000
0100
0001
1000
0200
0000
0310
0000
,
1001
0000
1000
0100
1000
0010
0000
1001
,
0000
0010
0001
0000
1000
0010
0100
0010
,
1000
0000
0001
0100
0001
0010
0000
1001
,
0000
0010
1000
0000
0001
1000
0001
1000
;

//---------------dance-single - ----------------
#NOTEDATA:;
#CHARTNAME:;
#STEPSTYPE:dance-single;
#DESCRIPTION:;
#CHARTSTYLE:;
#DIFFICULTY:Medium;
#METER:9;
#RADARVALUES:0.471744,0.538434,0.374400,0.262080,0.018720,441.000000,391.000000,50.000000,35.000000,0.000000,0.000000,0.000000,0.000000,0.000000,0.471744,0.538434,0.374400,0.262080,0.018720,441.000000,391.000000,50.000000,35.000000,0.000000,0.000000,0.000000,0.000000,0.000000;
#CREDIT:;
#OFFSET:0.000394;
#BPMS:0.000000=195.000000
,128.000000=97.500000
,140.000000=195.000000
,212.000000=97.500000
,228.000000=195.000000
,264.000000=97.500000
,280.000000=195.000000
;
#STOPS:;
#DELAYS:;
#WARPS:;
#TIMESIGNATURES:0.000000=4=4
;
#TICKCOUNTS:0.000000=4
;
#COMBOS:0.000000=1
;
#SPEEDS:0.000000=1.000000=0.000000=0
;
#SCROLLS:0.000000=1.000000
,140.000000=0.500000
,140.500000=1.000000
;
#FAKES:;
#LABELS:0.000000=Song Start
;
#NOTES:
0000
0000
0000
0000
,
0000
0000
0000
0000
,
0000
0000
0000
0000
,
0000
0000
0000
0000
,
2002
0000
3003
2100
0000
3001
0000
0102
,
0000
1003
0000
2010
0000
3001
0000
0000
,
2002
0000
3003
0102
0000
0013
0000
2100
,
0000
3010
0000
2001
0000
3100
0000
0000
,
1001
0010
1001
0010
,
1001
0100
1001
0100
,
0110
1000
0110
0001
,
1000
0100
0010
0001
2000
0000
3001
0000
,
0101
0010
0101
0010
,
1100
0010
1100
0010
,
1001
0100
1001
0010
,
1000
0001
1000
0001
0000
1000
0000
0000
,
0001
0001
0100
0100
,
0010
0000
1000
0001
0000
0001
0000
1000
,
0100
0100
0010
0010
,
0100
1000
0001
0200
0000
0000
0310
0000
,
1000
1000
0100
0100
,
0001
0000
0100
0010
0000
0010
0100
0000
,
1000
0001
1000
0000
0001
0000
0001
0000
,
0100
0000
0000
0020
0000
0000
0130
0010
,
1000
1000
0100
0100
,
0010
0000
0001
1000
0000
1000
0000
0001
,
0100
0100
0010
0010
,
0100
0001
1000
0200
0000
0000
0310
0000
,
0001
0001
0100
0100
,
1000
0000
0100
0010
0000
0010
0100
0000
,
0001
1000
0001
0000
1000
0000
1000
0000
,
0110
0000
0000
1001
0000
0000
1000
0001
,
2000
0000
3000
0000
0000
0000
1000
0000
1000
0000
0000
0100
0000
0010
0000
0000
,
0002
0003
0000
0001
0100
0100
0010
0010
,
2000
0000
3000
0000
0000
0000
0001
0000
0010
0000
0000
0001
0000
0000
0100
0000
,
0000
1010
0000
0000
1100
0000
0000
0011
,
0000
0101
0000
0000
,
1010
0000
1000
0000
0100
0010
0000
0010
,
0000
0001
0000
0200
0000
0000
0301
0000
,
0011
0000
0001
0000
0100
0010
0000
0010
,
0000
1000
0000
0200
0000
0000
0310
0000
,
0001
0000
0100
0010
0000
0100
0010
0000
,
1000
0000
0100
0010
0000
0100
0010
0000
,
0001
0000
1000
0000
0001
0100
0000
0010
,
0000
0010
0010
0010
,
1001
0000
0001
0000
0100
0010
0000
0010
,
0000
0100
0000
0002
0000
0000
1003
0000
,
1001
0000
1000
0000
0100
0010
0000
0010
,
0000
0100
0000
2000
0000
0000
3010
0000
,
1000
0000
0001
0010
0000
0001
0010
0000
,
0100
0000
1000
0010
0000
1000
0010
0000
,
0101
0000
0000
0011
0000
0000
1100
0000
,
0000
1010
0000
1010
0000
0001
0100
0000
,
0010
0000
1000
0000
0010
0000
1000
0100
,
0010
0000
0001
0000
0010
0001
0200
0000
,
0310
0000
0100
0000
0010
0000
1000
0001
,
0010
0000
0000
0000
0100
0000
0000
0020
0000
0000
0032
0003
0200
0300
0010
0000
,
1000
0000
0010
0000
0001
0000
0000
0010
,
0000
0000
1000
0000
0100
1000
0100
0000
,
1000
0000
0010
0000
0001
0000
0000
0010
,
0000
1000
0200
0310
,
0001
0000
0010
0000
1000
0000
0000
0010
,
0000
0000
0001
0000
0100
0001
0100
0000
,
0001
0000
0010
0000
1000
0000
0000
0010
,
0000
0000
0001
0000
1000
0010
0100
0001
,
2000
3000
0002
0003
,
0010
0001
0100
0000
0010
0000
2000
0000
,
3010
1000
0100
0000
0010
0000
0001
0000
,
1000
0100
0001
0000
0001
0100
1000
0000
,
0001
0000
0100
0000
0010
0000
0000
2000
0000
0000
0001
0000
0001
0000
3001
0000
,
0011
0000
0001
0000
0100
1000
0000
1000
,
0000
0100
0000
0002
0000
0000
1003
0000
,
1010
0000
1000
0000
0100
0001
0000
0001
,
0000
0100
0000
2000
0000
0000
3010
0000
,
1000
0000
0100
0010
0000
0100
0010
0000
,
0001
0000
0100
0010
0000
0100
0010
0000
,
1000
0000
0001
0000
1000
0100
0000
0010
,
0000
0010
0010
0010
,
1001
0000
1000
0000
0010
0001
0000
0001
,
0000
0010
0000
2000
0000
0000
3001
0000
,
1001
0000
0001
0000
0010
1000
0000
1000
,
0000
0010
0000
0002
0000
0000
1003
0000
,
0001
0000
1000
0010
0000
1000
0010
0000
,
0100
0000
0001
0010
0000
0001
0010
0000
,
1100
0000
0000
1001
0000
0000
1100
0000
,
0101
0000
0000
1001
0000
0000
0101
0000
,
1100
0000
0000
1001
0000
0000
0101
0000
,
0000
1001
0000
1001
0000
1000
0001
0000
,
1000
0000
0100
0000
0001
0000
0000
0100
,
0000
0000
1000
0000
0010
1000
0010
0000
,
1000
0000
0100
0000
0001
0000
0000
0100
,
0000
1000
0020
0130
,
0001
0000
0100
0000
1000
0000
0000
0100
,
0000
0000
0001
0000
0010
0001
0010
0000
,
0001
0000
0100
0000
1000
0000
0000
0100
,
0000
0000
0001
0000
0010
0100
0010
0100
;

//---------------dance-single - ----------------
#NOTEDATA:;
#CHARTNAME:;
#STEPSTYPE:dance-single;
#DESCRIPTION:;
#CHARTSTYLE:;
#DIFFICULTY:Easy;
#METER:6;
#RADARVALUES:0.299520,0.358488,0.149760,0.119808,0.000000,280.000000,260.000000,20.000000,16.000000,0.000000,0.000000,0.000000,0.000000,0.000000,0.299520,0.358488,0.149760,0.119808,0.000000,280.000000,260.000000,20.000000,16.000000,0.000000,0.000000,0.000000,0.000000,0.000000;
#CREDIT:;
#OFFSET:0.000394;
#BPMS:0.000000=195.000000
,128.000000=97.500000
,140.000000=195.000000
,212.000000=97.500000
,228.000000=195.000000
,264.000000=97.500000
,280.000000=195.000000
;
#STOPS:;
#DELAYS:;
#WARPS:;
#TIMESIGNATURES:0.000000=4=4
;
#TICKCOUNTS:0.000000=4
;
#COMBOS:0.000000=1
;
#SPEEDS:0.000000=1.000000=0.000000=0
;
#SCROLLS:0.000000=1.000000
,140.000000=0.500000
,140.500000=1.000000
;
#FAKES:;
#LABELS:0.000000=Song Start
;
#NOTES:
0000
0000
0000
0000
,
0000
0000
0000
0000
,
0000
0000
0000
0000
,
0000
0000
0000
0000
,
1000
0010
0100
0000
,
1010
0000
0011
0000
,
0001
0010
0100
0000
,
0011
0000
1010
0000
,
1000
0110
0000
1001
,
0000
0011
0000
1001
,
0000
1010
0000
1001
,
0001
0010
0001
0100
,
0000
0110
0000
1001
,
0000
1100
0000
1001
,
0000
0101
0000
1001
,
0200
0000
0000
0300
,
1000
0000
0001
0000
,
1000
0010
0100
0001
,
1000
0000
0001
0000
,
0010
0001
0100
0000
,
0001
0000
1000
0000
,
0001
0010
0100
1000
,
0010
0100
0001
0000
,
2000
0000
0000
3000
,
0001
0000
1000
0000
,
0001
0010
0100
1000
,
0001
0000
1000
0000
,
0010
1000
0100
0000
,
1000
0000
0001
0000
,
1000
0010
0100
0001
,
0010
0100
1000
0000
,
2002
0000
3003
0000
,
1001
0000
1000
0100
,
0001
0000
0001
0100
,
1000
0000
1000
0010
,
0000
0220
0000
0000
0000
0000
0000
0000
,
0000
0330
0100
0010
,
1000
1000
0100
0000
,
0001
0001
0100
0000
,
1000
1000
0010
0000
,
0001
0001
0010
0000
,
1000
0100
0010
0000
,
0001
0100
0010
0000
,
1000
0000
1000
0000
,
0001
1000
0001
1000
,
0001
0001
0100
0000
,
1000
1000
0100
0000
,
0001
0001
0010
0000
,
1000
1000
0010
0000
,
0001
0100
0010
0000
,
1000
0100
0010
0000
,
0001
0000
0000
1000
0000
0000
0001
0000
,
0000
1000
0000
0000
0001
0000
1000
0000
,
0001
0001
0100
0010
,
1000
1000
0100
0010
,
0100
0100
1000
0001
,
0100
0000
0100
0000
0020
0000
0000
0030
,
1000
0100
0010
0000
,
0010
0100
1000
1000
,
0001
0100
0010
0000
,
0010
0100
0001
0000
,
0010
0100
1000
0000
,
1000
0010
0100
0100
,
0001
0010
0100
0000
,
0100
0010
0001
1000
,
0020
0000
0000
0030
,
2001
3000
0020
0030
,
0002
0003
0200
0300
,
2000
3000
0020
0030
,
0200
0300
0100
0000
,
0001
0001
0010
0000
,
1000
1000
0010
0000
,
0001
0001
0100
0000
,
1000
1000
0100
0000
,
0001
0010
0100
0000
,
1000
0010
0100
0000
,
0001
0000
0001
0000
,
1000
0001
1000
0001
,
1000
1000
0010
0000
,
0001
0001
0010
0000
,
1000
1000
0100
0000
,
0001
0001
0100
0000
,
1000
0010
0100
0000
,
0001
0010
0100
0000
,
1000
0000
0000
0001
0000
0000
1000
0000
,
0001
0000
0000
1000
0000
0000
0001
0000
,
1000
0000
0000
0001
0000
0000
1000
0000
,
0002
0000
0000
0003
,
0001
0100
0010
0000
,
0010
0100
0001
0001
,
1000
0100
0010
0000
,
0010
0100
1000
0000
,
0010
0100
0001
0000
,
0001
0010
0100
0100
,
1000
0010
0100
0000
,
0001
1000
0100
0100
;

//---------------dance-single - ----------------
#NOTEDATA:;
#CHARTNAME:;
#STEPSTYPE:dance-single;
#DESCRIPTION:;
#CHARTSTYLE:;
#DIFFICULTY:Beginner;
#METER:4;
#RADARVALUES:0.241755,0.399672,0.164736,0.104832,0.000000,226.000000,204.000000,22.000000,14.000000,0.000000,0.000000,0.000000,0.000000,0.000000,0.241755,0.399672,0.164736,0.104832,0.000000,226.000000,204.000000,22.000000,14.000000,0.000000,0.000000,0.000000,0.000000,0.000000;
#CREDIT:;
#OFFSET:0.000394;
#BPMS:0.000000=195.000000
;
#STOPS:;
#DELAYS:;
#WARPS:;
#TIMESIGNATURES:0.000000=4=4
;
#TICKCOUNTS:0.000000=4
;
#COMBOS:0.000000=1
;
#SPEEDS:0.000000=1.000000=0.000000=0
;
#SCROLLS:0.000000=1.000000
;
#FAKES:;
#LABELS:0.000000=Song Start
;
#NOTES:
0000
0000
0000
0000
,
0000
0000
0000
0000
,
0000
0000
0000
0000
,
0000
0000
0000
0000
,
1000
0000
1000
0000
,
0001
0000
0001
0000
,
0010
0000
0010
0000
,
0100
0000
0100
0000
,
0000
1001
0000
1001
,
0000
1001
0000
1001
,
0000
1001
0000
1001
,
1001
0000
0100
0000
,
0000
1001
0000
1001
,
0000
1001
0000
1001
,
0000
1001
0000
1001
,
1001
0000
0000
0000
,
1000
0000
1000
0000
,
0100
0100
0100
0000
,
0010
0000
0010
0000
,
0001
0001
0001
0000
,
1000
0000
1000
0000
,
0010
0010
0010
0000
,
0100
0100
0100
0000
,
0001
0000
0000
0000
,
0001
0000
0001
0000
,
0010
0010
0010
0000
,
0100
0000
0100
0000
,
1000
1000
1000
0000
,
0001
0000
0001
0000
,
0100
0100
0100
0000
,
0010
0010
0010
0000
,
1000
0000
0000
0000
,
1001
0000
0000
0000
,
1000
0000
0100
0000
,
1000
0000
0000
0000
,
0001
0000
0100
0000
,
0001
0000
0000
0000
,
0100
0000
0100
0000
,
0000
2002
0000
0000
,
0000
3003
0000
0000
,
1000
1000
1000
0000
,
0010
0000
1000
0000
,
0001
0001
0001
0000
,
0010
0000
0001
0000
,
0100
0100
0100
0000
,
0010
0010
0010
0000
,
1000
0000
1000
0000
,
0001
1000
0001
0000
,
0010
0010
0010
0000
,
0001
0000
0100
0000
,
0010
0010
0010
0000
,
1000
0000
0100
0000
,
1000
1000
1000
0000
,
0001
0001
0001
0000
,
0200
0000
0000
0000
,
0000
0000
0300
0000
,
0001
0000
0000
0000
,
1000
0000
0000
0000
,
0001
0000
0000
0000
,
1000
0000
0000
0000
,
0100
0000
0000
0000
,
0010
0000
0000
0000
,
0100
0000
0000
0000
,
0110
0000
0000
0000
,
0001
0001
0001
0000
,
0100
0000
0001
0000
,
1000
1000
1000
0000
,
0100
0000
0010
0000
,
0100
0100
0100
0000
,
1000
0000
0010
0000
,
0100
0100
0100
0000
,
0001
0000
1000
0000
,
0100
0000
0000
0000
,
2002
0000
0000
0000
,
3003
0000
0000
0000
,
0200
0000
0000
0000
,
0300
0000
0000
0000
,
0020
0000
0000
0000
,
0030
0000
0000
0000
,
0200
0000
0000
0000
,
0300
0000
0000
0000
,
0001
0001
0001
0000
,
0010
0000
0001
0000
,
1000
1000
1000
0000
,
0010
0000
1000
0000
,
0100
0100
0100
0000
,
0010
0010
0010
0000
,
0001
0000
0001
0000
,
1000
0001
1000
0000
,
0010
0010
0010
0000
,
1000
0000
0100
0000
,
0010
0010
0010
0000
,
0001
0000
0100
0000
,
0001
0001
0001
0000
,
1000
1000
1000
0000
,
0220
0000
0330
0000
,
2002
0000
3003
0000
,
0220
0000
0330
0000
,
1001
0000
0000
0000
,
1000
1000
1000
0000
,
0100
0000
1000
0000
,
0001
0001
0001
0000
,
0100
0000
0010
0000
,
0100
0100
0100
0000
,
0001
0000
0010
0000
,
0100
0100
0100
0000
,
1000
0000
0010
0010
;
