#VERSION:0.83;
#TITLE:OrBiTal;
#SUBTITLE:;
#ARTIST:Paul Bazooka;
#TITLETRANSLIT:;
#SUBTITLETRANSLIT:;
#ARTISTTRANSLIT:;
#GENRE:Dublectrance;
#ORIGIN:;
#CREDIT:;
#BANNER:OrBiTal.png;
#BACKGROUND:OrBiTal-bg.png;
#PREVIEWVID:;
#JACKET:OrBiTal-jacket.png;
#CDIMAGE:;
#DISCIMAGE:;
#LYRICSPATH:;
#CDTITLE:cdtitle.png;
#MUSIC:OrBiTal.ogg;
#OFFSET:1.785984;
#SAMPLESTART:88.674164;
#SAMPLELENGTH:14.769234;
#SELECTABLE:YES;
#BPMS:0.000=130.000,
156.750=65.000,
173.000=130.000;
#STOPS:96.000=1.385,
156.750=1.731;
#DELAYS:;
#WARPS:;
#TIMESIGNATURES:0.000=4=4;
#TICKCOUNTS:0.000=4;
#COMBOS:0.000=1;
#SPEEDS:0.000=1.000=0.000=0;
#SCROLLS:0.000=1.000;
#FAKES:;
#LABELS:0.000=Song Start;
#BGCHANGES:3.625=OrBiTal.avi=1.000=1=0=0=StretchNoLoop==CrossFade==,
99999=-nosongbg-=1.000=0=0=0 // don't automatically add -songbackground-
;
#KEYSOUNDS:;
#ATTACKS:
;

//---------------dance-single - ----------------
#NOTEDATA:;
#CHARTNAME:;
#STEPSTYPE:dance-single;
#DESCRIPTION:;
#CHARTSTYLE:;
#DIFFICULTY:Challenge;
#METER:15;
#RADARVALUES:0.675980,0.921270,0.471560,0.934990,0.565059,582.000000,524.000000,58.000000,115.000000,35.000000,0.000000,0.000000,0.000000,0.000000,0.675980,0.921270,0.471560,0.934990,0.565059,582.000000,524.000000,58.000000,115.000000,35.000000,0.000000,0.000000,0.000000,0.000000;
#CREDIT:;
#OFFSET:1.785984;
#BPMS:0.000000=130.000000
,156.750000=65.000000
,173.000000=130.000000
;
#STOPS:96.000000=1.384617
,156.750000=1.730767
;
#DELAYS:;
#WARPS:;
#TIMESIGNATURES:0.000000=4=4
;
#TICKCOUNTS:0.000000=4
;
#COMBOS:0.000000=1
;
#SPEEDS:0.000000=1.000000=0.000000=0
;
#SCROLLS:0.000000=1.000000
;
#FAKES:;
#LABELS:0.000000=Song Start
;
#NOTES:
0000
0000
0000
0000
,
0000
0000
0000
0000
,
0000
0000
0000
0000
,
0000
0000
0000
0000
,
0000
0000
0000
0000
,
1000
0000
0001
0000
1000
0001
0000
0000
1000
0000
0001
0000
1000
0000
0001
0000
,
0010
0000
0100
0000
0010
0100
0000
0000
0010
0000
0100
0000
0010
0000
0100
0000
,
1000
0000
0001
0000
1000
0001
0000
0000
0100
0000
0010
0000
0100
0000
0010
0000
,
1001
0000
1001
0000
1001
0000
0000
0000
0001
1000
0001
1000
0100
0000
0010
0000
,
0022
0030
0203
0000
0301
0100
1000
0100
,
0001
0000
0100
0000
1000
0000
0100
0000
0001
0000
0100
0000
0010
1000
0001
1000
,
0200
1300
0100
0021
0000
0031
0100
1020
,
0000
1030
0100
0021
0000
0031
200M
0000
,
3010
0000
1000
0000
1002
0000
0000
0000
1003
0100
1000
0100
1000
0000
0100
0000
,
0001
0000
0100
1000
0100
0000
0001
0000
0100
0000
1000
0000
0100
0010
0001
0100
,
0010
1000
0001
1000
0010
1000
0001
1000
0100
0010
0100
0010
0100
0000
0010
0000
,
0002
0000
1003
000M
1010
0000
2000
0000
3001
M000
0010
0000
0120
0000
0M00
0000
,
0032
0203
0320
0032
2003
3200
0320
2030
,
3200
0302
2003
3020
0230
2300
3002
0203
,
0310
0000
1000
0001
1000
0000
0100
0000
0010
0000
0001
1000
0001
0000
0020
0000
,
2030
3020
0032
0203
2300
3200
0320
2030
,
3001
0010
0100
0010
0100
0010
2000
0000
3001
0000
2000
0000
3010
0000
0001
0000
,
1000
0010
0100
0010
0100
0010
0002
0000
1003
0000
0002
0000
0013
0000
1000
0000
,
0101
0101
1010
1010
1100
1100
0011
0011
,
1001
0000
0000
0000
1020
0000
0000
0001
0000
0000
0100
0000
1030
0010
1000
0001
,
0010
0000
0000
0001
0000
0000
1000
0000
0000
0010
0000
0000
1000
0000
0000
0100
0000
0000
0001
0000
0000
0100
0000
0000
0020
0000
0000
0000
0000
0000
0000
0000
0000
0000
0000
0030
0012
0000
0000
0000
0000
0000
0000
0000
0000
0000
0000
0003
,
0201
0000
M0MM
0000
0310
1000
0000
0010
1000
0010
1000
0010
0100
0000
0010
1000
,
0002
0013
2100
3001
0102
1003
0001
1001
,
0021
0000
0000
0000
0000
0000
MM0M
0000
0000
0000
0000
0000
0130
0000
0000
0010
0000
0000
0001
0000
0000
0100
0000
0000
0020
0000
0000
0000
0000
0000
1000
0000
0000
0000
0000
0030
0110
0000
0000
0000
0000
0000
0000
0000
0000
0000
0000
0000
,
0001
1000
0001
1000
0100
0010
0001
0100
0020
0000
1030
0000
0001
0000
1000
0000
,
1002
0000
MMM0
0000
0013
0001
0000
0010
0001
0010
0001
0010
0100
0000
0010
0001
,
0200
0000
0310
0000
1001
0000
0000
0000
0001
0000
0001
0000
0010
0100
0010
0100
,
1000
0000
0010
0000
2002
0000
0000
3003
0202
0000
0000
0303
2002
0000
0000
3003
,
0021
0000
MM0M
0000
0031
0010
1000
0010
0001
0000
0100
0000
2010
0000
3001
0010
,
0100
1000
0001
0100
0010
1000
0001
1000
0010
1000
0001
1000
0200
0000
0301
0000
,
0200
0000
0301
0000
0100
0010
0001
1000
0010
0000
0100
0001
1000
0010
1000
0010
,
0001
0000
0000
0010
0000
0000
0100
0000
0000
0010
0000
0000
2000
0000
0000
0000
0000
0000
0000
0000
0000
0000
0000
3000
2001
0000
0000
0000
0000
0000
0000
0000
0000
0000
0000
3000
1200
0000
0000
0000
0000
0000
M0MM
0000
0000
0000
0000
0000
,
0010
0000
0310
0000
0100
1000
0001
0100
0010
0000
1000
0000
0002
0000
0013
0100
,
1000
0001
0100
0000
0200
0000
0010
0000
0310
1000
0010
0100
0002
0000
0010
0000
,
0013
0100
1000
0001
1001
0001
0200
0000
1300
0001
0020
0000
1030
1000
0200
0000
,
0301
0000
1000
0000
0010
0000
0001
0000
1000
0010
1000
0000
0020
0000
0000
0000
1030
0000
0010
0000
0001
0000
1000
0000
0100
0001
0100
0000
0002
0000
0000
0000
,
0103
0000
0001
0000
1000
0000
1000
0000
0001
0010
0001
0010
0200
0000
0000
0000
0310
0000
0001
0000
0100
0000
1000
0000
0100
0000
0100
0000
0002
0000
0000
0000
,
0013
0000
1000
0000
0010
0000
0001
0000
0101
0000
0000
0000
1010
0000
0000
0000
1001
0000
0000
0000
1000
0001
1000
0001
1000
0000
0100
0000
1000
0000
0100
0000
,
1000
0000
0100
0000
1000
0100
1000
0100
0010
0000
0000
0000
0010
0000
0000
0000
0100
0000
0010
0000
0000
0000
0010
0000
0001
0000
0100
0000
0010
0000
1000
0000
,
0002
0000
M000
0000
0103
0010
0100
0010
1000
0001
1000
0001
0020
0000
2030
0000
,
3002
0000
0203
0000
1300
0000
1000
0000
0010
0100
0001
0100
0020
0000
0032
0000
,
2003
3200
0301
0010
0001
1000
2010
0MM0
,
3001
0000
0010
0100
1000
0000
1000
0000
0002
0000
0000
1003
0100
0000
0010
0000
,
0012
0000
0000
0000
1003
0010
1000
0010
0100
0001
0100
0001
0020
0000
2030
0000
,
3020
0032
0103
0010
0120
0000
1030
0010
,
0100
0000
0000
0000
0000
0000
0001
0000
0000
0000
0000
0000
2001
0000
0000
0000
0000
0000
0000
0000
0000
0000
0000
3000
1200
0000
0000
0000
0000
0000
0320
0000
0000
0000
0000
0030
MMM2
0000
0000
0000
0000
0000
0000
0000
0000
0003
0000
0000
,
2MMM
0000
0000
0000
3002
0000
0000
0000
0103
0000
0001
0000
0010
0100
0010
0100
,
1000
0001
0100
0001
1000
0100
1000
0100
0001
0100
0001
0100
0020
0000
0032
0000
,
0203
0000
2300
0000
3100
0000
0100
0000
0010
1000
0100
0010
0200
0000
0302
0000
,
2003
3020
0130
1000
0001
0100
2010
0MM0
,
3002
0000
0000
0000
1003
0100
1000
0100
0020
0000
0000
0000
0130
0000
1000
0000
,
1002
0000
0000
0000
0000
0000
M000
0000
0000
0000
0000
0000
0013
0000
0000
0100
0000
0000
0010
0000
0000
0100
0000
0000
1000
0000
0000
0001
0000
0000
1000
0000
0000
0001
0000
0000
0200
0000
0000
0000
0000
0000
0000
0000
0000
0000
0000
0300
,
0120
0000
1030
1000
0010
0010
0100
0001
,
1001
1001
1010
1001
0011
1001
1010
0101
,
0011
MMMM
2200
0000
0000
0000
0000
0000
,
0000
0000
0000
0000
,
0000
3300
0000
0000
;

//---------------dance-single - ----------------
#NOTEDATA:;
#CHARTNAME:;
#STEPSTYPE:dance-single;
#DESCRIPTION:;
#CHARTSTYLE:;
#DIFFICULTY:Hard;
#METER:13;
#RADARVALUES:0.557509,0.796774,0.211389,0.495951,0.329279,480.000000,454.000000,26.000000,61.000000,0.000000,0.000000,0.000000,0.000000,0.000000,0.557509,0.796774,0.211389,0.495951,0.329279,480.000000,454.000000,26.000000,61.000000,0.000000,0.000000,0.000000,0.000000,0.000000;
#CREDIT:;
#OFFSET:1.785984;
#BPMS:0.000000=130.000000
,156.750000=65.000000
,173.000000=130.000000
;
#STOPS:96.000000=1.384617
,156.750000=1.730767
;
#DELAYS:;
#WARPS:;
#TIMESIGNATURES:0.000000=4=4
;
#TICKCOUNTS:0.000000=4
;
#COMBOS:0.000000=1
;
#SPEEDS:0.000000=1.000000=0.000000=0
;
#SCROLLS:0.000000=1.000000
;
#FAKES:;
#LABELS:0.000000=Song Start
;
#NOTES:
0000
0000
0000
0000
,
0000
0000
0000
0000
,
0000
0000
0000
0000
,
0000
0000
0000
0000
,
0000
0000
0000
0000
,
1000
0010
1000
0000
0010
1000
0010
0100
,
0001
0010
0001
0000
0010
0001
0010
0100
,
1000
0001
0100
0000
0001
1000
0100
0010
,
0001
0000
0001
0000
0001
0000
0000
0000
0100
0010
0100
0010
0100
0000
0010
0000
,
2001
0000
3200
0000
0310
0001
0010
0001
,
0010
0000
0001
0000
0010
0000
0001
0000
0010
0000
0001
0000
1000
0010
1000
0010
,
0100
0001
0010
2000
0000
3001
0100
2000
,
0000
3001
0010
2000
0000
3010
0002
0000
,
0103
0000
0010
0000
2000
0000
0000
0000
3001
0100
0001
0100
0001
0000
1000
0000
,
0001
0000
0100
0001
0100
0000
0010
0000
1000
0000
0100
0000
0010
0001
0010
0001
,
1000
0000
0001
0000
0100
0000
0010
0000
1000
0001
1000
0001
1000
0000
0100
0000
,
0001
0100
1000
0010
0001
0010
2000
0000
,
3001
0010
0100
1000
0010
0001
0010
1000
,
0100
0001
0100
1000
0010
0100
0001
1000
,
0100
0000
0010
0001
0000
0000
0001
0000
0100
0000
0010
1000
0000
0000
1000
0000
,
0010
0001
1000
0100
0001
0010
0100
1000
,
0010
0000
0100
0000
0001
1000
0001
0000
0010
0000
1000
0000
0010
0000
0001
0000
,
0100
0000
0010
0000
1000
0001
1000
0000
0100
0000
0001
0000
0100
0000
1000
0000
,
0001
0000
0100
0001
0100
0000
0001
0000
1000
0000
0100
1000
0100
0000
1000
0000
,
0001
0000
0000
0000
0110
0000
0000
2002
0000
0000
3000
0000
1003
0000
0001
0000
,
1000
0000
0001
0000
1000
0010
1000
0010
0200
0000
0000
0000
1000
0000
0000
0000
,
0010
0000
0000
0000
0301
0100
0000
0001
0100
0000
0001
0000
1000
0000
0100
1000
,
0200
0000
0301
0100
0001
0100
1000
0010
,
0002
0000
0000
0000
0013
0000
1000
0010
2000
0000
3100
0000
0010
0000
0000
0000
,
0001
0010
0001
0010
0001
0000
1000
0010
2000
0000
0000
0000
3001
0000
0000
0000
,
1002
0000
0000
0000
1003
0100
0000
1000
0100
0000
1000
0000
0001
0000
0100
0001
,
0200
0000
0000
0000
0310
0000
0000
0000
0100
0000
0100
0000
0010
0100
0010
0100
,
0001
1000
2200
3300
0022
0033
0202
0303
,
2020
0000
3030
0000
1000
0010
1000
0010
0100
0000
0001
0000
2000
0000
0100
0000
,
3002
0010
1003
0001
1000
0001
0220
0330
,
2002
0000
3003
0000
0001
0010
0001
0010
0100
0000
1000
0000
0001
0100
0001
0000
,
1000
0100
1000
0000
0002
0000
0000
0000
0103
0000
0000
0000
2001
0000
0000
0000
,
3010
0000
0010
0000
1000
0001
1000
0001
1000
0000
0100
0000
0020
0000
0000
0000
,
0130
0000
0010
0000
0012
0000
0000
0000
0103
0010
0100
0010
2000
0000
0000
0000
,
3100
0010
0100
0010
0001
0001
0200
0000
0310
0100
0002
0000
1003
1000
0200
0000
,
0310
0000
0100
0000
1000
0000
0010
0000
1000
0001
1000
0000
0200
0000
0000
0000
0301
0000
0100
0000
1000
0000
0010
0000
1000
0001
1000
0000
0200
0000
0000
0000
,
0310
0000
0000
0000
0100
0000
0100
0000
1000
0001
1000
0001
2000
0000
0000
0000
3001
0000
0100
0000
1000
0000
0100
0000
0001
0000
1000
0000
0002
0000
0000
0000
,
0013
0000
1000
0000
0010
0000
0001
0000
0100
0000
0000
0000
0100
0000
0000
0000
0100
0000
0000
0000
0010
1000
0010
1000
0001
0000
0000
0000
0001
0000
0000
0000
,
0001
0000
0000
0000
0001
1000
0001
1000
0001
0000
0000
0000
0010
0000
0000
0000
0100
0000
0010
0000
0000
0000
0010
0000
0001
0000
0000
0000
1000
0000
0000
0000
,
2010
0000
0000
0000
3001
0100
0001
0000
1000
0100
1000
0000
0001
0000
0010
0000
,
0200
0000
0000
0000
1300
0000
0001
0000
0100
0010
0100
0000
1000
0000
0001
0000
,
0010
1000
0100
0010
0100
0010
2100
0000
,
3020
0000
0130
0010
0100
0000
0100
0000
0002
0000
0000
0000
0013
0000
0001
0000
,
1002
0000
0103
0010
0100
0010
0102
0000
,
0023
0000
0130
0010
0120
0000
1030
0010
,
0001
0100
2000
0000
3100
0010
1010
0000
,
1001
0000
0000
0000
1200
0000
0000
0000
0310
0000
0001
0000
1000
0010
1000
0000
,
0001
0010
0001
0000
1000
0000
0010
0000
1000
0000
0010
0000
0001
0000
1000
0000
,
0100
0000
0001
0000
1000
0000
0001
0000
0010
0100
0010
0000
1000
0000
0001
0000
,
0100
1000
0001
0100
0001
0100
2010
0000
,
3200
0000
0000
0000
0310
0001
0010
0001
2000
0000
0000
0000
3010
0000
1000
0000
,
0002
0000
1003
0100
1000
0100
0012
0000
,
0103
0010
1000
0010
0001
0010
1000
1000
,
0100
0100
0001
0010
1000
0100
0011
1001
,
1010
0202
0000
0000
,
0000
0000
0000
0000
,
0000
0303
0000
0000
;

//---------------dance-single - ----------------
#NOTEDATA:;
#CHARTNAME:;
#STEPSTYPE:dance-single;
#DESCRIPTION:;
#CHARTSTYLE:;
#DIFFICULTY:Medium;
#METER:10;
#RADARVALUES:0.412325,0.556725,0.186998,0.398387,0.024391,355.000000,332.000000,23.000000,49.000000,0.000000,0.000000,0.000000,0.000000,0.000000,0.412325,0.556725,0.186998,0.398387,0.024391,355.000000,332.000000,23.000000,49.000000,0.000000,0.000000,0.000000,0.000000,0.000000;
#CREDIT:;
#OFFSET:1.785984;
#BPMS:0.000000=130.000000
,161.000000=65.000000
,177.000000=130.000000
;
#STOPS:96.000000=1.384617
;
#DELAYS:;
#WARPS:;
#TIMESIGNATURES:0.000000=4=4
;
#TICKCOUNTS:0.000000=4
;
#COMBOS:0.000000=1
;
#SPEEDS:0.000000=1.000000=0.000000=0
;
#SCROLLS:0.000000=1.000000
,157.000000=0.000000
,160.000000=0.500000
,161.000000=1.000000
;
#FAKES:;
#LABELS:0.000000=Song Start
;
#NOTES:
0000
0000
0000
0000
,
0000
0000
0000
0000
,
0000
0000
0000
0000
,
0000
0000
0000
0000
,
0000
0000
0000
0000
,
1000
0000
1000
0010
1000
0000
1000
0000
,
0001
0000
0001
0010
0001
0000
0001
0000
,
1001
0000
1000
0010
1000
0000
1000
0000
,
0001
0001
0001
0000
0010
0001
0010
0000
,
1002
0000
0203
0000
0310
0100
0010
0100
,
0010
0100
0010
0100
0010
0100
0002
0000
,
1003
0100
0000
0011
0000
0100
0000
1010
,
0000
0100
0000
0011
0000
0001
2000
0000
,
3010
0100
0002
0000
1003
0100
1000
0000
,
0001
0100
0001
0100
0001
1000
0020
0000
,
1030
0000
1000
0000
0100
0010
0100
0010
,
0002
0000
0103
0000
1000
0100
0002
0000
,
1003
0100
0010
0001
0010
0100
1000
0000
,
0001
0100
0010
1000
0010
0100
0001
0000
,
1000
0100
0010
0000
0001
0100
0010
0000
,
1000
0010
1000
0001
0010
0001
0010
0000
,
0001
0100
0010
1000
0100
0010
0001
0000
,
1000
0100
0010
0001
0100
0010
1000
0000
,
0001
1000
0001
1000
0001
1000
0001
1000
,
0001
0000
0000
0000
0220
0000
0000
0330
0000
0000
0000
0000
0001
0000
1000
0000
,
0001
1000
0010
1000
0200
0000
0302
0000
,
0203
0000
1300
0000
1000
0010
0100
0010
,
1000
0000
0110
0000
1001
0000
1000
0001
,
0020
0000
0130
0010
0001
0000
1001
0000
,
0010
0010
1000
0100
0020
0000
0130
0000
,
2001
0000
3001
0000
0001
0100
0010
0100
,
0001
0000
2002
0000
3003
0000
0100
0010
,
0100
2001
3200
0320
,
0032
0000
1003
0010
1000
0001
0020
0000
,
0230
0000
1300
0001
1000
0000
0110
0000
,
1001
0000
1000
0010
0100
0001
1000
0100
,
0010
0001
2000
0000
0010
0000
3002
0000
,
0013
0010
0001
1000
0010
0100
0002
0000
,
1003
0100
0200
0000
1300
1000
0020
0000
,
1030
1000
0000
0000
0000
0000
0000
0000
,
0000
0000
0000
0000
0001
0100
0001
0000
1000
0000
0001
0000
1000
0100
1000
0000
,
0001
0000
0100
0000
0010
1000
0010
0000
0100
0000
0100
0000
0001
0010
0001
0000
,
0100
0000
0010
0000
1000
0001
1000
0000
0100
0000
0010
0000
0001
1000
0001
0000
,
0100
0010
0100
0100
0100
0000
1001
1001
,
1001
1002
1003
0001
1000
0000
0010
1000
,
0200
0000
0310
0001
0010
0001
1000
0010
,
0100
0000
0010
0100
0001
1000
0100
0000
,
0010
0001
0100
0000
0010
1000
0002
0000
,
0010
0000
1003
1000
0200
0000
0310
0001
,
0200
0000
0310
0100
0010
0100
0002
0000
,
2000
0000
3003
0000
2001
0000
3010
0100
,
0010
0100
0002
0000
0023
0000
2030
0000
,
3020
0000
0031
0000
0001
0000
0100
0010
,
0100
0010
1000
0100
1000
0001
0200
0000
,
0320
0000
1030
0010
0100
0001
1000
0000
,
0001
0010
0100
0000
0010
0100
2000
0000
,
0010
0000
3001
0001
0200
0000
0310
1000
,
0200
0000
0310
0100
0010
0100
2000
0000
,
3001
1100
0011
1001
,
1000
0001
0100
0010
0100
0010
1000
0001
,
0010
2200
0000
0000
,
0000
0000
0000
0000
,
0000
3300
0000
0000
;

//---------------dance-single - ----------------
#NOTEDATA:;
#CHARTNAME:;
#STEPSTYPE:dance-single;
#DESCRIPTION:;
#CHARTSTYLE:;
#DIFFICULTY:Easy;
#METER:7;
#RADARVALUES:0.324052,0.379586,0.235780,0.455299,0.000000,279.000000,250.000000,29.000000,56.000000,0.000000,0.000000,0.000000,0.000000,0.000000,0.324052,0.379586,0.235780,0.455299,0.000000,279.000000,250.000000,29.000000,56.000000,0.000000,0.000000,0.000000,0.000000,0.000000;
#CREDIT:;
#OFFSET:1.785984;
#BPMS:0.000000=130.000000
,161.000000=65.000000
,177.000000=130.000000
;
#STOPS:96.000000=1.384617
;
#DELAYS:;
#WARPS:;
#TIMESIGNATURES:0.000000=4=4
;
#TICKCOUNTS:0.000000=4
;
#COMBOS:0.000000=1
;
#SPEEDS:0.000000=1.000000=0.000000=0
;
#SCROLLS:0.000000=1.000000
,157.000000=0.000000
,160.000000=0.500000
,161.000000=1.000000
;
#FAKES:;
#LABELS:0.000000=Song Start
;
#NOTES:
0000
0000
0000
0000
,
0000
0000
0000
0000
,
0000
0000
0000
0000
,
0000
0000
0000
0000
,
0000
0000
0000
0000
,
1000
1000
0010
1000
,
0001
0001
0010
0001
,
1000
1000
0010
0100
,
0002
0000
0003
0000
1000
0001
1000
0000
,
1002
0023
0130
1000
,
0100
0000
1000
0000
0100
0000
0010
0001
,
0200
0000
0300
0010
0000
1000
0000
0001
,
0000
0100
0000
0010
0000
1000
0002
0000
,
0013
0000
2100
0000
3001
0100
0001
0000
,
1000
0000
1000
0000
0001
0100
0001
0000
,
1000
0000
1000
0000
0100
0010
0100
0000
,
0010
0001
0100
1001
,
2000
3200
0320
0230
,
0302
0203
0320
0230
,
1300
1000
0001
0001
,
2000
3020
0230
0302
,
0013
0100
0020
0000
0032
0000
2003
0000
,
3010
0100
0020
0000
2030
0000
3002
0000
,
0013
0100
0010
0100
,
0010
2002
3003
0001
,
1000
0000
0010
1000
0100
0000
0011
0000
,
1100
0000
0001
0000
0001
0100
0001
0000
,
1010
0000
0110
0000
1001
0000
1000
0001
,
0020
0031
1000
1001
,
0010
0100
0010
0000
0100
0000
1001
0000
,
0110
0000
1000
0000
1000
0100
1000
0000
,
0011
1001
0000
0100
,
0100
2001
0100
3100
,
0020
0000
0031
1000
0001
0000
0200
0000
,
0320
1030
1000
0101
,
0101
0000
1000
0100
0010
0000
0002
0000
,
2003
3001
0101
1010
,
0001
0000
0010
0100
0010
0000
1100
0000
,
1000
0001
1000
0000
0001
1000
0001
0000
,
1000
0001
0000
0000
0000
0000
0000
0000
,
0000
0000
2000
3000
0020
0030
2000
3000
,
0001
0010
0200
0300
0020
0030
0200
0300
,
0010
0001
2000
3000
0020
0030
2000
3000
,
0001
1000
0100
0100
0100
0000
1000
1000
,
0001
0001
1000
0000
1000
0000
0001
0100
,
0020
0000
1030
0000
0001
0000
0010
0100
,
0010
0001
0100
0010
,
1000
0000
0100
0010
0100
0000
0012
0000
,
2003
0000
3010
0000
0100
0000
0001
1000
,
0002
1003
0100
0012
,
2000
3003
1002
0100
,
0103
0002
0013
1100
,
0011
0000
1001
0000
1000
0000
0010
0100
,
0010
0000
1000
0000
1000
0000
0100
0010
,
0001
0100
0010
1000
,
0001
0000
0010
0100
0010
0000
2100
0000
,
3002
0000
0103
0000
0010
0000
1000
0001
,
0020
0130
0100
2100
,
3001
1000
1000
0001
,
0100
0010
0100
0010
0100
0010
0100
0010
,
0100
2002
0000
0000
,
0000
0000
0000
0000
,
0000
3003
0000
0000
;

//---------------dance-single - ----------------
#NOTEDATA:;
#CHARTNAME:;
#STEPSTYPE:dance-single;
#DESCRIPTION:;
#CHARTSTYLE:;
#DIFFICULTY:Beginner;
#METER:3;
#RADARVALUES:0.168414,0.245130,0.040652,0.008130,0.000000,145.000000,140.000000,5.000000,1.000000,0.000000,0.000000,0.000000,0.000000,0.000000,0.168414,0.245130,0.040652,0.008130,0.000000,145.000000,140.000000,5.000000,1.000000,0.000000,0.000000,0.000000,0.000000,0.000000;
#CREDIT:;
#OFFSET:1.785984;
#BPMS:0.000000=130.000000
;
#STOPS:;
#DELAYS:;
#WARPS:;
#TIMESIGNATURES:0.000000=4=4
;
#TICKCOUNTS:0.000000=4
;
#COMBOS:0.000000=1
;
#SPEEDS:0.000000=1.000000=0.000000=0
;
#SCROLLS:0.000000=1.000000
;
#FAKES:;
#LABELS:0.000000=Song Start
;
#NOTES:
0000
0000
0000
0000
,
0000
0000
0000
0000
,
0000
0000
0000
0000
,
0000
0000
0000
0000
,
0000
0000
0000
0000
,
1000
0000
0000
0000
,
0001
0000
0000
0000
,
1000
0000
0000
0000
,
0001
0000
1000
0000
,
1001
0000
0001
0001
,
0001
0001
0001
0001
,
0001
0000
1000
0000
,
0001
0000
1000
0000
,
0100
0000
0010
0010
,
0010
0000
0010
0000
,
0100
0000
1000
1000
,
1000
0000
0001
0000
,
1000
0000
0010
0000
,
0100
0000
0001
0000
,
1000
0000
0001
0000
,
0010
0000
0100
0000
,
1000
1000
1000
0000
,
0001
0001
0001
0000
,
0100
0100
0100
0100
,
0100
0000
0000
0000
,
1001
0000
1000
0000
,
0001
0001
0001
0000
,
0100
0000
0010
0000
,
1000
1000
1000
0000
,
0001
0000
0010
0000
,
0100
0000
1000
0000
,
0001
0000
1000
0000
,
0010
0000
0000
0000
,
1001
0000
0001
0000
,
0010
0010
0010
0000
,
0100
0000
1000
0000
,
0001
0001
0001
0000
,
0100
0000
0010
0000
,
1000
1000
1000
0000
,
1001
0000
0110
0000
,
0000
0000
0000
0000
,
1000
0000
0001
0000
,
1000
0000
0001
0000
,
0010
0000
0100
0000
,
0010
0000
0100
0000
,
1000
0000
0001
0000
,
1000
0000
0001
0000
,
0100
0000
0100
0000
,
0010
0000
0010
0000
,
0010
0000
1000
0000
,
0001
0001
0001
0000
,
1000
0000
0100
0000
,
0010
0010
0010
0000
,
0100
0000
1000
0000
,
0001
0001
0001
0000
,
0000
0100
0100
0000
,
0010
0010
0010
0010
,
0010
0000
1000
0000
,
0001
0000
0010
0010
,
0010
0000
0100
0000
,
1000
1000
1000
0000
,
0001
0000
1000
0000
,
0010
0010
0010
0000
,
0100
0100
0100
0100
,
0100
0100
0100
0100
,
0200
0000
0000
0000
,
0000
0000
0000
0000
,
0300
0000
0000
0000
;
