#VERSION:0.83;
#TITLE:たりないかぼちゃ feat. 初音ミク;
#SUBTITLE:;
#ARTIST:ピノキオピー;
#TITLETRANSLIT:Oblivious Pumpkin feat. Hatsune Miku;
#SUBTITLETRANSLIT:;
#ARTISTTRANSLIT:PinocchioP;
#GENRE:Cynical Swing;
#ORIGIN:;
#CREDIT:;
#BANNER:Oblivious Pumpkin feat. Hatsune Miku.png;
#BACKGROUND:Oblivious Pumpkin feat. Hatsune Miku-bg.png;
#PREVIEWVID:;
#JACKET:Oblivious Pumpkin feat. Hatsune Miku-jacket.png;
#CDIMAGE:;
#DISCIMAGE:;
#LYRICSPATH:;
#CDTITLE:cdtitle.png;
#MUSIC:Oblivious Pumpkin feat. Hatsune Miku.ogg;
#OFFSET:1.185172;
#SAMPLESTART:50.391556;
#SAMPLELENGTH:19.199993;
#SELECTABLE:YES;
#BPMS:0.000=200.000,
60.000=166.992,
64.667=200.000,
367.333=100.000;
#STOPS:349.000=1.500,
352.000=1.500,
355.000=0.300,
357.000=0.300,
367.333=1.000;
#DELAYS:;
#WARPS:;
#TIMESIGNATURES:0.000=4=4;
#TICKCOUNTS:0.000=4;
#COMBOS:0.000=1;
#SPEEDS:0.000=1.000=0.000=0;
#SCROLLS:0.000=1.000;
#FAKES:;
#LABELS:0.000=Song Start;
#BGCHANGES:3.938=Oblivious Pumpkin feat. Hatsune Miku.avi=1.000=1=0=0=StretchNoLoop==CrossFade==,
368.000=Oblivious Pumpkin feat Hatsune Miku-bg.png=1.000=1=0=1===CrossFade==,
99999=-nosongbg-=1.000=0=0=0 // don't automatically add -songbackground-
;
#KEYSOUNDS:;
#ATTACKS:
;

//---------------dance-single - ----------------
#NOTEDATA:;
#CHARTNAME:;
#STEPSTYPE:dance-single;
#DESCRIPTION:;
#CHARTSTYLE:;
#DIFFICULTY:Challenge;
#METER:15;
#RADARVALUES:0.790099,0.974157,0.569829,0.527930,1.344965,660.000000,592.000000,68.000000,63.000000,11.000000,0.000000,0.000000,0.000000,0.000000,0.790099,0.974157,0.569829,0.527930,1.344965,660.000000,592.000000,68.000000,63.000000,11.000000,0.000000,0.000000,0.000000,0.000000;
#CREDIT:;
#OFFSET:1.185172;
#BPMS:0.000000=200.000000
,60.000000=166.992004
,64.666664=200.000000
,367.333344=100.000000
;
#STOPS:349.000000=1.500000
,352.000000=1.500000
,355.000000=0.300000
,357.000000=0.300000
,367.333344=1.000000
;
#DELAYS:;
#WARPS:;
#TIMESIGNATURES:0.000000=4=4
;
#TICKCOUNTS:0.000000=4
;
#COMBOS:0.000000=1
;
#SPEEDS:0.000000=1.000000=0.000000=0
;
#SCROLLS:0.000000=1.000000
;
#FAKES:;
#LABELS:0.000000=Song Start
;
#NOTES:
// measure 0
0000
0000
0000
0000
,  // measure 1
0000
0000
0000
0000
,  // measure 2
0000
0000
0000
0000
,  // measure 3
0000
0000
0000
0000
,  // measure 4
0000
0000
0000
0000
,  // measure 5
2002
0000
0000
3003
0000
0000
0000
0000
1100
0000
0000
0022
,  // measure 6
0000
0000
0000
0033
0000
0000
0000
0000
0001
1000
0000
0001
,  // measure 7
0000
0000
0201
0000
0000
0310
2000
0000
3001
0010
0100
0010
,  // measure 8
0100
0000
1100
0000
0000
1002
0000
0000
0103
0010
0000
0000
,  // measure 9
0010
0000
0010
1000
0000
1000
0100
0000
0100
0010
0000
0010
,  // measure 10
0001
0000
0001
1000
0000
1000
0010
0000
1000
0001
0000
0000
,  // measure 11
0010
0000
0010
0001
0000
0001
0100
0000
0100
0010
0000
0010
,  // measure 12
1000
0000
1000
0001
0000
0001
0010
0000
0001
2000
0000
0000
,  // measure 13
3000
0001
0100
0010
0000
0000
1010
0000
0110
0000
0101
0000
,  // measure 14
0011
0000
0110
0000
1100
0000
1002
0000
0000
2000
0000
0000
,  // measure 15
3003
0000
00M0
0000
0000
0000
000M
0000
0000
0000
0000
0M00
,  // measure 16
0000
0000
1001
0000
0000
1001
0000
0000
1000
0001
0000
0001
,  // measure 17
2000
0000
0000
0001
0000
0000
3001
0000
1000
0100
0000
2000
,  // measure 18
0001
0000
0000
0001
0000
3001
0000
0000
0001
0100
0010
0100
,  // measure 19
0002
0000
0000
1000
0000
0000
1003
0000
0001
0100
0000
0001
,  // measure 20
1000
0000
1000
0100
0000
0100
0010
0000
0010
0001
1000
0010
,  // measure 21
0200
0000
0310
1000
0000
1000
0200
0000
0310
0001
0000
0001
,  // measure 22
0100
0000
0100
0010
0000
1002
0000
0000
0000
1003
0000
0000
,  // measure 23
MMMM
0000
0000
0110
0000
1000
0001
0000
1000
0001
0000
0001
,  // measure 24
0100
0000
0020
0000
0000
1030
0001
0000
0001
0010
0100
1000
,  // measure 25
0002
0000
0000
1000
0000
0000
1003
0000
0001
0010
0000
0002
,  // measure 26
1000
0000
1003
0010
0000
0100
0000
0000
0100
0001
0000
0001
,  // measure 27
2000
0000
0000
0001
0000
0000
3001
0000
1000
0010
0000
0010
,  // measure 28
1000
0000
1000
0001
0000
0001
0010
0000
0100
1000
0000
1000
,  // measure 29
0020
0000
0130
0001
0000
0001
0020
0000
0130
1000
0000
1000
,  // measure 30
0010
0000
0100
0010
0000
2001
0000
0000
0000
3001
0000
0000
,  // measure 31
MMMM
0000
0000
1001
0000
1000
0001
0000
0001
0100
0000
0100
,  // measure 32
0010
0000
0010
1000
0000
1000
0001
0000
1000
0100
0000
0010
,  // measure 33
0000
0000
0012
0000
0000
0000
1003
0000
0001
0100
0000
0010
,  // measure 34
0000
0000
2010
0000
0000
0000
3001
0000
1000
0100
0000
0010
,  // measure 35
0001
0000
1002
0000
0000
0103
0001
0000
1000
0100
0000
0020
,  // measure 36
0000
0000
0130
1000
0000
0000
1002
0000
0000
1003
0010
0100
,  // measure 37
0001
0000
1000
0100
0000
0100
1000
0000
1000
0001
0000
0001
,  // measure 38
0100
0000
0100
0010
0000
0010
1000
0000
1000
0001
0000
0001
,  // measure 39
0022
0000
0000
0033
,  // measure 40
0000
0000
0011
0000
0000
0010
0001
0000
0000
0100
0000
0010
,  // measure 41
1010
0000
0000
0000
0000
0000
1010
0000
0000
0000
0000
0010
,  // measure 42
1000
0000
1000
0001
0000
0001
0010
0100
0010
0100
1000
0001
,  // measure 43
0200
0000
0000
1300
0000
0100
0002
0000
0000
1003
0000
0010
,  // measure 44
0002
0000
0000
0013
0000
1000
0002
0000
0000
1003
0000
0000
,  // measure 45
0001
0000
0001
0010
0000
0010
0100
0000
0100
1000
0000
1000
,  // measure 46
0010
0000
0010
0110
0000
0000
1001
0000
0000
1000
0001
1000
,  // measure 47
0200
0000
0000
0301
0000
0100
2000
0000
0000
3001
0000
0010
,  // measure 48
2000
0000
0000
3010
0000
0001
2000
0000
0000
3010
0000
0010
,  // measure 49
1000
0000
0001
0010
0000
0010
1000
0000
1000
0100
0000
0100
,  // measure 50
0001
0000
0001
1000
0001
1000
0100
1000
0100
0010
0001
1000
,  // measure 51
0020
0000
0000
0031
0000
1000
0200
0000
0000
0301
0000
0001
,  // measure 52
0020
0000
0000
1030
0000
0001
0200
0000
0000
1300
0000
1000
,  // measure 53
0010
0000
0010
0001
0000
0001
0010
0000
0010
1000
0000
1000
,  // measure 54
0001
0000
0001
0011
0000
0000
1200
0000
0000
0310
0001
0100
,  // measure 55
0010
0000
1000
0010
0000
0010
0100
0000
0100
0001
0000
0001
,  // measure 56
0010
0000
0010
1000
0000
1000
0010
0000
0010
0001
0000
0000
,  // measure 57
0011
0000
0110
0000
1100
0000
1010
0000
0110
0000
0101
0000
,  // measure 58
1001
0000
1100
0000
1001
0000
0001
0100
0001
1000
0100
1000
,  // measure 59
0001
0000
0001
0100
0000
0001
1000
0000
1000
0100
0000
1000
,  // measure 60
0001
0000
0001
0100
0000
0010
1000
0000
1000
0001
0000
1000
,  // measure 61
0200
0000
0000
0310
0000
0010
0100
0000
1000
0001
0000
0001
,  // measure 62
0100
0000
1010
0000
0000
1002
0000
0000
0000
1003
0100
0010
,  // measure 63
0001
0000
0001
0100
0000
0100
1000
0000
1000
0010
0000
0010
,  // measure 64
0001
0000
0001
0100
0000
0100
0010
0000
0010
1000
0000
2001
,  // measure 65
0000
0000
3100
0000
0000
0100
1000
0100
1000
0100
0000
1002
,  // measure 66
0000
0000
0103
0000
0000
0100
0001
0100
0001
0100
0000
2001
,  // measure 67
0000
0000
3000
0100
0000
1002
0000
0000
0103
0010
0000
2001
,  // measure 68
0000
0000
3001
0000
0000
0001
1000
0100
1000
0100
0000
0012
,  // measure 69
0000
0000
0103
0000
0000
0100
0001
0100
0001
0100
0000
2010
,  // measure 70
0000
0000
3100
0000
0000
0100
1000
0100
1000
0100
0000
0000
,  // measure 71
1001
0000
0000
0101
0000
0000
1001
0000
1100
0000
0000
0011
,  // measure 72
0000
0000
1001
0000
0000
1010
0000
0000
1000
0001
0000
0001
,  // measure 73
1000
0100
1000
0001
0000
0001
0100
0000
0100
0010
0000
1000
,  // measure 74
0001
0100
0001
1000
0000
1000
0100
0000
0100
0010
0000
0001
,  // measure 75
1000
0010
1000
0010
1000
0010
1000
0010
1000
0010
0100
0010
,  // measure 76
1000
0001
1000
0010
1000
0001
1000
0100
1000
0001
0000
1000
,  // measure 77
0001
0010
0001
1000
0000
1000
0010
0000
0010
0100
0000
0001
,  // measure 78
1000
0010
1000
0001
0000
0001
0010
0000
0010
0100
0000
1000
,  // measure 79
0001
0010
0001
0010
0001
0010
0001
0010
0001
0010
0100
0010
,  // measure 80
0001
1000
0001
0010
0001
1000
0001
0100
0001
1000
0010
0100
,  // measure 81
0001
0000
1000
0100
0000
0100
0010
0000
0010
0001
0000
0001
,  // measure 82
0100
0000
0100
0010
0000
0010
1000
0000
1000
0001
0000
0001
,  // measure 83
1000
0000
0001
0100
0000
0100
0010
0000
0010
1000
0000
1000
,  // measure 84
0100
0000
0100
0010
0000
0010
0001
0000
0001
1000
0000
1000
,  // measure 85
0001
0000
0010
0001
0000
0001
0100
0000
0100
1000
0000
1000
,  // measure 86
0100
0000
0100
0001
0000
0001
0010
0000
0010
0001
0000
2002
,  // measure 87
0000
0000
0000
3003
0000
0110
0000
0000
0220
0000
0000
0000
,  // measure 88
0330
0000
1001
0000
0000
2002
0000
0000
0000
3003
0000
0110
,  // measure 89
0000
0000
0000
0000
0220
0000
0000
0330
0000
0000
0000
0000
1010
0000
0000
0000
1100
0000
0000
0000
0101
0000
0000
0000
,  // measure 90
0012
0000
1000
0000
1000
0000
1000
0000
1000
0000
1003
0000
,  // measure 91
2010
0000
0001
0000
0001
0000
0001
0000
0001
0000
3001
0000
,  // measure 92
0200
0000
0000
0000
,  // measure 93
0300
0000
0000
0000
;

//---------------dance-single - ----------------
#NOTEDATA:;
#CHARTNAME:;
#STEPSTYPE:dance-single;
#DESCRIPTION:;
#CHARTSTYLE:;
#DIFFICULTY:Hard;
#METER:13;
#RADARVALUES:0.640459,0.701393,0.611728,0.569829,0.884073,535.000000,462.000000,73.000000,68.000000,11.000000,0.000000,0.000000,0.000000,0.000000,0.640459,0.701393,0.611728,0.569829,0.884073,535.000000,462.000000,73.000000,68.000000,11.000000,0.000000,0.000000,0.000000,0.000000;
#CREDIT:;
#OFFSET:1.185172;
#BPMS:0.000000=200.000000
,60.000000=166.992004
,64.666664=200.000000
,367.333344=100.000000
;
#STOPS:349.000000=1.500000
,352.000000=1.500000
,355.000000=0.300000
,357.000000=0.300000
,367.333344=1.000000
;
#DELAYS:;
#WARPS:;
#TIMESIGNATURES:0.000000=4=4
;
#TICKCOUNTS:0.000000=4
;
#COMBOS:0.000000=1
;
#SPEEDS:0.000000=1.000000=0.000000=0
;
#SCROLLS:0.000000=1.000000
;
#FAKES:;
#LABELS:0.000000=Song Start
;
#NOTES:
// measure 0
0000
0000
0000
0000
,  // measure 1
0000
0000
0000
0000
,  // measure 2
0000
0000
0000
0000
,  // measure 3
0000
0000
0000
0000
,  // measure 4
0000
0000
0000
0000
,  // measure 5
2020
0000
0000
3030
0000
0000
0000
0000
0011
0000
0000
0022
,  // measure 6
0000
0000
0000
0033
0000
0000
0000
0000
0001
1000
0000
0001
,  // measure 7
0000
0000
0000
0000
0202
0000
0000
0000
0000
0303
0000
0000
2002
0000
0000
0000
0000
0000
3003
0000
0000
0000
0000
0000
,  // measure 8
1100
0000
1100
0000
0000
1002
0000
0000
0000
0103
0000
0000
,  // measure 9
0001
0000
1000
0100
0000
0000
1000
0000
0001
0100
0000
0000
,  // measure 10
0010
0000
1000
0001
0000
0000
0010
0000
0001
1000
0000
0000
,  // measure 11
0001
0000
0100
0010
0000
0000
1000
0000
0010
0100
0000
0000
,  // measure 12
0001
0000
1000
0001
0000
0000
0010
0000
0000
0020
0000
0000
,  // measure 13
0000
0031
1000
0001
0000
0000
1000
0000
0010
0000
0100
0000
,  // measure 14
0001
0000
0010
0000
0100
0000
2000
0000
0000
0002
0000
0000
,  // measure 15
3003
0000
00M0
0000
0000
0000
M000
0000
0000
0000
0000
0M00
,  // measure 16
0000
0000
1001
0000
0000
1001
0000
0000
1000
0001
0000
0001
,  // measure 17
2000
0000
0000
0001
0000
0000
3001
0000
1000
0010
0000
0010
,  // measure 18
2000
0000
0000
0001
0000
3001
0000
0000
1000
0001
0000
0001
,  // measure 19
2000
0000
0000
0001
0000
0000
3001
0000
1000
0100
0000
0100
,  // measure 20
1000
0000
0001
1000
0000
0001
0000
0000
0100
0010
0000
2010
,  // measure 21
0000
0000
3100
0010
0000
0012
0000
0000
1003
0001
0000
0201
,  // measure 22
0000
0000
0301
1000
0000
1200
0000
0000
0000
0310
0000
0000
,  // measure 23
MMMM
0000
0000
1001
0000
0001
0100
0000
0100
0010
0000
0000
,  // measure 24
1000
0000
0002
0000
0000
1003
0200
0000
0000
0310
0000
0000
,  // measure 25
0002
0000
0000
1000
0000
0000
1003
0000
0001
0010
0000
0010
,  // measure 26
0002
0000
0000
1000
0000
1003
0000
0000
0001
1000
0000
1000
,  // measure 27
0002
0000
0000
1000
0000
0000
1003
0000
0001
0100
0000
0100
,  // measure 28
0001
0000
1000
0001
0000
1000
0000
0000
0100
0010
0000
0012
,  // measure 29
0000
0000
0103
0010
0000
2010
0000
0000
3010
1000
0000
0102
,  // measure 30
0000
0000
0013
0001
0000
2100
0000
0000
0000
3001
0000
0000
,  // measure 31
MMMM
0000
0000
1001
0000
1000
0001
0000
0001
1000
0000
0000
,  // measure 32
1100
0000
0000
0110
0000
0000
0011
0000
0010
0001
0000
1000
,  // measure 33
0000
0000
2010
0000
0000
0000
3001
0000
0001
1000
0000
0001
,  // measure 34
0000
0000
0012
0000
0000
0000
1003
0000
1000
0001
0000
0000
,  // measure 35
0100
0000
0120
0000
0000
1030
0000
0000
0001
0000
0000
0020
,  // measure 36
0000
0000
0031
1000
0000
0000
2001
0000
0000
3010
0000
0000
,  // measure 37
0100
0000
0001
1000
0000
0000
0100
0000
1000
0001
0000
0000
,  // measure 38
0101
0110
1010
1001
,  // measure 39
2200
0000
0000
0000
,  // measure 40
3300
0000
1100
0000
0000
1000
0001
0000
0000
0100
0000
0000
,  // measure 41
0110
0000
0110
0000
,  // measure 42
1001
0000
0000
1001
0000
0000
1001
0000
0000
1000
0000
0001
,  // measure 43
0020
0000
0000
0031
0000
0200
0001
0000
0000
0301
0000
1000
,  // measure 44
0020
0000
0000
1030
0000
0200
1000
0000
0000
0310
0000
0000
,  // measure 45
0001
0000
1000
0010
0000
0010
1000
0000
0001
0010
0000
0000
,  // measure 46
0100
0000
0100
0010
0000
0000
1001
0000
0000
1000
0000
0001
,  // measure 47
0200
0000
0000
0301
0000
0020
0001
0000
0000
0031
0000
1000
,  // measure 48
0200
0000
0000
1300
0000
0020
1000
0000
0000
0130
0000
0101
,  // measure 49
0000
0000
0001
1000
0000
1000
0100
0000
0100
0010
0000
0000
,  // measure 50
0001
0000
0001
0100
0000
0100
0010
0000
0000
1001
0000
1000
,  // measure 51
0020
0000
0000
0031
0000
0020
1000
0000
0000
0130
0000
0001
,  // measure 52
0020
0000
0000
1030
0000
0020
0001
0000
0000
0130
0000
0100
,  // measure 53
0010
0000
0001
1000
0000
1000
0001
0000
0001
1000
0000
0000
,  // measure 54
0001
0000
0100
0010
0000
0000
1010
0000
0000
0101
0000
0000
,  // measure 55
1001
0000
0001
0010
0000
0001
1000
0000
0001
0100
0000
0000
,  // measure 56
0010
0000
1000
0001
0000
1000
0100
0000
0000
0010
0000
0000
,  // measure 57
0001
0000
0001
0000
0100
0000
1000
0000
1000
0000
0100
0000
,  // measure 58
0001
0000
0010
0000
0100
0000
2000
0000
0000
0001
0000
0000
,  // measure 59
3010
0000
0000
1001
0000
1000
0010
0000
0000
1001
0000
0001
,  // measure 60
0010
0000
0000
1001
0000
0001
0100
0000
0000
1001
0000
1000
,  // measure 61
0200
0001
0010
1300
,  // measure 62
1010
0000
1010
0000
0000
1002
0000
0000
0000
0013
0000
0000
,  // measure 63
0001
0000
1000
0010
0000
1000
0001
0000
1000
0100
0000
1000
,  // measure 64
0001
0000
1000
0010
0000
0100
0001
0000
0000
1000
0000
2001
,  // measure 65
0000
0000
3100
0000
0000
0100
1000
0000
0000
0100
0000
1002
,  // measure 66
0000
0000
0103
0000
0000
0100
0001
0000
0000
0100
0000
2001
,  // measure 67
0000
0000
0000
3100
0000
1002
0000
0000
0000
0103
0000
2001
,  // measure 68
0000
0000
3001
0000
0000
0001
0010
0000
0000
0100
0000
2100
,  // measure 69
0000
0000
3001
0000
0000
0001
0100
0000
0000
0001
0000
0102
,  // measure 70
0000
0000
1003
0000
0000
1000
0100
0000
0000
1000
0000
0000
,  // measure 71
1001
0000
0000
1001
0000
0000
0101
0000
0101
0000
0000
1010
,  // measure 72
0000
0000
1010
0000
0000
1001
0000
0000
1000
0001
0000
0001
,  // measure 73
1000
0000
1000
0100
0000
0000
0010
0000
0100
1000
0000
0000
,  // measure 74
0001
0000
0001
0100
0000
0000
0010
0000
0100
0001
0000
0000
,  // measure 75
1000
0000
0100
0000
1000
0000
0100
0000
0001
0000
1000
0000
,  // measure 76
0010
0000
0001
0000
1000
0000
0100
0000
0100
0010
0000
0000
,  // measure 77
0001
0000
0001
0100
0000
0000
0010
0000
0100
0001
0000
0000
,  // measure 78
1000
0000
1000
0100
0000
0000
0010
0000
0100
1000
0000
0000
,  // measure 79
0001
0000
0100
0000
0001
0000
0100
0000
1000
0000
0001
0000
,  // measure 80
0010
0000
1000
0000
0001
0000
0100
0000
0100
0010
0000
0000
,  // measure 81
1001
0000
1000
0100
0000
1000
0100
0000
1000
0100
0000
0000
,  // measure 82
0010
0000
0001
1000
0000
0001
0100
0000
0020
0000
0000
1030
,  // measure 83
0000
0000
0001
0100
0000
0001
0100
0000
0001
0100
0000
0000
,  // measure 84
0010
0000
1000
0001
0000
1000
0200
0000
0000
0310
0000
0000
,  // measure 85
0001
0000
1000
0010
0000
0010
1000
0000
1000
0001
0000
0000
,  // measure 86
0010
0000
0010
0001
0000
0001
1000
0000
0000
0010
0000
2020
,  // measure 87
0000
0000
0000
3030
0000
0011
0000
0000
0022
0000
0000
0000
,  // measure 88
0033
0000
1010
0000
0000
2020
0000
0000
0000
3030
0000
0011
,  // measure 89
0000
0000
0000
0000
0022
0000
0000
0033
0000
0000
0000
0000
1000
0000
0000
0000
0010
0000
0000
0000
0100
0000
0000
0000
,  // measure 90
0001
0000
0010
0000
1000
0000
0010
0000
1000
0000
0010
0000
,  // measure 91
0001
0000
0100
0000
1000
0000
0100
0000
1000
0000
0100
0000
,  // measure 92
0002
0000
0000
0000
,  // measure 93
0003
0000
0000
0000
;

//---------------dance-single - ----------------
#NOTEDATA:;
#CHARTNAME:;
#STEPSTYPE:dance-single;
#DESCRIPTION:;
#CHARTSTYLE:;
#DIFFICULTY:Medium;
#METER:10;
#RADARVALUES:0.508776,0.701393,0.536310,0.603349,0.498601,425.000000,361.000000,64.000000,72.000000,4.000000,0.000000,0.000000,0.000000,0.000000,0.508776,0.701393,0.536310,0.603349,0.498601,425.000000,361.000000,64.000000,72.000000,4.000000,0.000000,0.000000,0.000000,0.000000;
#CREDIT:;
#OFFSET:1.185172;
#BPMS:0.000000=200.000000
,60.000000=166.992004
,64.666664=200.000000
,367.333344=100.000000
;
#STOPS:349.000000=1.500000
,352.000000=1.500000
,355.000000=0.300000
,357.000000=0.300000
,367.333344=1.000000
;
#DELAYS:;
#WARPS:;
#TIMESIGNATURES:0.000000=4=4
;
#TICKCOUNTS:0.000000=4
;
#COMBOS:0.000000=1
;
#SPEEDS:0.000000=1.000000=0.000000=0
;
#SCROLLS:0.000000=1.000000
;
#FAKES:;
#LABELS:0.000000=Song Start
;
#NOTES:
// measure 0
0000
0000
0000
0000
,  // measure 1
0000
0000
0000
0000
,  // measure 2
0000
0000
0000
0000
,  // measure 3
0000
0000
0000
0000
,  // measure 4
0000
0000
0000
0000
,  // measure 5
2002
0000
0000
3003
0000
0000
0000
0000
0110
0000
0000
0220
,  // measure 6
0000
0000
0000
0330
0000
0000
0000
0000
1000
0001
0000
0000
,  // measure 7
0000
0000
0000
0000
0022
0000
0000
0000
0000
0033
0000
0000
2002
0000
0000
0000
0000
0000
3003
0000
0000
0000
0000
0000
,  // measure 8
1010
0000
1010
0000
0000
2001
0000
0000
0000
3100
0000
0000
,  // measure 9
1000
0000
0000
0010
0000
0000
1000
0000
0010
1000
0000
0000
,  // measure 10
0001
0000
0000
0010
0000
0000
0001
0000
0010
0001
0000
0000
,  // measure 11
1000
0000
0000
0100
0000
0000
1000
0000
0100
1000
0000
0000
,  // measure 12
0001
0000
0000
0100
0000
0000
0001
0000
0100
0001
0000
0000
,  // measure 13
0000
0000
0000
1001
0000
0000
0100
0000
0010
0000
0100
0000
,  // measure 14
0010
0000
0100
0000
0010
0000
0200
0000
0000
0020
0000
0000
,  // measure 15
0330
0000
0000
0000
,  // measure 16
0000
0000
1001
0000
0000
1001
0000
0000
0000
1001
0000
0000
,  // measure 17
2020
0000
0000
0000
0000
0000
3030
0000
0010
1000
0000
0002
,  // measure 18
0000
0000
0000
0000
0000
0000
0003
0000
0010
0001
0000
0000
,  // measure 19
0022
0000
0000
0000
0000
0000
0033
0000
0010
0001
0000
0000
,  // measure 20
0100
0000
0000
0100
0000
0000
0010
0000
0000
1000
0000
0200
,  // measure 21
0000
0000
0000
0310
0000
0002
0000
0000
0000
0103
0000
0020
,  // measure 22
0000
0000
0000
1030
0000
0002
0000
0000
0000
1003
0000
0000
,  // measure 23
M00M
0000
0000
0001
0000
1000
0000
0000
1000
0001
0000
0000
,  // measure 24
1000
0000
0200
0000
0000
1300
0002
0000
0000
0103
0000
0000
,  // measure 25
0202
0000
0000
0000
0000
0000
0303
0000
0100
0001
0000
2000
,  // measure 26
0000
0000
0000
0000
0000
0000
3000
0000
0100
1000
0000
0000
,  // measure 27
2200
0000
0000
0000
0000
0000
3300
0000
0100
1000
0000
0000
,  // measure 28
0010
0000
0000
0010
0000
0000
1000
0000
0000
0001
0000
0020
,  // measure 29
0000
0000
0000
0130
0000
2000
0000
0000
0000
3010
0000
0200
,  // measure 30
0000
0000
0000
0301
0000
2000
0000
0000
0000
3001
0000
0000
,  // measure 31
M00M
0000
0000
1000
0000
0001
0000
0000
0001
1000
0000
0000
,  // measure 32
0100
0000
0000
0010
0000
0000
0001
0000
0000
1000
0000
0010
,  // measure 33
0000
0000
2010
0000
0000
0000
3001
0000
0000
0001
0000
0010
,  // measure 34
0000
0000
0012
0000
0000
0000
1003
0000
0000
0010
0000
0000
,  // measure 35
1000
0000
1002
0000
0000
1003
0000
0000
0100
0000
0000
0020
,  // measure 36
0000
0130
2000
3001
,  // measure 37
0100
0010
1000
0001
,  // measure 38
1001
1001
0110
0110
,  // measure 39
2002
0000
0000
0000
,  // measure 40
3003
0000
1000
0000
0000
0000
1000
0000
0000
0100
0000
0000
,  // measure 41
0110
0000
0110
0000
,  // measure 42
1001
0000
0000
1001
0000
0000
1001
0000
0000
0001
0000
0001
,  // measure 43
0200
0000
0000
0310
0000
2000
0000
0000
0000
3001
0000
0001
,  // measure 44
0020
0000
0000
0130
0000
2000
0000
0000
0000
3001
0000
0001
,  // measure 45
1000
0010
1000
0100
,  // measure 46
0010
0000
0010
0100
0000
0000
1001
0000
0000
1000
0000
1000
,  // measure 47
0020
0000
0000
0130
0000
0002
0000
0000
0000
1003
0000
1000
,  // measure 48
0200
0000
0000
0310
0000
0002
0000
0000
0000
1003
0000
0001
,  // measure 49
0000
0000
0001
0100
0000
0000
0001
0000
0000
0010
0000
0000
,  // measure 50
0011
0000
0000
0110
0000
0000
1100
0000
0000
1000
0000
1000
,  // measure 51
0020
0000
0000
0130
0000
0002
0000
0000
0000
0013
0000
0010
,  // measure 52
0200
0000
0000
1300
0000
0002
0000
0000
0000
0103
0000
0100
,  // measure 53
0001
0010
0001
1000
,  // measure 54
0010
0000
0010
0100
0000
0000
2002
0000
0000
3003
0000
0000
,  // measure 55
1000
0000
1000
0100
0000
0000
0010
0000
0000
0001
0000
0000
,  // measure 56
0100
0000
0100
0010
0000
0000
2000
0000
0000
3001
0000
0000
,  // measure 57
0010
0000
0100
0000
0010
0000
0100
0000
0010
0000
0100
0000
,  // measure 58
1000
0000
0001
0000
0010
0000
0200
0000
0000
0310
0000
0000
,  // measure 59
0001
0101
1000
1100
,  // measure 60
0001
0011
1000
1010
,  // measure 61
0002
0010
1000
0103
,  // measure 62
0110
0000
0110
0000
0000
0120
0000
0000
0000
1030
0000
1000
,  // measure 63
0001
0010
1000
0100
,  // measure 64
0001
0000
0000
0010
0000
0000
0100
0000
0000
1000
0000
2001
,  // measure 65
0000
0000
3010
0000
0000
0000
1000
0000
0000
0001
0000
1002
,  // measure 66
0000
0000
0013
0000
0000
0000
0001
0000
0000
1000
0000
2001
,  // measure 67
0000
0000
0000
3001
0000
1002
0000
0000
0000
1003
0000
2001
,  // measure 68
0000
0000
3010
0000
0000
0000
1000
0000
0000
0010
0000
2010
,  // measure 69
0000
0000
3001
0000
0000
0000
0001
0000
0000
0010
0000
0012
,  // measure 70
0000
0000
1003
0000
0000
0000
1000
0000
0000
0001
0000
0000
,  // measure 71
1001
0000
0000
1001
0000
0000
1001
0000
1001
0000
0000
0110
,  // measure 72
0000
0000
0110
0000
0000
0110
0000
0000
0000
0110
0000
0000
,  // measure 73
1001
1000
0100
0100
,  // measure 74
0001
0001
0010
0010
,  // measure 75
1000
0000
0000
0100
0000
0010
0001
0000
0000
0100
0000
0000
,  // measure 76
0010
0000
0000
1000
0000
0001
0010
0000
0000
0100
0000
0000
,  // measure 77
1000
1000
0010
0010
,  // measure 78
0001
0001
0100
0100
,  // measure 79
1000
0000
0000
0010
0000
0100
0001
0000
0000
0010
0000
0000
,  // measure 80
0100
0000
0000
1000
0000
0010
0100
0000
0000
0001
0000
0000
,  // measure 81
1000
0000
0000
0100
0000
1000
0100
0000
0000
0010
0000
0000
,  // measure 82
0001
0000
0000
0100
0000
0001
0100
0000
0000
0010
0000
0000
,  // measure 83
1000
0000
0000
0001
0000
1000
0001
0000
0000
0010
0000
0000
,  // measure 84
0001
0000
0000
0100
0000
0010
1000
0000
0000
0001
0000
0000
,  // measure 85
1000
0000
0000
0100
0000
0010
0100
0000
0000
1000
0000
0000
,  // measure 86
0001
0000
0000
0100
0000
0010
0100
0000
0000
0001
0000
2002
,  // measure 87
0000
0000
0000
3003
0000
1001
0000
0000
2002
0000
0000
0000
,  // measure 88
3003
0000
1001
0000
0000
2002
0000
0000
0000
3003
0000
1001
,  // measure 89
0000
0000
2002
3003
0000
0000
1000
0000
0001
0000
1000
0000
,  // measure 90
0100
0000
0010
0000
0100
0000
0010
0000
0100
0000
0010
0000
,  // measure 91
0001
0000
1000
0000
0001
0000
1000
0000
0001
0000
1000
0000
,  // measure 92
0020
0000
0000
0000
,  // measure 93
0030
0000
0000
0000
;

//---------------dance-single - ----------------
#NOTEDATA:;
#CHARTNAME:;
#STEPSTYPE:dance-single;
#DESCRIPTION:;
#CHARTSTYLE:;
#DIFFICULTY:Easy;
#METER:8;
#RADARVALUES:0.365122,0.603349,0.469271,0.821224,0.213686,305.000000,249.000000,56.000000,98.000000,0.000000,0.000000,0.000000,0.000000,0.000000,0.365122,0.603349,0.469271,0.821224,0.213686,305.000000,249.000000,56.000000,98.000000,0.000000,0.000000,0.000000,0.000000,0.000000;
#CREDIT:;
#OFFSET:1.185172;
#BPMS:0.000000=200.000000
,60.000000=166.992004
,64.666664=200.000000
,379.333344=100.000000
;
#STOPS:379.333344=1.000000
;
#DELAYS:;
#WARPS:;
#TIMESIGNATURES:0.000000=4=4
;
#TICKCOUNTS:0.000000=4
;
#COMBOS:0.000000=1
;
#SPEEDS:0.000000=1.000000=0.000000=0
;
#SCROLLS:0.000000=1.000000
;
#FAKES:;
#LABELS:0.000000=Song Start
;
#NOTES:
// measure 0
0000
0000
0000
0000
,  // measure 1
0000
0000
0000
0000
,  // measure 2
0000
0000
0000
0000
,  // measure 3
0000
0000
0000
0000
,  // measure 4
0000
0000
0000
0000
,  // measure 5
2002
0000
0000
3003
0000
0000
0000
0000
0110
0000
0000
0220
,  // measure 6
0000
0330
0000
0100
,  // measure 7
0000
0000
2002
0000
3003
0000
0202
0000
0000
0303
0000
0000
,  // measure 8
2002
0000
3003
0000
0000
2200
0000
0000
0000
3300
0000
0000
,  // measure 9
1000
0010
0010
1000
,  // measure 10
0001
0010
0010
0001
,  // measure 11
1000
0100
0100
1000
,  // measure 12
0001
0100
0100
0001
,  // measure 13
0000
1001
2000
0000
,  // measure 14
3200
0000
0320
0000
,  // measure 15
0030
0000
0000
0000
,  // measure 16
0000
0000
1001
0000
0000
1001
0000
0000
0000
1001
0000
0000
,  // measure 17
2002
0000
0000
0000
0000
0000
3003
0000
0000
0001
0000
2000
,  // measure 18
0000
3000
0000
1000
,  // measure 19
2002
0000
3003
1000
,  // measure 20
0100
0000
0000
0010
0000
0000
0001
0000
0000
0000
0000
0022
,  // measure 21
0000
0000
0033
0000
0000
0202
0000
0000
0303
0000
0000
2020
,  // measure 22
0000
0000
3030
0000
0000
2200
0000
0000
0000
3300
0000
0000
,  // measure 23
0000
0000
0000
1000
0000
0001
0000
0000
0000
1000
0000
0000
,  // measure 24
0200
0000
0310
0100
,  // measure 25
2002
0000
0000
0000
0000
0000
3003
0000
0000
1000
0000
0002
,  // measure 26
0000
0003
0000
0001
,  // measure 27
2002
0000
3003
0001
,  // measure 28
0100
0000
0000
0010
0000
0000
1000
0000
0000
0000
0000
2020
,  // measure 29
0000
0000
3030
0000
0000
2200
0000
0000
3300
0000
0000
0022
,  // measure 30
0000
0000
0033
0000
0000
0202
0000
0000
0000
0303
0000
0000
,  // measure 31
0000
0000
0000
0001
0000
1000
0000
0000
0000
0001
0000
0000
,  // measure 32
0100
0000
0000
0010
0000
0000
1000
0000
0000
0000
0000
1000
,  // measure 33
0000
0000
2020
0000
0000
0000
3030
0000
0000
0000
0000
0001
,  // measure 34
0000
0000
0022
0000
0000
0000
0033
0000
0000
0001
0000
0000
,  // measure 35
1000
0000
0002
0000
0000
0103
0000
0000
0010
0000
0000
2000
,  // measure 36
0000
3100
0020
0031
,  // measure 37
0100
0100
0010
0010
,  // measure 38
1000
0100
0010
0001
,  // measure 39
2002
0000
0000
0000
,  // measure 40
3003
0000
1000
0000
0000
0000
1000
0000
0000
0010
0000
0000
,  // measure 41
0110
0000
0110
0000
,  // measure 42
1001
1001
1001
1000
,  // measure 43
0200
0000
0000
0000
0000
0320
0000
0000
0000
0031
0000
0000
,  // measure 44
0200
0000
0000
0000
0000
0320
0000
0000
0000
1030
0000
0000
,  // measure 45
0001
1000
0100
0010
,  // measure 46
0100
0100
0100
1000
,  // measure 47
0020
0000
0000
0000
0000
0230
0000
0000
0000
0301
0000
0000
,  // measure 48
0020
0000
0000
0000
0000
0230
0000
0000
0000
1300
0000
0000
,  // measure 49
0000
1000
1000
0010
,  // measure 50
0100
0001
0010
0100
,  // measure 51
0020
0000
0000
0000
0000
0032
0000
0000
0000
0103
0000
0000
,  // measure 52
0020
0000
0000
0000
0000
2030
0000
0000
0000
3001
0000
0000
,  // measure 53
0010
0001
0100
0010
,  // measure 54
1000
1000
1000
0001
,  // measure 55
0010
0001
1000
0010
,  // measure 56
0100
0100
0100
0010
,  // measure 57
2000
0000
3200
0000
,  // measure 58
0320
0000
0032
0000
,  // measure 59
1003
0100
1000
0001
,  // measure 60
0100
0001
1000
0100
,  // measure 61
0020
0000
0130
0010
,  // measure 62
1001
0000
0000
0000
0000
1002
0000
0000
0000
1003
0000
0000
,  // measure 63
0010
0010
0100
0100
,  // measure 64
0001
0000
0000
1000
0000
0000
0100
0000
0000
0000
0000
2200
,  // measure 65
0000
0000
0000
0000
0000
0000
3300
0000
0000
0000
0000
0202
,  // measure 66
0000
0000
0000
0000
0000
0000
0303
0000
0000
0000
0000
2200
,  // measure 67
0000
0000
3300
0000
0000
0202
0000
0000
0303
0000
0000
2200
,  // measure 68
0000
0000
0000
0000
0000
0000
3300
0000
0000
0000
0000
2020
,  // measure 69
0000
0000
0000
0000
0000
0000
3030
0000
0000
0000
0000
0022
,  // measure 70
0000
0000
0033
0000
,  // measure 71
1001
0000
0000
1001
0000
0000
1001
0000
0000
0000
0000
0110
,  // measure 72
0000
0000
0110
0000
0000
0110
0000
0000
0000
1001
0000
0000
,  // measure 73
1000
0100
0010
0000
,  // measure 74
0001
0100
0010
0000
,  // measure 75
0010
1000
0001
0010
,  // measure 76
0001
1000
0010
1000
,  // measure 77
0001
0010
0100
0000
,  // measure 78
1000
0010
0100
0000
,  // measure 79
0100
0001
0010
0100
,  // measure 80
1000
0010
0100
0001
,  // measure 81
1000
0100
0010
0100
,  // measure 82
1000
0010
2000
3000
,  // measure 83
0001
0100
0010
0100
,  // measure 84
0001
0010
0002
0003
,  // measure 85
0010
0100
1000
0010
,  // measure 86
0100
0000
0000
0001
0000
0000
1000
0000
0000
0001
0000
2002
,  // measure 87
0000
3003
0000
0000
,  // measure 88
0000
0000
0000
0000
0000
0000
0000
0000
1001
0000
0000
2002
,  // measure 89
0000
3003
0000
0000
,  // measure 90
0000
0000
0000
0000
0000
0000
0000
0000
1001
0000
0000
2002
,  // measure 91
0000
0000
0000
3003
0000
0000
0000
0000
1001
0000
0000
2002
,  // measure 92
0000
3003
0010
0000
,  // measure 93
2002
0000
0000
3003
,  // measure 94
0220
0000
0000
0000
0000
0000
0000
0000
0000
0000
0330
0000
,  // measure 95
2000
0000
0000
0000
,  // measure 96
3000
0000
0000
0000
;

//---------------dance-single - ----------------
#NOTEDATA:;
#CHARTNAME:;
#STEPSTYPE:dance-single;
#DESCRIPTION:;
#CHARTSTYLE:;
#DIFFICULTY:Beginner;
#METER:4;
#RADARVALUES:0.239424,0.635751,0.310054,0.125698,0.092178,200.000000,163.000000,37.000000,15.000000,0.000000,0.000000,0.000000,0.000000,0.000000,0.239424,0.635751,0.310054,0.125698,0.092178,200.000000,163.000000,37.000000,15.000000,0.000000,0.000000,0.000000,0.000000,0.000000;
#CREDIT:;
#OFFSET:1.185172;
#BPMS:0.000000=200.000000
,60.000000=166.992004
,64.666664=200.000000
;
#STOPS:;
#DELAYS:;
#WARPS:;
#TIMESIGNATURES:0.000000=4=4
;
#TICKCOUNTS:0.000000=4
;
#COMBOS:0.000000=1
;
#SPEEDS:0.000000=1.000000=0.000000=0
;
#SCROLLS:0.000000=1.000000
,60.000000=1.197662
,64.666664=1.000000
;
#FAKES:;
#LABELS:0.000000=Song Start
;
#NOTES:
0000
0000
0000
0000
,
0000
0000
0000
0000
,
0000
0000
0000
0000
,
0000
0000
0000
0000
,
0000
0000
0000
0000
,
1001
0000
0000
0000
0000
0000
0000
0000
0000
0000
0000
0110
,
0000
0000
0000
0000
,
0000
0000
2002
0000
0000
0000
0000
0000
0000
0000
0000
0000
,
0000
0000
3003
0000
,
1000
0000
1000
0000
,
0010
0000
0010
0000
,
0100
0000
0100
0000
,
0001
0000
0001
0000
,
0000
0220
0000
0000
,
0000
0000
0000
0000
,
0330
0000
0000
0000
,
0000
0000
1001
0000
0000
0000
0000
0000
0000
0000
0000
0000
,
1000
0000
0000
0000
0000
0000
0000
0000
0000
0000
0000
1000
,
0000
0000
0000
0001
,
0001
0000
0000
0000
,
0001
0001
0001
0000
,
0010
0000
0100
0000
,
0010
0000
0200
0000
,
0300
1000
0000
0010
,
0010
0000
0100
0000
,
0001
0000
0000
0000
0000
0000
0000
0000
0000
0000
0000
0001
,
0000
0000
0000
1000
,
1000
0000
0000
0000
,
1000
1000
1000
0000
,
0010
0000
0100
0000
,
0010
0000
0200
0000
,
0300
0001
0000
0010
,
0010
0000
0001
0000
,
0000
0000
1001
0000
0000
0000
0000
0000
0000
0000
0000
0000
,
0000
0000
0110
0000
0000
0000
0000
0000
0000
0000
0000
0000
,
0000
0000
1001
0000
0000
0000
0000
0000
0000
0000
0000
0000
,
0100
0100
0100
0000
,
1000
0000
0001
0000
,
0100
0100
0100
0000
,
1001
0000
0000
0000
,
0100
0000
0010
0000
,
1001
0000
1001
0000
,
1001
1001
1001
0000
,
1000
0000
0100
0000
,
0010
0000
0001
0000
,
1000
0000
0001
0000
,
0100
0100
0100
0000
,
0001
0000
0100
0000
,
0010
0000
1000
0000
,
0001
0000
0010
0000
,
0001
0001
0001
0000
,
1000
0000
0010
0000
,
0100
0000
0001
0000
,
0010
0000
0100
0000
,
0010
0010
0010
0000
,
0001
0000
1000
0000
,
0010
0010
0010
0000
,
2002
0000
0000
0000
,
0000
0000
3003
0000
,
1000
0000
1000
0000
,
0001
0000
0001
0000
,
0020
0000
0030
0000
,
2002
0000
0000
0000
0000
3003
0000
0000
0000
0000
0000
0000
,
0001
0000
0100
0000
,
0010
0000
0000
0000
0000
0000
1000
0000
0000
0000
0000
1001
,
0000
0000
0000
0000
0000
0000
0000
0000
0000
0000
0000
1001
,
0000
0000
0000
0000
0000
0000
0000
0000
0000
0000
0000
1001
,
0000
0000
0000
0000
0000
1001
0000
0000
0000
0000
0000
1001
,
0000
0000
0000
0000
0000
0000
0000
0000
0000
0000
0000
0110
,
0000
0000
0000
0000
0000
0000
0000
0000
0000
0000
0000
0110
,
0000
0000
0000
0000
,
1001
0000
0000
1001
0000
0000
1001
0000
0000
0000
0000
1001
,
0000
0000
1001
0000
0000
1001
0000
0000
0000
1001
0000
0000
,
1001
0000
1000
0000
,
0001
0000
0001
0000
,
0010
0100
0010
0100
,
0010
0100
0010
0000
,
0001
0000
0001
0000
,
1000
0000
1000
0000
,
0010
0100
0010
0100
,
0010
0100
0010
0000
,
1000
0000
0100
0000
,
0010
0010
0010
0000
,
0001
0000
0100
0000
,
0010
0010
0010
0000
,
1000
0000
0001
0000
,
0010
0000
0000
0010
0000
0000
0010
0000
0000
0000
0000
1001
,
0000
0000
0000
0000
,
0000
0000
0000
0000
0000
0000
0000
0000
0000
0000
0000
1001
,
0000
0000
0000
0000
,
0000
0000
0000
0000
0000
0000
0000
0000
0000
0000
0000
1001
,
0000
0000
0000
0000
0000
0000
0000
0000
0000
0000
0000
1001
,
0000
0000
0100
0000
,
2002
0000
0000
3003
,
0220
0000
0000
0000
0000
0000
0000
0000
0000
0000
0330
0000
;
