#VERSION:0.83;
#TITLE:Nowhere;
#SUBTITLE:;
#ARTIST:Nhato;
#TITLETRANSLIT:;
#SUBTITLETRANSLIT:;
#ARTISTTRANSLIT:;
#GENRE:Electro Trance;
#ORIGIN:;
#CREDIT:;
#BANNER:Nowhere.png;
#BACKGROUND:Nowhere-bg.png;
#PREVIEWVID:;
#JACKET:Nowhere-jacket.png;
#CDIMAGE:;
#DISCIMAGE:;
#LYRICSPATH:;
#CDTITLE:cdtitle.png;
#MUSIC:Nowhere.ogg;
#OFFSET:0.098614;
#SAMPLESTART:29.034084;
#SAMPLELENGTH:13.714285;
#SELECTABLE:YES;
#BPMS:0.000=140.000,
132.000=70.000,
148.000=140.000,
205.000=70.000,
209.000=140.000;
#STOPS:180.000=3.000;
#DELAYS:;
#WARPS:;
#TIMESIGNATURES:0.000=4=4;
#TICKCOUNTS:0.000=4;
#COMBOS:0.000=1;
#SPEEDS:0.000=1.000=0.000=0;
#SCROLLS:0.000=1.000;
#FAKES:;
#LABELS:0.000=Song Start;
#BGCHANGES:;
#KEYSOUNDS:;
#ATTACKS:
;

//---------------dance-single - ----------------
#NOTEDATA:;
#CHARTNAME:;
#STEPSTYPE:dance-single;
#DESCRIPTION:;
#CHARTSTYLE:;
#DIFFICULTY:Challenge;
#METER:15;
#RADARVALUES:0.665417,0.720909,0.102560,0.495705,0.871758,545.000000,533.000000,12.000000,58.000000,0.000000,0.000000,0.000000,0.000000,0.000000,0.665417,0.720909,0.102560,0.495705,0.871758,545.000000,533.000000,12.000000,58.000000,0.000000,0.000000,0.000000,0.000000,0.000000;
#CREDIT:;
#OFFSET:0.098614;
#BPMS:0.000000=140.000000
,132.000000=70.000000
,148.000000=140.000000
,205.000000=70.000000
,209.000000=140.000000
;
#STOPS:180.000000=3.000000
;
#DELAYS:;
#WARPS:;
#TIMESIGNATURES:0.000000=4=4
;
#TICKCOUNTS:0.000000=4
;
#COMBOS:0.000000=1
;
#SPEEDS:0.000000=1.000000=0.000000=0
,180.000000=2.000000=3.000000=1
;
#SCROLLS:0.000000=1.000000
,180.000000=0.500000
;
#FAKES:;
#LABELS:0.000000=Song Start
;
#NOTES:
// measure 0
0000
0000
0000
0000
,  // measure 1
0000
0000
0000
0000
,  // measure 2
0000
0000
0000
0000
,  // measure 3
0000
0000
0000
0000
,  // measure 4
0000
0000
0000
0000
,  // measure 5
1000
0010
2000
0000
0000
0000
3002
0000
0000
0000
0000
0000
0023
0000
0000
0000
,  // measure 6
2030
3020
0032
0203
0000
0000
0301
0000
,  // measure 7
0001
0010
0002
0000
0000
0000
0203
0000
0000
0000
0000
0000
0320
0000
0000
0000
,  // measure 8
1030
0000
0000
1000
0010
0100
0001
1000
0000
0001
1000
0000
1001
0000
0000
0000
,  // measure 9
0001
0010
0001
0010
0000
0001
1000
0001
0000
1000
0100
0000
0001
0000
0100
0000
,  // measure 10
1000
0010
1000
0010
0000
1000
0001
1000
0000
0001
0100
0000
1000
0000
0100
0000
,  // measure 11
0001
1000
0001
1000
0000
0001
0010
0001
0000
1000
0010
0000
0001
0000
0010
0000
,  // measure 12
1000
0001
1000
0001
0000
1000
0100
1000
0001
0000
0100
0000
0020
0000
0000
0000
,  // measure 13
1030
0010
1000
0010
1000
0001
0000
1000
0001
0010
0001
0010
0001
1000
0000
0001
,  // measure 14
1000
0100
0001
0100
1000
0010
1002
0000
,  // measure 15
0200
0000
0000
0000
0003
0000
0000
0000
0310
1000
0000
1000
0100
0000
0001
0000
,  // measure 16
0100
1000
0000
0100
1000
0001
0100
0010
0000
0010
1000
0000
1001
0000
0000
0000
,  // measure 17
2100
0000
0000
0000
3001
0000
0001
0000
0000
0001
1000
0001
1000
0000
0010
0000
,  // measure 18
0002
0000
0000
0013
0000
1000
0000
0100
0000
0010
0001
1000
0010
0000
1000
0000
,  // measure 19
0200
0000
0000
0310
0000
0100
0010
0001
0200
0000
0000
0310
0000
0100
0010
1000
,  // measure 20
0200
0000
0000
0310
0000
0100
0010
0001
0100
0000
0000
0110
0000
0000
0010
1000
,  // measure 21
0001
0000
0001
1000
0100
0000
0100
0000
0000
0100
0010
0100
0010
0000
0001
0000
,  // measure 22
0200
0000
0000
1300
0000
0100
0000
0001
0000
0010
0100
1000
0001
0000
0100
0000
,  // measure 23
0001
0000
0000
0001
0010
0000
1000
0000
0010
0001
0000
0001
0100
0000
0010
0000
,  // measure 24
1000
0000
0100
0010
0100
0000
1000
0000
0001
0000
0100
0010
1000
0000
0001
0000
,  // measure 25
1002
0000
0000
0000
0103
0001
1000
0100
0000
0100
1000
0001
0100
0000
1000
0000
,  // measure 26
0200
0000
0000
0301
0000
0010
0000
1000
0000
0010
0100
0010
0001
0000
0100
0000
,  // measure 27
0020
0000
0000
0000
0000
0000
0000
0000
0000
1030
0000
0000
0000
0000
0000
1000
0000
0000
0001
0000
0010
0000
0001
0000
0020
0000
0000
0000
0000
0000
0000
0000
0000
0031
0000
0000
0000
0000
0000
0001
0000
0000
1000
0000
0010
0000
1000
0000
,  // measure 28
0020
0000
0000
0000
0000
0000
0000
0000
0000
1030
0000
0000
0000
0000
0000
1000
0000
0000
0001
0000
0010
0000
0001
0000
0010
0000
0000
0001
0000
0000
1000
0000
0000
0001
0000
0000
0100
0000
0000
0001
0000
0000
1000
0000
0000
0000
0000
0000
,  // measure 29
0001
0010
0002
0000
0103
0010
1000
0001
0000
0001
1000
0100
0010
0000
1000
0000
,  // measure 30
0010
0000
0001
0100
0000
1000
0000
0100
0000
0001
0010
0100
1000
0000
0001
0000
,  // measure 31
1000
0010
2000
0000
3001
0000
2000
0000
3100
0000
1000
0000
0002
0000
0103
0000
,  // measure 32
0020
2030
3200
0320
0000
0130
1001
0000
,  // measure 33
2000
3020
2030
3200
,  // measure 34
0320
0000
0000
0000
0032
0000
0000
0000
2003
0000
0000
0000
3001
1000
0001
0000
,  // measure 35
0010
0000
0000
0001
0000
0000
0000
0000
1000
0000
0000
0000
1000
0000
0000
0000
0001
0000
0000
0100
0000
0000
0000
0000
0100
0000
0001
0000
1000
0000
0000
0000
,  // measure 36
0001
0000
0000
0010
0000
0000
0000
0000
0100
0000
0000
0000
0100
0000
0000
0000
0010
0000
0000
0001
0000
0000
0000
0000
0001
0000
0100
0000
0010
0000
0000
0000
,  // measure 37
1000
0100
1000
0001
0100
0000
0001
0100
0001
1000
0100
0000
0001
0000
0100
0000
,  // measure 38
0010
0001
0000
0001
0100
0000
1000
0000
0100
0000
0010
0000
1000
0000
0001
0000
,  // measure 39
1000
0010
1000
0001
0010
0000
0001
0010
0001
1000
0010
0000
1000
0000
0001
0000
,  // measure 40
1000
0100
0000
0100
0001
0000
1000
0000
0010
0000
0001
0000
0100
0000
0010
0000
,  // measure 41
1000
0001
1000
0001
0100
0000
0001
1000
0001
1000
0100
0000
0010
0000
0100
0000
,  // measure 42
1000
0010
1000
0010
0100
0000
0001
0100
0001
0100
0010
0000
1000
0000
0100
0000
,  // measure 43
0001
0100
1000
0010
0001
0010
1000
0100
,  // measure 44
0010
0001
0010
0001
1000
0010
1000
0010
1000
0001
0010
0100
1000
0001
0100
0020
,  // measure 45
2000
3030
0000
0000
2001
0000
0000
0000
3001
1000
0100
0000
0100
1000
0001
1000
,  // measure 46
0100
0000
0001
0000
0200
0000
0310
0001
0000
0100
0000
1000
0000
0001
0010
1000
,  // measure 47
0000
0000
0000
0000
0000
0000
1000
0000
0000
0001
0000
0000
0200
0000
0000
0000
0000
0000
0000
0000
0000
0310
0000
0000
0000
0000
0000
0010
0000
0000
1000
0000
0001
0000
1000
0000
0200
0000
0000
0000
0000
0000
0000
0000
0000
0310
0000
0000
,  // measure 48
0000
0000
0000
0010
0000
0000
0001
0000
1000
0000
0001
0000
0100
0000
0000
0000
0000
0000
0000
0000
0000
0010
0000
0000
0000
0000
0000
0010
0000
0000
1000
0000
0001
0000
1000
0000
0100
0000
0000
0010
0000
0000
0100
0000
0000
1000
0000
0000
,  // measure 49
0001
0000
0001
0000
0200
0000
0301
1000
0100
0010
0100
0000
0010
0001
1000
0001
,  // measure 50
0100
0000
1000
0000
0200
0000
0310
1000
0000
0100
0000
0001
0000
1000
0010
0001
,  // measure 51
0100
0000
0010
0000
1002
0000
0000
0023
0000
0000
0230
0000
1300
0010
0100
0001
,  // measure 52
0000
0110
1001
0000
1000
0100
0020
0000
0000
0000
0031
1000
0000
0001
1000
0001
,  // measure 53
0100
0000
0010
0100
0001
0000
1000
0100
1000
0100
0010
0001
0200
0000
0310
0100
,  // measure 54
0010
1000
0100
0000
0120
0000
0000
0000
0130
1000
0001
1000
0010
0000
1000
0000
,  // measure 55
0200
0000
0000
0301
0100
0000
1000
0000
0010
0000
0100
0001
0020
0000
0000
0000
,  // measure 56
0100
0000
0130
0000
0010
0001
1000
0001
0100
0000
0010
0000
1000
0010
0001
0010
,  // measure 57
1000
0000
0001
0000
1000
0100
1000
0100
0001
0100
0001
0100
1000
0000
0001
0100
,  // measure 58
0010
1000
0100
0010
0002
0000
0000
0000
1003
0001
1000
0000
0001
1000
0001
0000
,  // measure 59
0200
0000
0310
1000
0100
0002
0000
0000
,  // measure 60
0000
0003
0000
0000
;

//---------------dance-single - ----------------
#NOTEDATA:;
#CHARTNAME:;
#STEPSTYPE:dance-single;
#DESCRIPTION:;
#CHARTSTYLE:;
#DIFFICULTY:Hard;
#METER:13;
#RADARVALUES:0.537218,0.566429,0.170933,0.658092,0.431605,440.000000,420.000000,20.000000,77.000000,0.000000,0.000000,0.000000,0.000000,0.000000,0.537218,0.566429,0.170933,0.658092,0.431605,440.000000,420.000000,20.000000,77.000000,0.000000,0.000000,0.000000,0.000000,0.000000;
#CREDIT:;
#OFFSET:0.098614;
#BPMS:0.000000=140.000000
,132.000000=70.000000
,148.000000=140.000000
,205.000000=70.000000
,209.000000=140.000000
;
#STOPS:180.000000=3.000000
;
#DELAYS:;
#WARPS:;
#TIMESIGNATURES:0.000000=4=4
;
#TICKCOUNTS:0.000000=4
;
#COMBOS:0.000000=1
;
#SPEEDS:0.000000=1.000000=0.000000=0
,180.000000=2.000000=3.000000=1
;
#SCROLLS:0.000000=1.000000
,180.000000=0.500000
;
#FAKES:;
#LABELS:0.000000=Song Start
;
#NOTES:
0000
0000
0000
0000
,
0000
0000
0000
0000
,
0000
0000
0000
0000
,
0000
0000
0000
0000
,
0000
0000
0000
0000
,
0001
0010
0002
0000
0000
0000
2003
0000
0000
0000
0000
0000
3020
0000
0000
0000
,
2030
3002
2003
3200
0000
0000
1300
0000
,
1000
0010
2000
0000
0000
0000
3002
0000
0000
0000
0000
0000
2003
0000
0000
0000
,
3200
0320
0032
0203
0000
0300
1001
0000
,
0001
0000
0010
0000
1000
0000
0010
0001
0000
0000
0001
0000
0100
0000
0010
0000
,
1000
0000
0010
0000
0001
0000
0010
1000
0000
0000
1000
0000
0100
0000
0010
0000
,
0001
0000
0100
0000
1000
0000
0100
0001
0000
0000
0001
0000
0010
0000
0100
0000
,
1000
0100
0001
0100
1000
0001
0100
0000
,
1010
0000
1000
0001
0011
0000
0001
1000
,
0010
0001
0010
1000
0100
0010
1001
0000
,
2000
0000
0000
0000
0000
0000
0000
0000
3001
1000
0000
0001
1000
0000
0010
0000
,
0100
0001
0000
0001
1000
0000
0100
0010
0000
0000
1001
0000
1001
0000
0000
0000
,
0102
0000
0000
0000
1003
0000
1000
0000
0000
0001
1000
0001
1000
0000
0100
0000
,
0002
0000
0000
0103
0000
1000
0000
0010
0000
1000
0010
1000
0002
0000
0000
0000
,
0023
0000
0000
0031
0000
0001
1000
0000
0020
0000
0000
1030
0000
1000
0001
0000
,
0020
0000
0000
0031
0000
0001
1000
0000
1001
0000
0000
0101
0000
0000
1001
0000
,
0001
0000
0010
0000
0001
0000
0001
0000
0000
1000
0001
1000
0001
0000
0100
0000
,
2000
0000
0000
3100
0000
0001
0000
0010
0000
0001
0010
0001
1000
0000
0001
0000
,
1000
0000
0000
0010
0000
0000
0001
0000
0000
0010
0000
0010
1000
0000
0100
0000
,
0001
0100
1000
0010
0100
0001
1000
0100
,
0210
0000
0000
0000
0310
0000
0001
0100
0000
0001
0100
0000
0010
0000
1000
0000
,
0200
0000
0000
0301
0000
0100
0000
1000
0000
0001
1000
0001
0100
0000
0001
0000
,
0020
0000
0000
0130
0000
0100
1000
0000
0020
0000
0000
0130
0000
0100
0001
0000
,
0020
0000
0000
0130
0000
0100
1000
0000
0001
0000
0100
0000
1000
0000
0100
0000
,
0001
0000
0000
0000
1001
0000
1000
0100
0000
1000
0100
0000
0010
0000
0001
0000
,
0100
0000
0001
0100
0000
0010
0000
1000
0000
0001
1000
0001
1000
0000
0100
0000
,
0010
0001
0020
0000
0031
0000
2000
0000
3001
0000
1000
0000
0020
0000
0130
0000
,
0002
0023
0230
2300
0000
3001
1001
0000
,
0002
0023
0230
2300
,
3020
0000
0000
0000
0230
0000
0000
0000
0302
0000
0000
0000
1003
0001
1000
0000
,
0100
0000
0010
0000
0100
0000
1000
0000
0100
0000
0010
0000
0001
1000
0001
0000
,
0100
0000
0010
0000
0100
0000
0001
0000
0100
0000
0010
0000
1000
0001
1000
0000
,
0001
0100
1000
0100
0001
1000
0100
0010
,
0012
0000
0103
0020
0000
1030
0020
0230
,
0301
0010
1000
0010
0001
1000
0010
1000
,
2001
0000
3100
0020
0100
0130
0020
0032
,
1003
0000
1000
0000
0001
0000
0001
0200
,
2300
0000
3100
0020
1000
1030
0002
0023
,
0130
0100
1000
1000
0001
0001
0100
0100
,
0010
1000
0100
0001
0100
1000
0010
0200
,
0002
0303
0000
0000
2001
0000
0000
0000
3001
0100
0001
0000
0000
1000
0100
1000
,
0100
0000
0001
0000
0200
0000
0000
0310
0000
0001
0000
0100
0000
0010
1000
0010
,
0000
0000
1000
0000
0200
0000
0000
0310
0000
0010
0001
0000
0200
0000
0000
0310
,
0000
0010
1000
0000
0200
0000
0000
0310
0000
0010
0001
0000
0100
0000
1000
0000
,
0100
0000
0001
0000
1002
0000
0000
0000
1003
0100
1000
0000
0000
0001
0100
0001
,
0100
0000
1000
0000
0200
0000
0000
0310
0000
1000
0000
0100
0000
0010
0001
0010
,
0001
0000
1000
0000
0020
0000
0000
0230
0000
0000
0302
0000
0013
0100
1000
0002
,
0000
1003
1001
0000
1000
0010
2000
0000
0000
0000
3001
0010
0000
0001
0010
0000
,
0200
0000
0000
0310
0001
0000
0100
0000
0010
1000
0000
1000
0200
0000
0000
0000
,
1300
0001
1000
0000
1002
0000
0000
0000
0103
0010
0100
0000
1000
0000
0100
0000
,
0002
0000
0000
0013
0100
0000
1000
0000
0010
0000
1000
0001
2000
0000
0000
0000
,
0100
0000
3100
0000
1000
0010
1000
0000
0010
0000
0001
0000
0010
1000
0010
1000
,
0010
1000
0100
0001
0100
1000
1002
0000
,
0103
0010
0100
0010
0200
0000
0000
0000
0301
1000
0001
0000
1000
0001
1000
0000
,
0200
0000
0310
0001
0100
0020
0000
0000
,
0000
0030
0000
0000
;

//---------------dance-single - ----------------
#NOTEDATA:;
#CHARTNAME:;
#STEPSTYPE:dance-single;
#DESCRIPTION:;
#CHARTSTYLE:;
#DIFFICULTY:Medium;
#METER:10;
#RADARVALUES:0.407797,0.443143,0.153840,0.811931,0.025640,334.000000,316.000000,18.000000,95.000000,0.000000,0.000000,0.000000,0.000000,0.000000,0.407797,0.443143,0.153840,0.811931,0.025640,334.000000,316.000000,18.000000,95.000000,0.000000,0.000000,0.000000,0.000000,0.000000;
#CREDIT:;
#OFFSET:0.098614;
#BPMS:0.000000=140.000000
,132.000000=70.000000
,148.000000=140.000000
,180.000000=70.000000
,184.000000=140.000000
,208.000000=70.000000
,212.000000=140.000000
;
#STOPS:;
#DELAYS:;
#WARPS:;
#TIMESIGNATURES:0.000000=4=4
;
#TICKCOUNTS:0.000000=4
;
#COMBOS:0.000000=1
;
#SPEEDS:0.000000=1.000000=0.000000=0
;
#SCROLLS:0.000000=1.000000
;
#FAKES:;
#LABELS:0.000000=Song Start
;
#NOTES:
0000
0000
0000
0000
,
0000
0000
0000
0000
,
0000
0000
0000
0000
,
0000
0000
0000
0000
,
0000
0000
0000
0000
,
2000
3020
0000
0032
0000
0000
0023
0000
,
2030
3200
0320
0032
0000
0000
1003
0000
,
0002
0203
0000
2300
0000
0000
3200
0000
,
0320
2030
3002
0023
0000
0030
0110
0000
,
0010
0001
1000
0001
0100
0000
1010
0000
,
0010
1000
0001
1000
0100
0000
0011
0000
,
0001
0100
0010
0100
0001
0000
1100
0000
,
1000
0100
0010
0100
1000
0010
0100
0000
,
0001
0010
0001
0000
1000
0010
1000
0000
,
0001
0010
0001
0010
0001
0010
0100
0000
,
2000
3020
0000
0230
0000
0000
0302
0000
,
0023
0230
2300
3002
0000
1000
1003
0000
,
1002
0000
0100
0103
0000
0100
0010
0100
,
0002
0000
1003
0100
0010
0100
1000
0000
,
2001
3010
1002
0013
,
2001
0000
0000
0000
3010
0000
0000
0000
1000
0000
0000
1000
0000
0000
0001
0000
,
2000
0000
0100
3100
0000
0100
0010
0100
,
2000
0000
3001
0100
0010
0100
0001
1000
,
0200
0010
0001
0010
,
1300
0010
0100
0001
1000
0000
0001
1000
,
0200
0000
0010
0310
0100
0000
1000
0001
,
0200
0000
0310
1000
0001
1000
0100
0000
,
2100
3001
0102
1003
,
2100
0000
3001
0000
0001
0100
1000
0100
,
0001
0000
1001
0000
1000
0000
0010
1000
,
0200
0000
0310
0001
1000
0001
0100
0000
,
0010
2000
0000
3200
0000
0310
0002
0000
,
2003
3020
0230
0302
0000
1000
1003
0000
,
2000
3020
0230
0302
,
2003
3200
0320
0032
,
1003
0010
1000
0010
0001
0100
0001
0100
,
1000
0100
1000
0100
0001
0010
0001
0010
,
1000
0100
0000
1000
0100
0000
0010
0002
,
0203
0000
0010
0320
0000
1030
0200
0320
,
0031
0100
0000
0001
0100
0000
0010
2000
,
3200
0000
0010
0320
0000
0031
0200
0320
,
1030
0000
1000
0000
0001
0000
0001
2000
,
3200
0000
1300
0002
0100
0000
2003
3002
,
0013
0000
0100
0000
1000
0000
0010
0200
,
0302
0000
1003
0000
0001
0010
0100
1000
,
0002
0000
0000
0003
,
2001
0000
0010
3010
0100
0001
1000
1000
,
0200
0000
1300
0001
0010
0001
1000
0000
,
2010
3100
0012
0103
,
2010
0000
3100
0000
0100
1000
0001
0100
,
0020
0000
0130
0100
0001
1000
0100
0100
,
0020
0000
0031
1000
0010
1000
0001
0000
,
2002
0000
0000
0003
0000
0000
3000
0000
0001
0010
0100
2000
0000
0001
3001
0000
,
2000
0000
3020
0000
0000
0000
2030
0000
0000
3002
0000
0000
0023
0000
0000
0000
,
0130
0000
2000
0000
0000
3002
0000
0000
0203
0000
0000
0000
0310
0000
0000
0000
,
1001
0000
0001
1000
0001
1000
0200
0000
,
0310
0001
1000
0020
0000
0000
0130
0100
,
0001
1000
0001
1000
0001
0010
0001
1000
,
0001
0100
0001
0100
0020
0000
1030
0001
,
2000
0000
3100
0010
0100
0010
0200
0000
,
1300
0010
0100
0002
0000
0000
0000
0000
,
0003
0000
0000
0000
;

//---------------dance-single - ----------------
#NOTEDATA:;
#CHARTNAME:;
#STEPSTYPE:dance-single;
#DESCRIPTION:;
#CHARTSTYLE:;
#DIFFICULTY:Easy;
#METER:7;
#RADARVALUES:0.304016,0.443143,0.170933,0.546985,0.000000,249.000000,229.000000,20.000000,64.000000,0.000000,0.000000,0.000000,0.000000,0.000000,0.304016,0.443143,0.170933,0.546985,0.000000,249.000000,229.000000,20.000000,64.000000,0.000000,0.000000,0.000000,0.000000,0.000000;
#CREDIT:;
#OFFSET:0.098614;
#BPMS:0.000000=140.000000
,132.000000=70.000000
,148.000000=140.000000
,180.000000=70.000000
,184.000000=140.000000
,208.000000=70.000000
,212.000000=140.000000
;
#STOPS:;
#DELAYS:;
#WARPS:;
#TIMESIGNATURES:0.000000=4=4
;
#TICKCOUNTS:0.000000=4
;
#COMBOS:0.000000=1
;
#SPEEDS:0.000000=1.000000=0.000000=0
;
#SCROLLS:0.000000=1.000000
;
#FAKES:;
#LABELS:0.000000=Song Start
;
#NOTES:
0000
0000
0000
0000
,
0000
0000
0000
0000
,
0000
0000
0000
0000
,
0000
0000
0000
0000
,
0000
0000
0000
0000
,
0002
0000
0000
0023
0000
0000
0230
0000
,
2300
0000
0000
3002
0000
0000
1003
0000
,
2000
0000
0000
3020
0000
0000
0230
0000
,
0302
0000
0000
2003
0000
0000
3001
0000
,
1000
0100
0001
0000
,
0001
0100
1000
0000
,
1000
0010
0001
0000
,
0001
0010
1000
0100
,
2001
3100
1002
0103
,
0001
1000
0001
1000
0001
1000
0001
0000
,
2000
0000
0000
3200
0000
0000
0320
0000
,
0032
0000
0000
2000
0000
3003
1001
0000
,
2000
3001
1000
0001
,
0200
1300
0100
0001
,
0102
1003
2100
3001
,
0102
1003
2002
3003
,
0002
1003
0001
1000
,
0100
0001
0100
1000
,
0010
0010
0100
0100
,
0001
1000
0001
1000
0001
0000
1000
0000
,
0002
0013
1000
0010
,
0001
0100
1000
0100
,
0102
1003
0012
1003
,
0102
1003
0001
1000
,
0010
0110
0010
1000
,
0100
0001
0100
1000
,
0020
0230
0302
0023
,
0031
1000
0002
2000
0000
3003
1001
0000
,
0002
0023
0230
2300
,
3002
0203
0320
2030
,
3001
0010
0001
0010
0100
1000
0100
1000
,
0001
0100
0001
0100
0010
1000
0010
1000
,
0001
0000
0000
0001
0000
0000
0010
0100
,
0020
0000
0000
0032
0000
0000
1003
0010
,
1000
0000
0000
1000
0000
0000
0010
0100
,
0020
0000
0000
2030
0000
0000
3001
0010
,
0001
0001
1000
1000
,
0010
0010
0100
0100
,
0001
0010
1000
0100
,
0001
0000
1000
0000
0001
1000
0001
1000
,
0002
0000
0000
0003
,
2000
3010
0001
0010
,
1000
0001
1000
0100
,
2100
3001
2010
3001
,
2100
3001
1000
1000
,
0002
0103
1000
0100
,
0001
0010
1000
0010
,
0022
0000
0000
0030
0000
0000
0003
0000
2002
0000
0000
0000
0000
3000
0003
0000
,
2000
0100
0000
3100
1000
0000
0001
0000
,
0200
0001
0000
0301
0100
0000
0110
0000
,
1001
0000
0002
0000
0013
0100
0010
0000
,
0001
0000
1000
0001
1000
0000
0001
0000
,
1000
0010
0001
0100
,
1000
0010
0001
0100
,
1001
0002
0023
0230
,
1300
0001
1000
0002
0000
0000
0000
0000
,
0003
0000
0000
0000
;

//---------------dance-single - ----------------
#NOTEDATA:;
#CHARTNAME:;
#STEPSTYPE:dance-single;
#DESCRIPTION:;
#CHARTSTYLE:;
#DIFFICULTY:Beginner;
#METER:3;
#RADARVALUES:0.150177,0.257681,0.017093,0.179480,0.000000,123.000000,121.000000,2.000000,21.000000,0.000000,0.000000,0.000000,0.000000,0.000000,0.150177,0.257681,0.017093,0.179480,0.000000,123.000000,121.000000,2.000000,21.000000,0.000000,0.000000,0.000000,0.000000,0.000000;
#CREDIT:;
#OFFSET:0.098614;
#BPMS:0.000000=140.000000
;
#STOPS:;
#DELAYS:;
#WARPS:;
#TIMESIGNATURES:0.000000=4=4
;
#TICKCOUNTS:0.000000=4
;
#COMBOS:0.000000=1
;
#SPEEDS:0.000000=1.000000=0.000000=0
;
#SCROLLS:0.000000=1.000000
;
#FAKES:;
#LABELS:0.000000=Song Start
;
#NOTES:
0000
0000
0000
0000
,
0000
0000
0000
0000
,
0000
0000
0000
0000
,
0000
0000
0000
0000
,
0000
0000
0000
0000
,
0002
0000
0000
0003
0000
0000
0000
0000
,
0200
0000
0000
0300
0000
0000
0000
0000
,
0020
0000
0000
0030
0000
0000
0000
0000
,
2000
0000
0000
3000
0000
0000
0000
0000
,
0001
0000
0010
0000
,
0001
0000
0010
0000
,
0100
0000
1000
0000
,
0100
0000
1000
0000
,
0001
0000
1000
0000
,
0001
1000
0001
1000
,
0002
0000
0000
0003
0000
0000
0000
0000
,
2000
0000
0000
3000
0000
0000
1000
0000
,
1000
0000
0100
0000
,
1000
1000
1000
0000
,
0010
0000
0010
0000
,
0010
0000
1001
0000
,
0001
0000
0100
0000
,
0001
0001
0001
0000
,
0010
0000
0100
0000
,
0010
0000
0100
0000
,
1000
0000
0001
0000
,
1000
0001
1000
0000
,
0100
0000
0100
0000
,
0100
0000
0010
0000
,
0001
0000
1000
0000
,
0001
1000
0001
0000
,
0100
0000
0010
0000
,
2000
0000
0000
3000
0000
0000
0001
0000
,
0002
0000
0003
0000
,
0020
0000
0030
0000
,
0200
0000
0300
0000
,
2000
0000
3000
0000
,
0002
0000
0003
0000
,
0200
0000
0300
0000
,
0020
0000
0030
0000
,
2000
0000
3000
0000
,
0001
0000
1000
0000
,
0100
0010
0100
0000
,
1000
0000
0001
0000
,
0100
0010
0100
0000
,
0001
0000
1000
0000
,
0001
0000
1000
0000
,
0100
0000
0010
0000
,
0100
0010
0100
0010
,
0200
0000
0000
0000
,
0000
0000
0300
0000
,
1000
0000
0001
0000
,
0100
0100
0100
0000
,
0010
0000
0010
0000
,
0010
0000
1000
0000
,
0001
0000
1000
0000
,
0100
0100
0100
0000
,
0020
0000
0030
0000
,
0002
0000
0003
0000
,
1000
0000
0010
0010
,
0000
0100
0100
0000
,
0001
0000
0010
0000
,
0100
0100
0100
0000
,
1000
0001
1000
0001
,
1000
0001
1000
0000
,
2002
0000
3003
0000
,
0200
0000
0000
0000
,
0300
0000
0000
0000
;
