#VERSION:0.83;
#TITLE:Noblesse Gloria;
#SUBTITLE:;
#ARTIST:ダージリン;
#TITLETRANSLIT:;
#SUBTITLETRANSLIT:;
#ARTISTTRANSLIT:Dajirin;
#GENRE:Western Classical Dance;
#ORIGIN:;
#CREDIT:;
#BANNER:Noblesse Gloria.png;
#BACKGROUND:Noblesse Gloria-bg.png;
#PREVIEWVID:;
#JACKET:Noblesse Gloria-jacket.png;
#CDIMAGE:;
#DISCIMAGE:;
#LYRICSPATH:;
#CDTITLE:cdtitle.png;
#MUSIC:Noblesse Gloria.ogg;
#OFFSET:-0.001142;
#SAMPLESTART:28.225826;
#SAMPLELENGTH:12.631580;
#SELECTABLE:YES;
#BPMS:0.000=152.000;
#STOPS:;
#DELAYS:;
#WARPS:;
#TIMESIGNATURES:0.000=4=4;
#TICKCOUNTS:0.000=4;
#COMBOS:0.000=1;
#SPEEDS:0.000=1.000=0.000=0;
#SCROLLS:0.000=1.000;
#FAKES:;
#LABELS:0.000=Song Start;
#BGCHANGES:;
#KEYSOUNDS:;
#ATTACKS:
;

//---------------dance-single - ----------------
#NOTEDATA:;
#CHARTNAME:;
#STEPSTYPE:dance-single;
#DESCRIPTION:;
#CHARTSTYLE:;
#DIFFICULTY:Challenge;
#METER:14;
#RADARVALUES:0.671365,0.649824,0.227905,0.400798,0.196470,598.000000,569.000000,29.000000,51.000000,0.000000,0.000000,0.000000,0.000000,0.000000,0.671365,0.649824,0.227905,0.400798,0.196470,598.000000,569.000000,29.000000,51.000000,0.000000,0.000000,0.000000,0.000000,0.000000;
#CREDIT:;
#NOTES:
0000
0000
0000
0000
,
0000
0000
0000
0000
,
0000
0000
0000
0000
,
0000
0000
0000
0000
,
0001
0000
0000
0000
0100
0000
0000
0000
0010
0000
0000
0000
2000
0000
0000
0000
0001
0000
0000
3000
1000
0000
0000
0000
0100
0000
0000
0000
0010
0000
0000
0000
,
0100
0000
0000
0000
1000
0000
0000
0000
0001
0000
0000
0000
0200
0000
0000
0000
1000
0000
0000
0300
0100
0000
0000
0000
0100
0000
0000
0000
0001
0000
0000
0000
,
1000
0000
0000
0000
0100
0000
0000
0000
0010
0000
0000
0000
0002
0000
0000
0000
1000
0000
0000
0003
0001
0000
0000
0000
0100
0000
0000
0000
0010
0000
0000
0000
,
0110
0000
0000
0000
0010
0000
1000
0000
0000
0000
1100
0000
0000
0011
0000
0000
,
2002
0000
0000
0000
,
3003
0000
0000
0000
0000
0001
0001
1000
,
0100
0010
0100
1000
0010
0100
0010
1000
,
0001
0000
1000
0100
0010
0001
1000
0000
0001
0000
0100
0000
0020
0000
0000
0000
,
0130
0001
1000
0100
0010
0001
0100
1000
,
0100
0100
0001
1000
0200
0000
0310
0001
,
0100
0010
0100
0001
0010
0100
0010
0001
,
1000
0000
0001
0100
0010
1000
0001
0000
0010
0000
0100
0000
0002
0000
0000
0000
,
0103
0010
0001
0100
0010
0100
1000
0100
,
0002
0000
0023
0000
0130
1000
1000
0001
,
0100
1000
0100
0001
0010
1000
0010
0001
,
0100
0000
0010
0100
0001
1000
0100
0000
0010
0000
0001
0000
0200
0000
0000
0000
,
0310
1000
0100
0010
1000
0010
0100
1000
,
0010
0010
0100
0001
0020
0000
0130
1000
,
0100
0001
0100
1000
0010
0001
0010
1000
,
0100
0000
0010
0100
1000
0001
0100
0000
0010
0000
0100
0000
2000
0000
0000
0000
,
3100
0010
1000
0001
0010
1000
0010
0001
,
1001
0000
0000
0000
0110
0000
0000
0000
1001
0000
0001
1000
0001
0000
0100
0000
,
0010
0000
0000
0000
1000
0000
0000
0000
0100
0000
0000
0000
0020
0000
0000
0000
0100
0000
0000
0030
0010
0000
0100
0000
1000
0000
0000
0000
0001
0000
0000
0000
,
0010
0000
0000
0000
0001
0000
0000
0000
0100
0000
0000
0000
0020
0000
0000
0000
0100
0000
0000
0030
0010
0000
0100
0000
0001
0000
0000
0000
1000
0000
0000
0000
,
0001
0000
0000
0000
0010
0000
0000
0000
0100
0000
0000
0000
2000
0000
0000
0000
0100
0000
0000
3000
1000
0000
0000
0000
0001
0000
0000
0000
0100
0000
0000
0000
,
1000
0000
0000
0000
0100
0000
0000
0000
0001
0000
0000
0000
0020
0000
0000
0000
0100
0000
0000
0030
0110
0000
0000
0000
0000
0000
1001
0000
0000
0000
0000
0000
,
0001
0000
0000
0000
0100
0000
0000
0000
0010
0000
0000
0000
2000
0000
0000
0000
0010
0000
0000
3000
1000
0000
0100
0000
0010
0000
0000
0000
0001
0000
0000
0000
,
1000
0000
0000
0000
0100
0000
0000
0000
0010
0000
0000
0000
0002
0000
0000
0000
0100
0000
0000
0003
0001
0000
0100
0000
0010
0000
0000
0000
1000
0000
0000
0000
,
0100
0000
0000
0000
0001
0000
0000
0000
0100
0000
0000
0000
2000
0000
0000
0000
0010
0000
0000
3000
1000
0000
0000
0000
0001
0000
0000
0000
0010
0000
0000
0000
,
0110
0000
0000
0000
0000
0000
1000
0000
0000
0001
1000
0001
1000
0000
0000
0010
0000
0000
0010
0000
0000
1000
0000
0000
,
0100
0001
0100
1000
0010
0001
0010
1000
,
0100
0000
0010
0001
1000
0010
0100
0000
0010
0000
1000
0000
0200
0000
0000
0000
,
0310
0001
0100
0010
0001
0010
0100
0001
,
0010
0010
0100
1000
0020
0000
0130
0001
,
0100
1000
0100
0001
0010
1000
0010
0001
,
0100
0000
0010
1000
0001
0010
0100
0000
1000
0000
0100
0000
0002
0000
0000
0000
,
0103
0010
0001
1000
0010
0001
0010
1000
,
1001
0000
0000
0000
0000
0000
0000
0000
0000
0000
0000
0000
0110
0000
0000
0000
0000
0000
1000
0000
0001
0000
1000
0000
0001
0000
0000
0000
0000
0000
1000
0000
0000
0001
0000
0000
1000
0000
0000
0000
0000
0000
0000
0000
0000
0000
0000
0000
,
1001
0000
0001
2000
0000
3010
1000
0100
,
0010
0000
0010
0200
0000
1000
1300
0000
,
0001
0000
1000
0002
0000
0013
0001
0100
,
0010
0000
0000
0000
0010
0000
0100
0000
0000
0000
0110
0000
0000
1001
0000
0000
,
1000
0000
0000
0000
0100
0000
0000
0000
0010
0000
0000
0000
0002
0000
0000
0000
1000
0000
0000
0003
0001
0000
0000
0000
0100
0000
0000
0000
0010
0000
0000
0000
,
0100
0000
0000
0000
0001
0000
0000
0000
1000
0000
0000
0000
0200
0000
0000
0000
0001
0000
0000
0300
0100
0000
0000
0000
0100
0000
0000
0000
1000
0000
0000
0000
,
0001
0000
0000
0000
0100
0000
0000
0000
0010
0000
0000
0000
2000
0000
0000
0000
0001
0000
0000
3000
1000
0000
0000
0000
0100
0000
0000
0000
0010
0000
0000
0000
,
0110
0000
0000
0000
0100
0000
1001
0000
0000
0000
1010
0000
0000
0101
0000
0000
,
1000
0000
0100
0000
0000
0000
0020
0000
0000
0000
0130
0010
0001
0000
1000
0000
,
0001
0000
0100
0000
0000
0000
0020
0000
0000
0000
0130
0010
1000
0000
0001
0000
,
0010
0100
1000
0002
0000
0103
0010
0100
,
1000
0000
0100
0000
0001
0000
0020
0000
0000
0000
0130
0000
0000
1000
0000
0000
,
0010
0000
0100
0000
0000
0000
0002
0000
0000
0000
0103
0001
1000
0000
0001
0000
,
0010
0000
0100
0000
0000
0000
2000
0000
0000
0000
3100
1000
0001
0000
0100
0000
,
1000
0100
0001
0020
0000
0130
1000
0001
,
0101
0000
0000
0000
0000
0000
1001
0000
0000
0001
1000
0001
1000
0000
0000
0100
0000
0000
0100
0000
0000
0010
0000
0000
,
0001
0000
0000
0000
0100
0000
0000
0000
0010
0000
0000
0000
0200
0000
0000
0000
1000
0000
0000
0300
0100
0000
0010
0000
0100
0000
0000
0000
0001
0000
0000
0000
,
1000
0000
0000
0000
0100
0000
0000
0000
0010
0000
0000
0000
0200
0000
0000
0000
0001
0000
0000
0300
0100
0000
0010
0000
0100
0000
0000
0000
1000
0000
0000
0000
,
0001
0000
0000
0000
0100
0000
0000
0000
0010
0000
0000
0000
2000
0000
0000
0000
0001
0000
0000
3000
1000
0000
0000
0000
0100
0000
0000
0000
0001
0000
0000
0000
,
0100
0000
0000
0000
0010
0000
0000
0000
0001
0000
0000
0000
0200
0000
0000
0000
0010
0000
0000
0300
0110
0000
0000
0000
0000
0000
1001
0000
0000
0000
0000
0000
,
0001
0000
0000
0000
1000
0000
0000
0000
0100
0000
0000
0000
0002
0000
0000
0000
0100
0000
0000
0003
0001
0000
0100
0000
0010
0000
0000
0000
0100
0000
0000
0000
,
1000
0000
0000
0000
0001
0000
0000
0000
0100
0000
0000
0000
2000
0000
0000
0000
0100
0000
0000
3000
1000
0000
0100
0000
0010
0000
0000
0000
0100
0000
0000
0000
,
0001
0000
0000
0000
1000
0000
0000
0000
0100
0000
0000
0000
0020
0000
0000
0000
1000
0000
0000
0030
0010
0000
0000
0000
0100
0000
0000
0000
1000
0000
0000
0000
,
1001
0000
0000
0000
0000
0000
0001
0000
0000
1000
0001
1000
0001
0000
0000
0010
0000
0000
0010
0000
0000
0001
0000
0000
,
0100
1000
0100
0001
0010
1000
0010
0001
,
0100
0000
0010
1000
0100
0010
0001
0000
0100
0000
1000
0000
0200
0000
0000
0000
,
0310
1000
0100
0001
0100
0010
0001
0100
,
0010
0010
0100
1000
0200
0000
0301
1000
,
0100
0001
0100
1000
0010
0001
0010
1000
,
0100
0000
0010
0001
0100
0010
1000
0000
0100
0000
0010
0000
2000
0000
0000
0000
,
3010
0100
1000
0001
0100
1000
0100
0001
,
0011
0000
0000
0000
1100
0000
0000
0000
1001
0000
1000
0001
1000
0000
0000
0000
,
0010
1000
0100
0001
0100
1000
0001
0100
,
0120
1000
0000
1000
0000
1000
0000
1030
,
2002
0000
0000
0000
3003
0000
0000
0000
0001
0100
0010
1000
0001
0000
1000
0000
,
0100
0000
0010
0000
0001
0000
0100
0000
2000
0000
0000
0000
3100
0000
0010
0100
,
0010
0000
1000
0000
0001
0010
0100
1000
0002
0000
0000
0000
0013
0000
0000
0000
;

//---------------dance-single - ----------------
#NOTEDATA:;
#CHARTNAME:;
#STEPSTYPE:dance-single;
#DESCRIPTION:;
#CHARTSTYLE:;
#DIFFICULTY:Hard;
#METER:12;
#RADARVALUES:0.545625,0.587936,0.212187,0.534398,0.035365,486.000000,459.000000,27.000000,68.000000,0.000000,0.000000,0.000000,0.000000,0.000000,0.545625,0.587936,0.212187,0.534398,0.035365,486.000000,459.000000,27.000000,68.000000,0.000000,0.000000,0.000000,0.000000,0.000000;
#CREDIT:;
#NOTES:
0000
0000
0000
0000
,
0000
0000
0000
0000
,
0000
0000
0000
0000
,
0000
0000
0000
0000
,
0001
0000
0001
0200
0000
0310
1000
0100
,
0010
0000
0100
2000
0000
3001
0100
0010
,
1000
0000
1000
0020
0000
0130
0001
1000
,
1001
0000
0000
0000
0001
0000
0010
0000
0000
0000
0100
0000
0000
0010
0000
0000
,
2002
0000
0000
0000
,
3003
0000
0000
0000
0000
1000
1000
0001
,
0100
0020
0030
0100
0001
0020
0030
0100
,
0010
0001
0100
0010
1000
0001
0200
0000
,
0300
0001
1000
0100
0010
0001
0010
0100
,
1000
0010
0100
0001
0200
0000
0310
1000
,
0100
0020
0030
0100
1000
0020
0030
0100
,
0010
1000
0001
0010
1000
0010
0002
0000
,
0003
1000
0010
0100
0001
0010
0100
1000
,
0002
0000
0203
0000
0310
1000
1000
0001
,
0100
0020
0030
0010
0100
2000
3000
1000
,
0100
0010
0100
0001
1000
0100
0020
0000
,
0130
1000
1000
0001
0100
0010
0100
0001
,
1000
0100
0010
0001
0200
0000
0310
1000
,
0100
0020
0030
0010
0100
0002
0003
0001
,
0100
0010
0001
0100
1000
0100
0002
0000
,
0103
0010
1000
0100
0010
0001
1000
0010
,
0110
0000
0000
0000
1001
0000
0000
0000
1000
0000
0001
1000
0001
0000
0000
0000
,
1000
0100
0000
0210
0000
0310
0100
1000
,
0001
0100
0000
0210
0000
0310
0100
0001
,
0010
0100
1000
0002
0000
1003
0010
0100
,
0001
0000
1000
0000
0100
0000
0020
0000
0000
0000
0130
0000
0000
1000
0000
0000
,
0001
0100
0000
0210
0000
0301
0100
0010
,
1000
0100
0000
0210
0000
1300
0100
0010
,
0001
0100
1000
0200
0000
0310
1000
0001
,
1001
0000
1000
0100
0010
0001
0001
1000
,
0010
0200
0300
0100
0010
0002
0003
0001
,
0010
0100
0010
1000
0100
0010
0002
0000
,
1003
0010
0010
0100
0001
1000
0100
0010
,
0100
1000
0001
0100
0020
0000
1030
0001
,
0010
0200
0300
0100
0010
2000
3000
1000
,
0010
0100
1000
0010
0001
0010
2000
0000
,
3001
0100
0010
1000
0100
0010
0001
0100
,
0110
0000
0000
0000
1001
0000
0001
0000
1000
0000
0001
1000
0001
0000
0000
0000
,
1001
0000
1000
0200
0000
0310
0100
1000
,
0001
0000
0001
0200
0000
0010
0310
0000
,
0100
0000
0100
0002
0000
0013
0100
1000
,
0001
0000
0000
0000
1000
0000
0010
0000
0000
0000
0100
0000
0000
0001
0000
0000
,
1000
0000
1000
0200
0000
0310
0001
0100
,
0010
0000
0100
0002
0000
1003
0100
0010
,
0001
0000
0001
0020
0000
0130
1000
0001
,
0101
0000
0000
0000
0000
0000
1010
0000
0000
0000
1000
0000
0000
0100
0000
0000
,
0012
1000
0000
1003
,
0002
0000
0100
0000
0000
1000
1003
0000
,
2000
0100
0000
3100
,
2000
0000
0010
0000
0000
0001
3001
0000
,
0001
0100
0000
0200
0000
0310
0100
0001
,
1000
0100
0000
0200
0000
0310
0100
1000
,
0001
0100
0010
2000
0000
3010
1000
0001
,
0011
0000
1100
1100
0000
0001
0001
0100
,
0010
1000
0000
2001
0000
3100
0010
0100
,
1000
0001
0000
1002
0000
0103
0010
0100
,
0001
1000
0100
0020
0000
0130
1000
0001
,
0100
0000
1000
0000
0100
0000
0002
0000
0000
0000
0013
0000
0000
0100
0000
0000
,
1000
0010
0000
0210
0000
1300
0100
0001
,
1000
0100
0000
0210
0000
0301
0100
1000
,
0001
1000
0010
0002
0000
0013
1000
0001
,
1001
0000
0001
0100
0010
1000
1000
0001
,
0010
0200
0300
0100
0010
2000
3000
1000
,
0010
0001
0100
0010
1000
0001
0020
0000
,
0130
1000
1000
0001
0100
0010
0100
1000
,
0100
0010
1000
0001
0020
0000
0130
1000
,
0010
0200
0300
0100
0010
0002
0003
0001
,
0010
1000
0001
0010
1000
0010
0002
0000
,
0013
0100
1000
0001
0100
0010
1000
0100
,
0110
0000
0000
0000
1001
0000
0000
0000
0001
0000
1000
0001
1000
0000
0000
0000
,
0001
0100
0010
1000
0100
0010
0001
0100
,
0220
0000
0000
0330
,
2002
0000
3003
0000
0001
0001
0100
0010
,
1000
0000
0100
0000
0010
0000
0001
0000
2000
0000
0000
0000
3001
0000
1000
0010
,
1000
0100
0001
0100
2000
0000
3010
0000
;

//---------------dance-single - ----------------
#NOTEDATA:;
#CHARTNAME:;
#STEPSTYPE:dance-single;
#DESCRIPTION:;
#CHARTSTYLE:;
#DIFFICULTY:Medium;
#METER:8;
#RADARVALUES:0.394062,0.464160,0.133599,0.400798,0.019647,351.000000,334.000000,17.000000,51.000000,0.000000,0.000000,0.000000,0.000000,0.000000,0.394062,0.464160,0.133599,0.400798,0.019647,351.000000,334.000000,17.000000,51.000000,0.000000,0.000000,0.000000,0.000000,0.000000;
#CREDIT:;
#NOTES:
0000
0000
0000
0000
,
0000
0000
0000
0000
,
0000
0000
0000
0000
,
0000
0000
0000
0000
,
1000
0000
1000
0200
0000
0310
0001
0000
,
1000
0000
0001
0200
0000
0010
0310
0000
,
0100
0000
0001
2000
0000
3100
0010
0000
,
0220
0000
0000
0000
0000
0000
0330
0000
0000
0000
1000
0000
0000
0001
0000
0000
,
2002
0000
0000
0000
,
3003
0000
0000
0000
,
0001
0000
0100
0000
,
0010
0000
0100
0000
0001
1000
0200
0000
,
0300
0100
1000
0010
,
0100
0001
0100
0001
0200
0000
0301
0000
,
1000
0000
0100
0000
,
0010
0000
0001
0000
0100
0010
2000
0000
,
3000
1000
0010
0100
,
0001
0000
1000
0000
0001
1000
0001
0000
,
1000
0100
1000
0000
0001
0100
0001
0000
,
1000
0000
0100
0000
0010
0100
2000
0000
,
3001
0100
0010
0000
1000
0000
0001
0000
,
1000
0001
0100
0010
2000
0000
3001
0000
,
1000
0100
1000
0000
0001
0100
0001
0000
,
1000
0000
0100
0000
0010
0001
0200
0000
,
0310
1000
0100
0000
0010
0000
0100
0000
,
0110
0000
1001
0000
1000
0001
1000
0000
,
0001
0000
0001
0200
0000
0010
0310
0000
,
1000
0000
1000
0200
0000
0010
0310
0000
,
0100
0000
1000
0002
0000
1000
1003
0000
,
0001
0000
0000
0000
0100
0000
0020
0000
0000
0000
1030
0000
0000
1000
0000
0000
,
0001
0000
1000
0200
0000
0310
0001
0000
,
1000
0000
0001
0200
0000
0310
1000
0000
,
0001
0000
0010
0200
0000
1300
0001
0000
,
0100
0000
0010
1000
0000
2000
0000
0000
,
3001
0100
0001
0000
1000
0100
1000
0000
,
0001
0000
0100
0000
0010
0100
0002
0000
,
1003
0100
0010
0000
0001
0000
1000
0000
,
0001
1000
0100
0010
0002
0000
1003
0000
,
0001
0100
0001
0000
1000
0100
1000
0000
,
0001
0000
0100
0000
0010
1000
0200
0000
,
0310
0001
0100
0000
0010
0000
0100
0000
,
0110
0000
1001
0000
0001
1000
0001
0000
,
1000
0000
0000
0200
0000
0000
0310
0000
,
0100
0000
0000
2000
0000
0000
3001
0000
,
0100
0000
0000
0020
0000
0000
0130
0000
,
0001
0000
0000
0000
0000
0000
1000
0000
0000
0000
0001
0000
0000
1000
0000
0000
,
0001
0000
1000
0200
0000
0310
0001
0000
,
1000
0000
0001
0200
0000
0010
0310
0000
,
0100
0000
0001
2000
0000
3100
0010
0000
,
1001
0000
0000
0000
0000
0000
1001
0000
0000
0000
0100
0000
0000
0100
0000
0000
,
2001
0100
0000
0100
,
0000
0000
0100
0000
0000
0100
3100
0000
,
0002
0100
0000
0100
,
0000
0000
0100
0000
0000
0100
0103
0000
,
1000
0000
0000
0200
0000
0310
0010
0000
,
0001
0000
0000
0200
0000
0310
0010
0000
,
1000
0000
0001
2000
0000
0000
3001
0000
,
1001
0110
1001
0000
,
1000
0000
1000
0200
0000
0010
0310
0000
,
0100
0000
0100
2000
0000
0001
3001
0000
,
0100
0000
0010
2000
0000
0001
3001
0000
,
1000
0000
0000
0000
0100
0000
0020
0000
0000
0000
0031
0000
0000
0001
0000
0000
,
1000
0000
0001
0200
0000
0310
1000
0000
,
0001
0000
1000
0200
0000
0310
0001
0000
,
1000
0000
0010
0200
0000
0301
1000
0000
,
0100
0000
0010
0001
0000
0002
0000
0003
,
1000
0010
1000
0000
0001
0100
0001
0000
,
1000
0000
0100
0000
0010
0100
2000
0000
,
3001
0100
0010
0000
1000
0000
0001
0000
,
1000
0010
0100
0001
2000
0000
3001
0000
,
1000
0100
1000
0000
0001
0010
0001
0000
,
1000
0000
0010
0000
0100
0001
0020
0000
,
0130
1000
0010
0000
0100
0000
0010
0000
,
0110
0000
1001
0000
1000
0001
1000
0000
,
0001
0100
0001
0000
1000
0100
1000
0000
,
0220
0000
0000
0330
,
2002
0000
0000
3003
,
1000
0100
0010
0000
0200
0000
0310
0000
,
0001
0100
0010
0000
0100
0000
1001
0000
;

//---------------dance-single - ----------------
#NOTEDATA:;
#CHARTNAME:;
#STEPSTYPE:dance-single;
#DESCRIPTION:;
#CHARTSTYLE:;
#DIFFICULTY:Easy;
#METER:5;
#RADARVALUES:0.277303,0.371328,0.149317,0.180752,0.000000,247.000000,228.000000,19.000000,23.000000,0.000000,0.000000,0.000000,0.000000,0.000000,0.277303,0.371328,0.149317,0.180752,0.000000,247.000000,228.000000,19.000000,23.000000,0.000000,0.000000,0.000000,0.000000,0.000000;
#CREDIT:;
#NOTES:
0000
0000
0000
0000
,
0000
0000
0000
0000
,
0000
0000
0000
0000
,
0000
0000
0000
0000
,
0001
0001
0100
0010
,
1000
1000
0100
0010
,
0100
0100
1000
0010
,
0110
0000
0000
0001
0000
1000
0000
0000
,
2002
0000
0000
0000
,
3003
0000
0000
0000
,
1000
0000
0001
0000
,
1000
1000
0010
0200
,
0300
0100
0001
1000
,
0100
0010
0100
1000
,
0001
0000
1000
0000
,
0001
0001
0100
0020
,
0030
1000
0100
0010
,
0001
1000
0010
0100
,
0001
0000
0100
0000
,
0001
1000
0100
0020
,
0030
0100
1000
0010
,
0001
0010
1000
0001
,
1000
0000
0100
0000
,
0010
0001
0100
0020
,
0030
1000
0100
0010
,
0011
1100
0011
0000
,
1000
0010
0100
0100
,
0010
0100
0001
0001
,
1000
0100
0010
0010
,
0001
0100
0020
0030
,
1000
0100
0010
0001
,
1000
0010
0100
0001
,
1000
0100
0010
0001
,
1000
1000
1000
0000
,
0001
0000
0010
0000
,
0001
1000
0010
0200
,
0300
0010
1000
0100
,
0001
0100
1000
0001
,
1000
0000
0010
0000
,
0100
0001
0010
0200
,
0300
0010
0001
1000
,
1010
0101
1010
0000
,
1000
0000
0000
2000
0000
0000
3000
0000
,
0100
0000
0000
0200
0000
0000
0300
0000
,
0010
0000
0000
0020
0000
0000
0030
0000
,
0001
0000
0000
0001
0000
0000
0001
0000
,
1000
1000
0010
0100
,
0001
0001
0010
0100
,
0010
0010
0001
0100
,
0110
0000
0000
1001
0000
0000
0001
0000
,
2000
0000
3000
0000
,
0200
0000
0300
0000
,
0020
0000
0030
0000
,
0002
0000
0003
0000
,
0001
0000
0001
0000
,
0100
0000
0100
0000
,
0010
0000
1000
0000
,
1001
0110
1001
0000
,
0001
0010
0100
0100
,
0010
0100
1000
1000
,
0001
0100
0010
0010
,
1000
0100
0020
0030
,
0001
0100
0010
1000
,
0001
0010
0100
1000
,
0001
0100
0010
1000
,
0001
0001
0001
0000
,
1000
0000
0010
0000
,
0100
0001
1000
0200
,
0300
0010
0001
0100
,
1000
0100
0001
1000
,
0001
0000
0010
0000
,
0100
1000
0010
0200
,
0300
0010
1000
0001
,
0011
1100
1001
0000
,
0001
0100
0010
1000
,
2002
0000
0000
3003
,
0220
0000
0000
0330
,
1000
0100
0010
0100
,
1000
0001
0100
0110
;

//---------------dance-single - ----------------
#NOTEDATA:;
#CHARTNAME:;
#STEPSTYPE:dance-single;
#DESCRIPTION:;
#CHARTSTYLE:;
#DIFFICULTY:Beginner;
#METER:2;
#RADARVALUES:0.174016,0.216608,0.062870,0.047153,0.000000,155.000000,147.000000,8.000000,6.000000,0.000000,0.000000,0.000000,0.000000,0.000000,0.174016,0.216608,0.062870,0.047153,0.000000,155.000000,147.000000,8.000000,6.000000,0.000000,0.000000,0.000000,0.000000,0.000000;
#CREDIT:;
#NOTES:
0000
0000
0000
0000
,
0000
0000
0000
0000
,
0000
0000
0000
0000
,
0000
0000
0000
0000
,
0001
0000
0001
0000
,
1000
0000
1000
0000
,
0010
0000
0010
0000
,
0110
0000
0000
0000
,
2002
0000
0000
0000
,
3003
0000
0000
0000
,
1000
0000
1000
0000
,
0100
0000
0010
0000
,
0001
0000
1000
0000
,
1000
1000
1000
0000
,
0001
0000
0001
0000
,
0100
0000
0010
0000
,
1000
0000
0001
0000
,
0010
0010
0010
0000
,
0001
0000
0100
0000
,
0010
0010
0010
0000
,
1000
0000
1000
0000
,
0001
0001
0001
0000
,
1000
0000
0100
0000
,
0010
0010
0010
0000
,
0001
0000
0100
0000
,
0010
0010
0010
0000
,
1000
0000
1000
0000
,
0100
0000
0100
0000
,
0010
0000
0010
0000
,
0001
0000
0001
0000
,
1000
0000
1000
0000
,
0010
0000
0010
0000
,
0100
0000
0100
0000
,
0001
0001
0001
0000
,
1000
0000
0100
0000
,
0010
0010
0010
0000
,
0001
0000
0001
0000
,
1000
1000
1000
0000
,
0001
0000
0100
0000
,
0010
0010
0010
0000
,
1000
0000
0001
0000
,
0010
0010
0010
0000
,
0001
0000
0000
0000
,
0100
0000
0000
0000
,
0010
0000
0000
0000
,
1000
0000
0000
0000
,
0001
0000
0001
0000
,
1000
0000
1000
0000
,
0100
0000
0100
0000
,
0110
0000
0000
0000
,
1001
0000
0000
0000
,
1000
0000
0000
0000
,
0001
0000
0000
0000
,
0001
0000
0000
0000
,
1000
0000
0000
0000
,
0010
0000
0000
0000
,
0100
0000
0000
0000
,
0001
0001
0001
0000
,
1000
0000
1000
0000
,
0100
0000
0100
0000
,
0010
0000
0010
0000
,
0001
0000
0001
0000
,
1000
0000
1000
0000
,
0010
0000
0010
0000
,
0100
0000
0100
0000
,
0001
0001
0001
0000
,
1000
0000
0010
0000
,
0100
0100
0100
0000
,
0001
0000
0001
0000
,
1000
1000
1000
0000
,
0001
0000
0010
0000
,
0100
0100
0100
0000
,
1000
0000
0010
0000
,
0100
0100
0100
0000
,
0010
0000
1000
0000
,
2002
0000
3003
0000
,
0220
0000
0330
0000
,
1001
0000
0000
0000
,
0000
0000
0000
0110
;
