#VERSION:0.83;
#TITLE:Murder;
#SUBTITLE:ft. Minx & Chilled;
#ARTIST:Boyinaband;
#TITLETRANSLIT:;
#SUBTITLETRANSLIT:;
#ARTISTTRANSLIT:;
#GENRE:Horrorcore;
#ORIGIN:;
#CREDIT:;
#BANNER:Murder (ft. Minx & Chilled).png;
#BACKGROUND:Murder (ft. Minx & Chilled)-bg.png;
#PREVIEWVID:;
#JACKET:Murder (ft. Minx & Chilled)-jacket.png;
#CDIMAGE:;
#DISCIMAGE:;
#LYRICSPATH:;
#CDTITLE:cdtitle.png;
#MUSIC:Murder (ft. Minx & Chilled).ogg;
#OFFSET:-0.009206;
#SAMPLESTART:10.672873;
#SAMPLELENGTH:21.333332;
#SELECTABLE:YES;
#BPMS:0.000=90.000,
112.000=45.000,
128.000=90.000;
#STOPS:;
#DELAYS:;
#WARPS:;
#TIMESIGNATURES:0.000=4=4;
#TICKCOUNTS:0.000=4;
#COMBOS:0.000=1;
#SPEEDS:0.000=1.000=0.000=0;
#SCROLLS:0.000=1.000;
#FAKES:;
#LABELS:0.000=Song Start;
#BGCHANGES:;
#KEYSOUNDS:;
#ATTACKS:
;

//---------------dance-single - ----------------
#NOTEDATA:;
#CHARTNAME:;
#STEPSTYPE:dance-single;
#DESCRIPTION:;
#CHARTSTYLE:;
#DIFFICULTY:Medium;
#METER:6;
#RADARVALUES:0.310185,0.343789,0.146380,0.414742,0.000000,267.000000,249.000000,18.000000,51.000000,4.000000,0.000000,0.000000,0.000000,0.000000,0.310185,0.343789,0.146380,0.414742,0.000000,267.000000,249.000000,18.000000,51.000000,4.000000,0.000000,0.000000,0.000000,0.000000;
#CREDIT:;
#OFFSET:-0.009206;
#BPMS:0.000000=90.000000
;
#STOPS:;
#DELAYS:;
#WARPS:;
#TIMESIGNATURES:0.000000=4=4
;
#TICKCOUNTS:0.000000=4
;
#COMBOS:0.000000=1
;
#SPEEDS:0.000000=1.000000=0.000000=0
;
#SCROLLS:0.000000=1.000000
,140.750000=0.000000
,143.000000=1.000000
;
#FAKES:;
#LABELS:0.000000=Song Start
;
#NOTES:
0000
0000
0000
0000
,
0000
0000
0000
0000
,
0010
0010
0000
2002
0000
0000
3003
0000
,
0100
0100
0000
0000
0000
0000
0000
0000
,
1000
0010
0010
0000
0010
1000
0001
0100
,
0010
1000
0100
0000
0010
0001
0100
0000
,
0010
1000
1000
0100
0002
0000
0103
1000
,
1000
0001
0100
0200
0000
1300
0200
0000
,
0301
0010
0010
0000
0010
0001
1000
0100
,
0010
0001
0100
0000
0010
1000
0100
0000
,
0010
0001
0001
0100
2000
0000
3100
0001
,
0001
1000
0100
0200
0000
0301
0200
0000
,
1300
0010
0100
0010
1000
0000
1010
0000
,
0001
0010
0100
0010
0001
0000
0011
0000
,
1000
0010
0100
0001
0010
0100
1000
0000
,
1001
0000
0001
0100
0010
1000
0001
0000
,
1000
0100
0001
0000
0100
0100
1000
0000
,
0001
0100
1000
0000
0100
0100
0001
0000
,
1000
0010
0100
0000
0001
0010
0100
0000
,
1000
0010
0100
0001
0010
0100
1000
0000
,
2002
3003
2000
3020
0032
0023
2030
0000
,
3001
0100
0010
0100
0001
0010
0100
0000
,
1000
0100
0001
0000
0001
0010
1000
0000
,
0100
0000
0100
0000
0100
0010
0100
1001
,
MMMM
2000
3200
0302
0203
2300
3020
0030
,
0100
0001
1001
0000
1001
0110
2002
3003
,
0001
0010
0100
2000
3001
0100
0010
2000
,
3100
0100
0010
0010
0100
0010
0100
0000
,
2002
0000
0000
3000
0003
0000
1000
0000
0100
0000
1000
0000
0100
0000
0000
0000
,
2002
0000
0000
0003
3000
0000
0001
0000
0100
0000
0001
0000
0100
0000
0000
0000
,
0220
0000
0000
0300
0030
0000
0100
0000
0001
0000
1000
0000
0100
0000
0010
0000
,
0220
0000
0000
0330
0000
0000
0000
0000
0002
0000
2003
0000
0002
0000
3003
0000
,
0202
0000
0000
0003
0300
0000
0001
0000
0100
0000
0010
0000
1000
0000
0000
0000
,
2200
0000
0000
3000
0300
0000
1000
0000
0100
0000
0010
0000
0001
0000
0000
0000
,
0022
0000
0000
0030
0003
0000
0010
0000
0001
0000
0100
0000
0010
0000
1000
0000
,
2020
0000
0000
3030
0000
0000
0000
0000
0000
0000
0000
0000
0000
0000
0000
0000
,
0001
0100
0100
0000
0100
0001
1000
0010
,
0100
0001
0010
0000
0100
1000
0010
0000
,
0100
0001
0001
0010
2000
0000
3010
0001
,
0001
1000
0010
0020
0000
0031
0020
0000
,
1030
0100
0100
0000
0100
1000
0001
0010
,
0100
1000
0010
0000
0100
0001
0010
0000
,
0100
1000
1000
0010
0002
0000
0013
1000
,
1000
0001
0010
0020
0000
1030
0020
0000
,
0002
0000
0033
0000
;

//---------------dance-single - ----------------
#NOTEDATA:;
#CHARTNAME:;
#STEPSTYPE:dance-single;
#DESCRIPTION:;
#CHARTSTYLE:;
#DIFFICULTY:Hard;
#METER:9;
#RADARVALUES:0.427521,0.526966,0.065058,0.390345,0.455403,368.000000,360.000000,8.000000,48.000000,6.000000,0.000000,0.000000,0.000000,0.000000,0.427521,0.526966,0.065058,0.390345,0.455403,368.000000,360.000000,8.000000,48.000000,6.000000,0.000000,0.000000,0.000000,0.000000;
#CREDIT:;
#OFFSET:-0.009206;
#BPMS:0.000000=90.000000
,112.000000=45.000000
,128.000000=90.000000
;
#STOPS:;
#DELAYS:;
#WARPS:;
#TIMESIGNATURES:0.000000=4=4
;
#TICKCOUNTS:0.000000=4
;
#COMBOS:0.000000=1
;
#SPEEDS:0.000000=1.000000=0.000000=0
;
#SCROLLS:0.000000=1.000000
,126.375000=0.000000
,127.750000=2.000000
,128.000000=1.000000
;
#FAKES:;
#LABELS:0.000000=Song Start
;
#NOTES:
0000
0000
0000
0000
,
0000
0000
0000
0000
,
0100
0100
0000
2002
0000
0000
3003
0000
,
0010
0010
0000
0000
0000
0000
0000
0000
,
0001
0000
1000
0000
0001
1000
0000
0100
0000
1000
0001
0000
1000
0010
1000
0010
,
0100
0001
0010
0010
0100
1000
0010
0010
,
1000
0000
0001
0100
0010
0000
1000
0100
0010
0000
0001
0000
0001
0000
1000
0100
,
0010
0000
0001
0100
0010
0000
0200
0000
0010
0000
0310
0000
0200
0000
0310
0000
,
1000
0000
0001
0000
1000
0001
0000
0100
0000
0001
1000
0000
0100
0000
0100
0010
,
0100
1000
0010
0010
0100
0001
0010
0010
,
0001
0000
1000
0100
0010
0000
0001
0100
0010
0000
1000
0000
1000
0000
0001
0100
,
0010
0000
1000
0100
0010
0000
0200
0000
0010
0000
0310
0000
0200
0000
0310
0000
,
0001
0000
0100
0000
0010
0000
1000
0000
0100
0010
0000
0010
0002
0000
0000
0000
,
1003
0000
0100
0000
0010
0000
0001
0000
0100
0010
0000
0010
2000
0000
0000
0000
,
3100
0000
1000
0000
0001
0000
0100
0000
0001
0000
1000
0100
1000
0000
0010
0000
,
0220
0000
0330
0000
0001
1000
0000
0001
1000
0000
0100
0020
0000
0000
0031
0000
,
1000
0010
1000
0000
0001
0000
1000
0100
1000
0000
0001
0000
0100
0000
0010
0000
,
1000
0000
0001
0010
0000
0001
0010
0001
0000
1000
0010
1000
0000
0001
0000
0001
,
0010
0000
0001
1000
0000
0001
0000
0100
0010
0000
1000
0000
0001
0010
0000
0001
,
0010
0000
0100
0000
1000
0000
0010
0000
0100
0000
0001
1000
0000
1000
0001
0000
,
2002
0000
3003
0000
0002
0000
0023
0000
2030
0000
3020
0032
0000
0000
0103
0000
,
0010
1000
0010
0000
1000
0000
0100
0000
0010
0000
0001
1000
0000
1000
0001
0000
,
0100
0000
0010
1000
0000
0001
0000
1000
0000
0100
0020
0000
0032
0000
2003
3002
,
0000
0100
0103
0000
0010
0000
0100
0000
0001
0000
1000
0100
0000
0000
0110
0000
,
MMMM
0000
2000
0000
3020
0000
0032
0000
0023
0000
2030
3002
0000
0000
0013
0000
,
0100
0000
1000
0010
0000
1000
0001
2000
0000
3200
0000
0320
0000
0000
0031
0000
,
1000
0100
0010
0000
0001
0000
0021
0000
0031
0100
0010
0000
1000
0000
1020
0000
,
1030
0000
0100
0000
0001
0000
0100
0000
1000
0000
0010
1000
0000
1002
0000
0000
,
1003
0001
0000
1000
0002
0000
0103
0000
0010
0000
0010
0000
2000
0000
0000
0000
3001
1000
0000
0001
1000
0000
0100
0000
0010
0000
0010
0000
0002
0000
0000
0000
,
1003
0001
0000
1000
0001
0000
1000
0000
0010
0000
0010
0000
0100
0000
0001
0000
1000
0001
0000
1000
000M
0000
0000
0000
2000
0000
3200
0000
0320
0000
0000
0000
,
0031
1000
0000
0001
2000
0000
3010
0000
0001
0000
0010
0000
2000
0000
3000
0000
1000
0001
0000
1000
0001
0000
0010
0000
1000
0000
0010
0000
0002
0000
0003
0000
,
0001
1000
0000
0001
1000
0000
0001
0000
0100
0000
1000
0000
0100
0000
0001
0000
0010
0100
0000
0010
0000
0000
0000
0000
0000
0000
0000
0000
0000
0000
0M00
0000
,
1000
0000
0001
0000
1000
0001
0000
0010
0000
0001
1000
0000
0001
0100
0001
0100
,
0010
1000
0100
0100
0010
0001
0100
0100
,
0001
0000
1000
0010
0100
0000
0001
0010
0100
0000
1000
0000
1000
0000
0001
0010
,
0100
0000
1000
0010
0100
0000
0020
0000
0100
0000
0130
0000
0020
0000
0130
0000
,
0001
0000
1000
0000
0001
1000
0000
0010
0000
1000
0001
0000
0010
0000
0010
0100
,
0010
0001
0100
0100
0010
1000
0100
0100
,
1000
0000
0001
0010
0100
0000
1000
0010
0100
0000
0001
0000
0001
0000
1000
0010
,
0100
0000
0001
0010
0100
0000
0020
0000
0100
0000
0130
0000
0010
0000
0000
2002
,
0000
0000
3003
0000
;

//---------------dance-single - ----------------
#NOTEDATA:;
#CHARTNAME:;
#STEPSTYPE:dance-single;
#DESCRIPTION:;
#CHARTSTYLE:;
#DIFFICULTY:Easy;
#METER:4;
#RADARVALUES:0.231187,0.253318,0.195173,0.382213,0.000000,199.000000,175.000000,24.000000,47.000000,4.000000,0.000000,0.000000,0.000000,0.000000,0.231187,0.253318,0.195173,0.382213,0.000000,199.000000,175.000000,24.000000,47.000000,4.000000,0.000000,0.000000,0.000000,0.000000;
#CREDIT:;
#OFFSET:-0.009206;
#BPMS:0.000000=90.000000
;
#STOPS:;
#DELAYS:;
#WARPS:;
#TIMESIGNATURES:0.000000=4=4
;
#TICKCOUNTS:0.000000=4
;
#COMBOS:0.000000=1
;
#SPEEDS:0.000000=1.000000=0.000000=0
;
#SCROLLS:0.000000=1.000000
,140.750000=0.000000
,143.000000=1.000000
;
#FAKES:;
#LABELS:0.000000=Song Start
;
#NOTES:
0000
0000
0000
0000
,
0000
0000
0000
0000
,
1000
0000
0000
2000
0000
0000
3000
0000
,
0001
0000
0000
0000
,
0001
0100
0010
1000
,
1002
0013
1002
0013
,
0001
0000
1000
0010
2000
0000
3001
0000
,
1000
0010
1000
2000
0000
3001
0002
0000
,
1003
0100
0010
0001
,
2001
3010
2001
3010
,
1000
0000
0001
0010
0002
0000
1003
0000
,
0001
0010
0001
0002
0000
1003
2000
0000
,
3010
0010
1000
1001
,
0010
0010
0001
1001
,
0010
0000
0010
0000
1000
0000
0100
0010
,
0100
0010
2002
3003
,
1000
0100
1000
0000
0001
0000
1000
0000
,
0001
0100
0001
0000
1000
0000
0001
0000
,
0010
0100
0010
0000
0001
0000
1000
0000
,
0001
0100
0010
0000
1000
0000
0001
0000
,
2001
0000
3100
0000
0100
0100
0100
0000
,
0010
0000
0001
0000
1000
0001
1000
0000
,
0001
0000
0100
0000
0010
0000
0100
0100
,
0100
0001
1000
1001
,
MMMM
0000
1000
0000
0001
0001
0001
0000
,
1000
0001
1000
0000
1001
0000
1001
0000
,
1000
0010
2000
0000
3001
0010
0002
0000
,
1003
0010
0220
0330
,
2002
0000
0000
3000
0003
0000
0000
0000
1000
0000
0000
0000
0100
0000
0000
0000
,
2002
0000
0000
0003
3000
0000
0000
0000
0001
0000
0000
0000
0100
0000
0000
0000
,
2002
0000
0000
3000
0003
0000
0000
0000
1000
0000
0000
0000
0010
0000
0000
0000
,
0220
0000
0000
0330
0000
0000
0000
0000
0002
0000
0003
0000
2000
0000
3000
0000
,
2200
0000
0000
0300
3000
0000
0000
0000
0010
0000
0000
0000
0100
0000
0000
0000
,
0202
0000
0000
0300
0003
0000
0000
0000
0010
0000
0000
0000
0100
0000
0000
0000
,
2002
0000
0000
0003
3000
0000
0000
0000
0001
0000
0000
0000
0100
0000
0000
0000
,
0220
0000
0000
0330
0000
0000
0000
0000
0000
0000
0000
0000
0000
0000
0000
0000
,
0001
0100
0001
0010
,
1002
0103
1002
0103
,
0001
0000
1000
0100
2000
0000
3001
0000
,
1000
0010
1000
2000
0000
3001
0002
0000
,
1003
0100
1000
0010
,
2001
3100
2001
3100
,
1000
0000
0001
0100
0002
0000
1003
0000
,
0001
0010
0001
0002
0000
1003
2000
0000
,
0002
0000
3003
0000
;

//---------------dance-single - ----------------
#NOTEDATA:;
#CHARTNAME:;
#STEPSTYPE:dance-single;
#DESCRIPTION:;
#CHARTSTYLE:;
#DIFFICULTY:Beginner;
#METER:1;
#RADARVALUES:0.097586,0.126659,0.000000,0.138247,0.000000,84.000000,84.000000,0.000000,17.000000,0.000000,0.000000,0.000000,0.000000,0.000000,0.097586,0.126659,0.000000,0.138247,0.000000,84.000000,84.000000,0.000000,17.000000,0.000000,0.000000,0.000000,0.000000,0.000000;
#CREDIT:;
#OFFSET:-0.009206;
#BPMS:0.000000=90.000000
;
#STOPS:;
#DELAYS:;
#WARPS:;
#TIMESIGNATURES:0.000000=4=4
;
#TICKCOUNTS:0.000000=4
;
#COMBOS:0.000000=1
;
#SPEEDS:0.000000=1.000000=0.000000=0
;
#SCROLLS:0.000000=1.000000
;
#FAKES:;
#LABELS:0.000000=Song Start
;
#NOTES:
0000
0000
0000
0000
,
0000
0000
0000
0000
,
1000
0000
0000
0000
,
0001
0000
0000
0000
,
1000
0000
0100
0000
,
0010
0000
0001
0000
,
1000
1000
2000
3000
,
0001
0002
0003
0001
,
0001
0000
0100
0000
,
0010
0000
1000
0000
,
0001
0001
0002
0003
,
1000
2000
3000
1000
,
1000
0000
0100
0000
,
1000
0000
0100
0000
,
0010
0000
0001
0000
,
0010
0000
0001
0000
,
0100
0000
0010
0000
,
0100
0000
0010
0000
,
1000
0000
0001
0000
,
1000
0000
0001
0000
,
0010
0000
0001
0000
,
0100
0000
0010
0000
,
1000
0000
0100
0000
,
1000
0000
0010
0000
,
1000
0000
0001
0000
,
0010
0000
0100
0000
,
1000
0000
0010
0000
,
0100
0100
0100
0000
,
0002
0003
0000
0000
,
0200
0300
0000
0000
,
0020
0030
0000
0000
,
2000
0000
0000
3000
0000
0000
0000
0000
0000
0000
0000
0000
0000
0000
0000
0000
,
2000
3000
0000
0000
,
0200
0300
0000
0000
,
0020
0030
0000
0000
,
0002
0000
0000
0003
0000
0000
0000
0000
0000
0000
0000
0000
0000
0000
0000
0000
,
0001
0000
0100
0000
,
0010
0000
1000
0000
,
0001
0001
0002
0003
,
1000
2000
3000
1000
,
1000
0000
0100
0000
,
0010
0000
0001
0000
,
1000
1000
2000
3000
,
0001
0002
0003
0001
,
0002
0000
0003
0000
;

//---------------dance-single - ----------------
#NOTEDATA:;
#CHARTNAME:;
#STEPSTYPE:dance-single;
#DESCRIPTION:;
#CHARTSTYLE:;
#DIFFICULTY:Challenge;
#METER:12;
#RADARVALUES:0.510005,0.658708,0.089454,0.512328,0.731898,439.000000,428.000000,11.000000,63.000000,6.000000,0.000000,0.000000,0.000000,0.000000,0.510005,0.658708,0.089454,0.512328,0.731898,439.000000,428.000000,11.000000,63.000000,6.000000,0.000000,0.000000,0.000000,0.000000;
#CREDIT:;
#OFFSET:-0.009206;
#BPMS:0.000000=90.000000
,112.000000=45.000000
,128.000000=90.000000
;
#STOPS:;
#DELAYS:;
#WARPS:;
#TIMESIGNATURES:0.000000=4=4
;
#TICKCOUNTS:0.000000=4
;
#COMBOS:0.000000=1
;
#SPEEDS:0.000000=1.000000=0.000000=0
;
#SCROLLS:0.000000=1.000000
,126.375000=0.000000
,127.937500=2.000000
,128.000000=1.000000
;
#FAKES:;
#LABELS:0.000000=Song Start
;
#NOTES:
0000
0000
0000
0000
,
0000
0000
0000
0000
,
0100
0100
0000
2002
0000
0000
3003
0000
,
0010
0010
0000
0000
0000
0000
0000
0000
,
1000
0000
0001
0000
1000
0001
0000
0001
0000
1000
0010
0000
1000
0010
1000
0100
,
0010
0000
0001
0000
0100
0000
0100
0000
0010
0000
1000
0000
0100
0010
0100
0000
,
0010
0000
0001
0100
0001
0100
0001
0100
1000
0000
0100
0000
0001
0000
1000
0100
,
1000
0100
1000
0100
0001
0000
0200
0000
1000
0000
0301
0000
0100
1000
0000
1000
,
0001
0000
1000
0000
0001
1000
0000
1000
0000
0001
0100
0000
0010
0000
0010
0100
,
0001
0000
0010
0000
0100
0000
0100
0000
1000
0000
0010
0000
0100
0010
0100
0000
,
0001
0000
1000
0100
1000
0100
1000
0100
0001
0000
0100
0000
1000
0000
0001
0100
,
0001
0100
0001
0100
1000
0000
0200
0000
0001
0000
1300
0000
0100
0001
0000
0001
,
0010
0000
0001
0000
0100
0000
0001
0100
0001
0010
0000
0010
0001
0000
1000
0000
,
0010
1000
0100
0000
1000
0000
0100
1000
0010
1000
0000
1000
0001
0000
1000
0000
,
0100
0010
0100
0010
0001
0000
0100
0000
0010
0000
0100
0010
1000
0000
1100
0000
,
0011
0000
0000
0000
1000
0010
0000
0010
0001
0000
0001
0100
0000
0100
1000
0000
,
0001
0100
0010
1000
0100
0000
0010
0001
0100
0000
0100
0000
0010
0000
1000
0001
,
0010
0000
0100
0010
0000
0100
1000
0010
0000
0100
0001
0010
0000
0010
0000
0001
,
0100
1000
0100
0001
0000
0001
0000
1000
0100
0010
0001
0100
0010
1000
0000
0010
,
1000
0100
1000
0100
0001
0100
0001
0100
1000
0010
0100
0001
0000
0001
1000
0000
,
2002
3003
0000
0002
0023
2030
3020
0032
0203
2300
3200
0302
0000
0000
0013
0000
,
0100
0010
0100
0000
1000
0010
1000
0010
0001
0010
1000
0001
0000
1000
0100
0000
,
0010
0001
1000
0010
0000
0010
0000
0100
0000
0100
0002
0023
2030
0000
3020
0032
,
0000
0103
0010
0000
0010
0000
0010
0000
1000
0100
0010
0001
0000
0000
0011
0000
,
MMMM
0000
0002
0203
2300
3200
0302
0000
0023
2030
3020
0032
0000
0000
0103
0000
,
0001
0100
0010
1000
0000
1000
0100
0110
0000
0011
0000
2002
0000
3003
1000
0000
,
0001
0100
0010
0000
0100
0010
2020
3030
0001
1000
0100
0010
0001
0000
0022
0033
,
1000
0100
1000
0100
0001
0100
0001
0100
0010
0001
0100
1000
0000
0200
0000
0000
,
0301
0001
0000
0001
0001
0000
1000
0010
0100
0000
0010
1000
0200
0000
0000
0000
1300
1000
0000
1000
1000
0000
0001
0010
0100
0000
0010
0001
0200
0000
0000
0000
,
0301
0001
0000
0001
0001
0000
0100
0010
1000
0000
0100
0000
0010
0000
0001
0000
1000
1000
0000
1000
M000
0000
0000
0001
0200
0000
0301
0100
0020
0000
0000
0000
,
1030
1000
0000
1000
1000
0000
0002
0023
2030
0000
3002
0203
2300
0000
0000
0000
3001
0001
0000
0001
0001
0000
2000
3020
0032
0000
2003
3200
0302
0000
0000
0000
,
1003
1000
0000
1000
1000
0000
0002
0203
2300
0000
3002
0023
2030
0000
3200
0000
0310
0010
0000
0010
0000
0000
0000
0000
0000
0000
0000
0000
0000
0000
0000
0000
,
10M0
0000
0001
0000
1000
0001
0000
0001
0000
1000
0010
0000
1000
0010
0001
0010
,
1000
0000
0100
0000
0010
0000
0010
0000
0001
0000
0100
0000
0010
0100
0010
0000
,
1000
0000
0001
0010
0001
0010
0001
0010
1000
0000
0010
0000
0001
0000
1000
0010
,
1000
0010
1000
0010
0001
0000
0020
0000
1000
0000
0031
0000
0010
1000
0000
1000
,
0100
0000
1000
0000
0001
1000
0000
1000
0000
0001
0010
0000
1000
0000
1000
0010
,
0001
0000
0100
0000
0010
0000
0010
0000
1000
0000
0100
0000
0010
0100
0010
0000
,
0001
0000
1000
0010
1000
0010
1000
0010
0001
0000
0010
0000
1000
0000
0001
0010
,
0001
0010
0001
0010
1000
0000
0020
0000
0001
0000
1030
0000
0010
0001
0000
2002
,
0000
0000
3003
0000
;
