#VERSION:0.83;
#TITLE:Move That Body;
#SUBTITLE:;
#ARTIST:Expander;
#TITLETRANSLIT:;
#SUBTITLETRANSLIT:;
#ARTISTTRANSLIT:;
#GENRE:Drumstep;
#ORIGIN:;
#CREDIT:;
#BANNER:Move That Body.png;
#BACKGROUND:Move That Body-bg.png;
#PREVIEWVID:;
#JACKET:Move That Body-jacket.png;
#CDIMAGE:;
#DISCIMAGE:;
#LYRICSPATH:;
#CDTITLE:cdtitle.png;
#MUSIC:Move That Body.ogg;
#OFFSET:-0.087210;
#SAMPLESTART:83.352516;
#SAMPLELENGTH:19.591835;
#SELECTABLE:YES;
#BPMS:0.000=98.000,
48.000=196.000,
208.000=98.000,
215.000=196.000;
#STOPS:215.000=0.306,
280.000=0.918;
#DELAYS:;
#WARPS:;
#TIMESIGNATURES:0.000=4=4;
#TICKCOUNTS:0.000=4;
#COMBOS:0.000=1;
#SPEEDS:0.000=1.000=0.000=0;
#SCROLLS:0.000=1.000;
#FAKES:;
#LABELS:0.000=Song Start;
#BGCHANGES:;
#KEYSOUNDS:;
#ATTACKS:
;

//---------------dance-single - ----------------
#NOTEDATA:;
#CHARTNAME:;
#STEPSTYPE:dance-single;
#DESCRIPTION:;
#CHARTSTYLE:;
#DIFFICULTY:Challenge;
#METER:15;
#RADARVALUES:0.785791,1.024208,0.580414,0.473261,0.450937,616.000000,551.000000,65.000000,53.000000,0.000000,0.000000,0.000000,0.000000,0.000000,0.785791,1.024208,0.580414,0.473261,0.450937,616.000000,551.000000,65.000000,53.000000,0.000000,0.000000,0.000000,0.000000,0.000000;
#CREDIT:;
#OFFSET:-0.087210;
#BPMS:0.000000=98.000000
,48.000000=196.000000
,208.000000=98.000000
,215.000000=196.000000
;
#STOPS:215.000000=0.306122
,280.000000=0.918366
;
#DELAYS:;
#WARPS:;
#TIMESIGNATURES:0.000000=4=4
;
#TICKCOUNTS:0.000000=4
;
#COMBOS:0.000000=1
;
#SPEEDS:0.000000=1.000000=0.000000=0
;
#SCROLLS:0.000000=1.000000
;
#FAKES:;
#LABELS:0.000000=Song Start
;
#NOTES:
// measure 0
0000
0000
0000
0000
,  // measure 1
0000
0000
0000
0000
,  // measure 2
1001
0000
0000
0000
1000
0000
0100
0000
0010
0000
0001
0000
0100
0010
0100
0010
1000
0000
1000
0000
0010
0000
0010
0000
0001
0000
0010
0000
1000
0000
0100
0000
,  // measure 3
0120
0000
0001
0000
0130
0010
0001
0000
0101
0000
1100
0000
0202
0000
0303
0000
,  // measure 4
0001
0000
0000
0000
1000
0000
1000
0000
0100
0010
0001
0000
0100
0000
0000
0000
1000
0000
0100
0000
0001
0000
0010
0000
0000
0000
0010
0000
0002
0000
0000
0000
,  // measure 5
0010
0000
1003
0001
2000
0000
0100
0000
3001
0100
0010
0200
0000
0001
0000
0310
,  // measure 6
1000
0000
0000
0000
0001
0000
0001
0000
0100
0010
1000
0000
0100
0000
0000
0000
0001
0000
0100
0000
1000
0000
0010
0000
0000
0000
0010
0000
2000
0000
0000
0000
,  // measure 7
0010
0000
3001
0010
1000
0010
0001
0000
1000
0100
0010
0002
0000
0100
0000
1003
,  // measure 8
0001
0000
0000
0000
1000
0000
1000
0000
0001
0010
0100
0000
0010
0000
0000
0000
0100
0000
1000
0000
0010
0000
0001
0000
0000
0000
0001
0000
0020
0000
0000
0000
,  // measure 9
1000
0000
0130
0001
0020
0000
1000
0000
0130
0010
0001
2000
0000
0010
0000
3001
,  // measure 10
1000
0000
0000
0000
0001
0000
0001
0000
1000
0010
0100
0000
0010
0000
0000
0000
0100
0000
0001
0000
0010
0000
1100
0000
0000
0000
0010
0000
0201
0000
0000
0000
,  // measure 11
0000
0000
0000
1300
0100
0001
1000
0000
0001
0010
1000
0020
0000
0001
0000
0130
,  // measure 12
1100
0000
0000
0012
0000
0103
0101
0000
,  // measure 13
0001
0100
1000
0100
1000
0100
0110
0000
,  // measure 14
0001
0000
0001
0000
0100
0001
0010
0000
,  // measure 15
0100
0000
0100
0000
0010
0000
0001
0000
1000
0000
0010
0000
0100
0001
0100
0001
,  // measure 16
0100
0000
0000
2010
0000
3100
1100
0000
,  // measure 17
0011
0000
0000
1000
0100
0001
0210
0000
,  // measure 18
1300
0000
1000
0000
0100
0000
1000
0000
0020
0000
0000
0000
1030
0010
0100
0001
,  // measure 19
1000
0010
0100
0001
1001
0000
1001
0000
,  // measure 20
0002
0010
0010
1000
0000
0103
0101
0000
,  // measure 21
2000
0010
0010
0001
0000
3100
1100
0000
,  // measure 22
0001
0010
1000
0010
0001
0001
1000
1000
,  // measure 23
0001
0000
0000
0100
0000
0000
1000
0000
0000
0100
0000
0000
0001
0000
0100
0000
0010
0000
1000
0000
0100
0000
0010
0000
,  // measure 24
0002
0100
0100
1000
0000
0013
0011
0100
,  // measure 25
2000
0100
0100
0001
0000
3010
0110
0000
,  // measure 26
0001
0000
1000
0000
0100
0000
0020
0000
0000
0000
0130
0000
0010
0001
0010
0001
,  // measure 27
1000
0000
0000
0000
0110
0000
0000
0000
1001
0000
0001
1000
0001
0000
0000
0000
,  // measure 28
1100
0000
0000
0000
0101
0000
0000
0000
1000
0000
0001
0100
0001
0000
1000
0000
,  // measure 29
0000
1000
0100
0001
1000
0001
0100
0000
,  // measure 30
0100
0000
1000
0000
0001
0100
0001
0000
1000
0000
1000
0000
0100
0000
0010
0000
,  // measure 31
0000
0010
0001
0100
1000
0100
0001
0000
,  // measure 32
0101
0000
1100
0000
0001
0100
1000
0001
,  // measure 33
0000
1000
0100
0001
0010
0100
1000
0001
,  // measure 34
0100
0000
1000
0000
0100
0000
0000
0000
1000
0000
0100
0000
0001
0000
0010
0100
,  // measure 35
0010
0100
0001
1000
0010
0001
0100
0000
,  // measure 36
1010
0000
0000
0000
0011
0000
0000
0000
1000
0000
0001
0010
0001
0000
1000
0000
,  // measure 37
0000
1000
0010
0001
1000
0001
0010
0000
,  // measure 38
1000
0000
0100
0000
0001
0100
0001
0000
0100
0000
1000
0000
0010
0000
1000
0000
,  // measure 39
0000
0000
0000
0010
0000
0000
1001
0000
0000
0000
0000
0000
1000
0000
0100
0000
0010
0000
0001
0000
0000
0000
0000
0000
,  // measure 40
0011
0000
1010
0000
0001
0010
1000
0001
,  // measure 41
0000
1000
0010
0001
0100
1000
0100
0001
,  // measure 42
0000
0000
0001
0000
0100
0000
0010
0000
1000
0000
0001
0000
1000
0000
0100
0010
,  // measure 43
0100
0000
0001
0000
1000
0000
0010
0000
0001
0000
0100
0010
1000
0000
0000
0000
,  // measure 44
2001
0000
0001
0000
0001
0000
3100
0000
1000
0001
0000
1000
,  // measure 45
0010
0010
1000
0100
0022
0033
2200
3300
,  // measure 46
0001
0000
0000
0000
0001
1000
0010
0000
0110
0000
0000
0000
0110
0000
0000
0000
,  // measure 47
0001
0101
1100
1100
,  // measure 48
1002
1000
0100
0103
0120
0000
1030
0010
,  // measure 49
0001
0010
1000
0100
0022
0033
2200
3300
,  // measure 50
0001
0000
0000
0000
0001
1000
0010
0000
0110
0000
0000
0000
0110
0000
0000
0000
,  // measure 51
0001
0010
1000
0010
0110
0000
0110
0000
,  // measure 52
1001
0000
0100
0000
1001
0000
0010
0000
0000
0001
0000
0001
0100
1000
0001
0010
,  // measure 53
1000
0000
0000
0000
0001
0000
0010
0000
1000
0000
0000
0000
0001
0000
0100
0000
1000
0000
0000
0000
0010
0000
0000
0000
2002
3003
0000
0000
0000
0000
0000
0000
,  // measure 54
1020
0000
0001
0000
1030
0000
1000
0010
,  // measure 55
0001
0010
1000
0000
0010
0010
1000
1000
,  // measure 56
0100
0010
0001
0000
1000
0100
0010
0000
0001
0000
0100
0010
1000
0000
0001
1000
,  // measure 57
0001
0010
1000
0010
0001
0001
0100
0100
,  // measure 58
0001
1000
0200
0000
0301
0100
0010
0100
,  // measure 59
1200
0000
0001
0000
1300
1000
0010
0100
,  // measure 60
0001
0000
1000
0010
0200
0001
0020
0330
,  // measure 61
2010
0010
3001
0000
0012
0010
1003
0000
,  // measure 62
0021
0000
1000
0000
0031
0000
0001
0010
,  // measure 63
1000
0010
0001
0000
0010
0010
0001
0001
,  // measure 64
0100
0010
1000
0000
0001
0100
0010
0000
1000
0000
0100
0010
0001
0000
1000
0001
,  // measure 65
1000
0000
0000
0010
0000
0000
0001
0000
0000
0010
0000
0000
1000
0000
0100
0000
1000
0000
0100
0000
0000
0010
0000
0000
,  // measure 66
0001
1000
0020
0000
0031
0010
0100
0010
,  // measure 67
1020
0000
0001
0000
1030
1000
0010
0100
,  // measure 68
0001
0000
1000
0100
0020
0001
0200
0330
,  // measure 69
2100
0000
0100
0000
3001
0000
0000
0000
0001
0000
0100
0010
2000
0000
0000
0000
,  // measure 70
0002
3003
0000
0000
0000
0000
0000
0000
1001
0000
0000
0000
0000
0000
0000
0000
1000
0000
0000
0000
0100
0000
0000
0000
0010
0000
0000
0000
0001
0000
0000
0000
,  // measure 71
0100
0010
0100
0010
1000
0000
1000
0000
0010
0000
0010
0000
0001
0000
0010
0000
,  // measure 72
1000
0100
0120
0000
0031
0000
1100
0010
,  // measure 73
0011
0101
1100
0202
,  // measure 74
0303
0000
0000
0000
;

//---------------dance-single - ----------------
#NOTEDATA:;
#CHARTNAME:;
#STEPSTYPE:dance-single;
#DESCRIPTION:;
#CHARTSTYLE:;
#DIFFICULTY:Hard;
#METER:13;
#RADARVALUES:0.676087,0.859013,0.553626,0.366107,0.196448,530.000000,468.000000,62.000000,41.000000,0.000000,0.000000,0.000000,0.000000,0.000000,0.676087,0.859013,0.553626,0.366107,0.196448,530.000000,468.000000,62.000000,41.000000,0.000000,0.000000,0.000000,0.000000,0.000000;
#CREDIT:;
#OFFSET:-0.087210;
#BPMS:0.000000=98.000000
,48.000000=196.000000
,208.000000=98.000000
,215.000000=196.000000
;
#STOPS:215.000000=0.306122
,280.000000=0.918366
;
#DELAYS:;
#WARPS:;
#TIMESIGNATURES:0.000000=4=4
;
#TICKCOUNTS:0.000000=4
;
#COMBOS:0.000000=1
;
#SPEEDS:0.000000=1.000000=0.000000=0
;
#SCROLLS:0.000000=1.000000
;
#FAKES:;
#LABELS:0.000000=Song Start
;
#NOTES:
0000
0000
0000
0000
,
0000
0000
0000
0000
,
1001
0000
0001
0010
0100
0010
0001
0100
0010
1000
0010
1000
0001
1000
0010
1000
,
0200
0000
0300
0000
0010
0001
0200
0000
0310
0000
0010
0000
2002
0000
3003
0000
,
1100
0000
0010
0001
1000
0001
0100
0000
0001
0010
0001
0100
0000
0010
2000
0000
,
3010
0000
0110
0000
0002
0000
0013
0000
0100
0010
0001
2000
0000
0002
0000
3003
,
0101
0000
0010
1000
0001
1000
0100
0000
1000
0010
1000
0100
0000
0010
0002
0000
,
0013
0000
0110
0000
1000
0010
1000
0000
0010
0100
0001
2000
0000
0200
0000
3300
,
0011
0000
0100
1000
0010
0100
0001
0000
0100
0001
0010
0100
0000
0010
2000
0000
,
3010
0000
0110
0000
0002
0000
0103
0000
1000
0100
0010
0200
0000
0002
0000
0303
,
1010
0000
0100
0001
0010
0100
1000
0000
0011
0000
0000
1100
0000
0000
2002
0000
,
0000
3000
0000
1003
0010
0100
0010
0000
0001
0010
0100
0010
1000
0000
0010
0000
,
1001
0000
0000
0020
0000
0030
1001
0000
,
1000
0010
1000
0100
1000
0000
1100
0000
,
0001
0000
0001
0000
0010
0001
0010
0000
,
0001
0100
0010
1000
0100
0010
0001
0000
,
1001
0000
0000
0020
0000
0030
1001
0000
,
1001
0000
0000
0001
0010
0001
0200
0000
,
0310
1000
0010
1000
0002
0000
0103
0010
,
1010
0101
1001
1001
,
2000
0000
3100
0010
0000
0100
0010
0100
,
0002
0000
0103
0010
0000
0010
0110
0000
,
1000
0100
0010
0001
1000
0010
1000
0010
,
0100
0001
1000
0100
0020
0000
0031
1000
,
0002
0000
0103
0010
0000
0100
0010
0100
,
2000
0000
3100
0010
0100
0000
0110
0000
,
0001
0100
0010
2000
0000
3100
0010
0001
,
1100
0011
1001
1001
,
0101
0000
1100
0000
0001
0100
0001
1000
,
0000
1000
0001
0100
0001
0010
0001
0000
,
1000
0100
0010
0001
0100
0010
0000
1000
,
0000
0010
1000
0010
0001
0010
1000
0000
,
1100
0000
0101
0000
1000
0100
0000
0001
,
0000
0100
1000
0010
0100
0010
1000
0001
,
0000
1000
0100
0010
0001
1000
0000
0100
,
0000
0001
0100
1000
0010
0100
0001
0000
,
0011
0000
1010
0000
0001
0010
0001
1000
,
0000
1000
0001
0010
0001
0100
0001
0000
,
1000
0010
0100
0001
0010
0100
0000
1000
,
0000
0010
1010
0000
0001
0010
0001
0000
,
1010
0000
0011
0000
1000
0010
0000
0001
,
0000
0010
1000
0100
0010
0100
1000
0001
,
0000
1000
0010
0100
0001
1000
0000
0010
,
0000
0001
0010
1000
0100
0010
0001
0000
,
1000
0000
0010
0000
1000
0000
0001
0000
0000
0001
0000
0000
,
1000
0100
0010
0100
0011
0000
1100
0000
,
0001
0001
1001
1001
,
0010
0100
1001
1001
,
1000
0100
1000
0100
0020
0000
0031
1000
,
0001
0100
0001
0100
1010
0000
0101
0000
,
1000
1000
1001
1001
,
0100
0010
0100
0000
1001
0000
1001
0000
,
2000
0000
0010
0000
3002
0000
0010
0000
0003
1000
0000
1000
0010
0000
0100
0000
,
0001
0000
0000
0000
1000
0000
0000
0000
0100
0000
0000
0000
0001
0000
0000
0000
0100
0000
0000
0000
1000
0000
0000
0000
2002
3003
0000
0000
0000
0000
0000
0000
,
0011
0000
1010
0000
0011
0000
0001
0010
,
1000
0010
0001
0000
0010
0001
0100
0001
,
1000
0010
0100
0010
1000
0001
0001
0000
,
1000
0100
0010
0001
0100
0010
1000
0001
,
0010
0100
0010
0000
1001
0000
0001
0100
,
2000
0000
3100
0000
1000
0100
0001
0000
,
1000
0000
0010
1000
0200
0000
0320
0000
,
0031
0010
0100
0000
1000
0010
0100
0000
,
1010
0000
0011
0000
1010
0000
1000
0010
,
0001
0010
1000
0000
0010
1000
0100
1000
,
0001
0010
0100
0010
0001
1000
1000
0000
,
0001
0100
0010
1000
0100
0010
0001
1000
,
0010
0100
0010
0000
1001
0000
1000
0100
,
0002
0000
0103
0000
0001
0100
1000
0000
,
0001
0000
0010
0001
0200
0000
0320
0000
,
1030
0010
0100
0000
0001
0010
0100
1000
,
0001
0000
1001
0000
0001
0010
0100
0010
,
0001
0100
0010
1000
0010
1000
0001
1000
,
0001
1000
0200
0000
0300
0000
0010
0001
,
0100
1001
0110
2002
,
3003
0000
0000
0000
;

//---------------dance-single - ----------------
#NOTEDATA:;
#CHARTNAME:;
#STEPSTYPE:dance-single;
#DESCRIPTION:;
#CHARTSTYLE:;
#DIFFICULTY:Medium;
#METER:10;
#RADARVALUES:0.503876,0.663012,0.517908,0.348248,0.071436,395.000000,337.000000,58.000000,39.000000,0.000000,0.000000,0.000000,0.000000,0.000000,0.503876,0.663012,0.517908,0.348248,0.071436,395.000000,337.000000,58.000000,39.000000,0.000000,0.000000,0.000000,0.000000,0.000000;
#CREDIT:;
#OFFSET:-0.087210;
#BPMS:0.000000=98.000000
,48.000000=196.000000
,208.000000=98.000000
,216.000000=196.000000
,280.000000=98.000000
,282.000000=196.000000
;
#STOPS:;
#DELAYS:;
#WARPS:;
#TIMESIGNATURES:0.000000=4=4
;
#TICKCOUNTS:0.000000=4
;
#COMBOS:0.000000=1
;
#SPEEDS:0.000000=1.000000=0.000000=0
;
#SCROLLS:0.000000=1.000000
;
#FAKES:;
#LABELS:0.000000=Song Start
;
#NOTES:
0000
0000
0000
0000
,
0000
0000
0000
0000
,
1001
0001
0100
0010
1000
1000
0001
0010
,
0210
0000
0000
0000
1300
0001
2000
0000
3010
0000
0100
0000
2002
0000
3003
0000
,
0001
0000
0100
0000
1000
0000
0100
0000
0001
0000
0000
0010
0000
0000
0200
0000
,
0000
0000
1000
0000
0320
0000
0000
0000
0031
0000
0100
0010
0000
1000
0000
0001
,
1000
0000
0100
0000
0001
0000
0100
0000
1000
0000
0000
0010
0000
0000
0200
0000
,
0000
0000
0001
0000
0310
0000
1000
0000
0100
0000
0010
0001
0000
0100
0000
0010
,
1000
0000
0010
0000
0001
0000
0010
0000
1000
0000
0000
0100
0000
0000
0020
0000
,
0000
0000
0001
0000
0230
0000
0000
0000
1300
0000
0010
0100
0000
0001
0000
1000
,
0001
0000
0010
0000
1000
0000
0010
0000
0011
0000
0000
0101
0000
0000
0120
0000
,
0000
0000
1000
0000
0130
0000
0001
0000
1000
0100
0000
0001
0100
0000
1000
0000
,
1100
0000
0000
1000
0000
0000
1100
0000
,
0101
0000
0000
0001
0000
0000
0101
0000
,
1000
1000
0001
0001
,
1000
0100
0010
0001
,
0011
0000
0000
0001
0000
0000
0011
0000
,
1010
0000
0000
1000
0000
0000
1010
0000
,
0001
0010
0100
0100
,
0011
1100
1001
1001
,
1000
0000
0010
0100
0000
0010
0100
0000
,
0001
0000
0010
0100
0000
0010
0002
0000
,
1003
0000
0010
0000
0100
0001
0100
0000
,
0001
0000
0010
0000
0100
1000
0100
0000
,
1000
0000
0001
0100
0000
0001
0010
0000
,
0001
0000
1000
0100
0000
1000
0010
0000
,
1000
0000
0100
0010
0100
0000
0010
0000
,
0011
1100
1001
1001
,
0001
0000
0100
0000
0001
0100
0000
1000
,
0000
0000
0110
0000
0001
0100
0001
0000
,
1000
0000
0100
0000
1000
0100
0000
0001
,
0000
0000
0110
0000
1000
0100
1000
0000
,
0001
0000
0100
0000
0010
1000
0000
1001
,
0000
1000
0100
0000
0010
0000
0001
0000
,
1000
0000
0010
0000
0100
0001
0000
1001
,
0000
0001
0010
0000
0100
0000
1000
0000
,
0001
0000
0010
0000
0001
0010
0000
1000
,
0000
0000
0110
0000
0001
0010
0001
0000
,
1000
0000
0010
0000
1000
0010
0000
0001
,
0000
0000
0110
0000
1000
0010
1000
0000
,
0001
0000
0010
0000
0001
0100
0000
1010
,
0000
1000
0100
0000
0010
0000
0001
0000
,
1000
0000
0010
0000
1000
0100
0000
0011
,
0000
0001
0100
0000
0010
0000
1000
0000
,
0002
0000
0013
0000
,
0100
0010
0012
0103
,
2010
0000
3002
0000
,
1003
0010
0110
0110
,
2000
0010
3010
0000
,
0100
0010
2010
3100
,
0012
0000
2003
0000
,
3001
0010
0110
0110
,
1000
0010
0001
0100
0000
1000
1001
1000
,
0001
0100
1000
0100
0001
0010
2002
3003
,
0011
0000
1100
0000
0011
0000
0000
0001
,
0010
0001
1000
0000
0001
0100
0001
0100
,
0002
0003
0200
0300
0002
0000
0003
0000
,
1000
0100
0010
0000
0001
0100
0010
0000
,
1000
0001
1001
0000
,
2000
0000
0100
0000
3001
0100
0001
0000
,
0100
0010
1000
0100
,
0022
0033
2200
3300
,
1010
0000
0101
0000
1010
0000
0000
1000
,
0010
1000
0001
0000
1000
0100
1000
0100
,
2000
3000
0200
0300
2000
0000
3000
0000
,
0001
0100
0010
0000
1000
0100
0010
0000
,
0001
1000
1001
0000
,
0002
0000
0100
0000
1003
0100
1000
0000
,
0100
0010
0001
0100
,
2010
3010
0102
0103
,
0000
0000
0000
0110
1001
0000
0001
0000
,
0100
0010
1000
1000
,
0001
0010
0220
0330
,
1000
0001
1000
0000
1001
0000
0110
0000
,
2002
3003
0000
0000
;

//---------------dance-single - ----------------
#NOTEDATA:;
#CHARTNAME:;
#STEPSTYPE:dance-single;
#DESCRIPTION:;
#CHARTSTYLE:;
#DIFFICULTY:Easy;
#METER:8;
#RADARVALUES:0.415857,0.530409,0.571485,0.375037,0.053577,326.000000,262.000000,64.000000,42.000000,0.000000,0.000000,0.000000,0.000000,0.000000,0.415857,0.530409,0.571485,0.375037,0.053577,326.000000,262.000000,64.000000,42.000000,0.000000,0.000000,0.000000,0.000000,0.000000;
#CREDIT:;
#OFFSET:-0.087210;
#BPMS:0.000000=98.000000
,48.000000=196.000000
,208.000000=98.000000
,216.000000=196.000000
,280.000000=98.000000
,282.000000=196.000000
;
#STOPS:;
#DELAYS:;
#WARPS:;
#TIMESIGNATURES:0.000000=4=4
;
#TICKCOUNTS:0.000000=4
;
#COMBOS:0.000000=1
;
#SPEEDS:0.000000=1.000000=0.000000=0
;
#SCROLLS:0.000000=1.000000
;
#FAKES:;
#LABELS:0.000000=Song Start
;
#NOTES:
0000
0000
0000
0000
,
0000
0000
0000
0000
,
0001
1000
0100
0000
0010
0010
0010
0000
,
1001
0000
0110
0000
0100
0010
2001
0000
,
3001
0000
0000
0000
1000
0000
0000
0000
0010
0000
0000
0100
0000
0000
0002
0000
,
0000
0000
1003
0000
0200
0000
0000
0000
0310
0000
0000
0001
0000
0001
0000
0000
,
1000
0000
0000
0000
0001
0000
0000
0000
0010
0000
0000
0100
0000
0000
2000
0000
,
0000
0000
3010
0000
0100
0000
0100
0000
0001
0000
0000
1000
0000
1000
0000
0000
,
0001
0000
0000
0000
1000
0000
0000
0000
0010
0000
0000
1000
0000
0000
0200
0000
,
0000
0000
0310
0000
0002
0000
0000
0000
0103
0000
0000
0010
0000
0010
0000
0000
,
1000
0000
0000
0000
0001
0000
0000
0000
1001
0000
0000
0110
0000
0000
1002
0000
,
0000
0000
0000
0000
0013
0000
0100
0000
1000
0000
0000
0001
0000
0000
1000
0000
,
1001
0000
0000
0100
,
1001
0000
0000
1001
,
1000
1000
0100
0100
,
0010
0001
0100
0010
,
1001
0000
0000
0100
,
1001
0000
0000
1001
,
0001
0100
0020
0030
,
1001
0110
1001
1001
,
0002
0000
0000
0103
0000
0000
0101
0000
,
2000
0000
0000
3100
0000
0000
1100
0000
,
0001
0100
1000
0100
,
0001
1000
0100
0010
,
0012
0000
0000
0103
0000
0000
0010
0000
,
2010
0000
0000
3100
0000
0000
0010
0000
,
0001
0100
0010
1000
,
1001
0110
1001
1001
,
0001
0010
0001
0000
,
0010
0001
0100
0010
,
1000
0010
1000
0000
,
0010
1000
0100
0010
,
0001
0100
1000
0000
,
1000
0100
0001
1000
,
0001
0010
1000
0000
,
1000
0010
0001
1000
,
0001
0100
0001
0000
,
0100
0001
0010
0100
,
1000
0100
1000
0000
,
0100
1000
0010
0100
,
0001
0010
1000
0000
,
1000
0010
0001
1000
,
0001
0100
1000
0000
,
1000
0100
0001
0010
,
0200
0300
0110
0000
,
0100
0010
2002
3003
,
0002
0003
0101
0000
,
0001
1000
0001
0001
,
0200
0300
0110
0000
,
0100
0010
2002
3003
,
2000
3000
1100
0000
,
0001
1000
0001
0001
,
1001
0000
0000
0000
0010
0000
0000
0000
0000
0010
0000
0000
1001
0000
0000
0000
,
1000
0100
0010
0000
0001
0100
0220
0330
,
1010
0000
1010
0000
0011
0000
0000
0001
,
0010
0001
0101
1100
,
1000
1000
0001
1001
,
2000
3200
0302
0023
,
1030
0100
0110
0000
,
2001
0010
0010
3010
,
1000
0100
0011
1100
,
2020
3030
0202
0303
,
0011
0000
0011
0000
1010
0000
0000
1000
,
0010
1000
1100
0101
,
0001
0001
1000
1001
,
0002
0203
2300
3020
,
0031
0100
0110
0000
,
1002
0010
0010
0013
,
0001
0100
1010
0101
,
0022
0033
1100
0011
,
0000
0000
0000
1001
0001
0000
1000
0000
,
0100
0000
0010
0010
,
0010
0000
2002
3003
,
0110
0000
1001
0110
,
2002
3003
0000
0000
;

//---------------dance-single - ----------------
#NOTEDATA:;
#CHARTNAME:;
#STEPSTYPE:dance-single;
#DESCRIPTION:;
#CHARTSTYLE:;
#DIFFICULTY:Beginner;
#METER:4;
#RADARVALUES:0.242371,0.356620,0.205377,0.053577,0.000000,190.000000,167.000000,23.000000,6.000000,0.000000,0.000000,0.000000,0.000000,0.000000,0.242371,0.356620,0.205377,0.053577,0.000000,190.000000,167.000000,23.000000,6.000000,0.000000,0.000000,0.000000,0.000000,0.000000;
#CREDIT:;
#OFFSET:-0.087210;
#BPMS:0.000000=196.000000
;
#STOPS:;
#DELAYS:;
#WARPS:;
#TIMESIGNATURES:0.000000=4=4
;
#TICKCOUNTS:0.000000=4
;
#COMBOS:0.000000=1
;
#SPEEDS:0.000000=1.000000=0.000000=0
;
#SCROLLS:0.000000=1.000000
;
#FAKES:;
#LABELS:0.000000=Song Start
;
#NOTES:
0000
0000
0000
0000
,
0000
0000
0000
0000
,
0000
0000
0000
0000
,
0000
0000
0000
0000
,
0001
0000
0000
0000
,
1000
0000
0000
0000
,
0001
0000
0001
0000
,
1000
0000
1001
0000
,
0001
0000
0000
0000
,
0100
0000
0100
0000
,
0100
0000
0000
0000
,
0010
0000
0000
0000
,
1000
0000
0000
0000
,
0100
0000
0100
0000
,
0100
0000
0000
0000
,
0010
0000
0000
0000
,
0001
0000
0000
0000
,
0100
0000
0100
0000
,
0100
0000
0000
0000
,
1000
0000
0000
0000
,
0100
0000
0000
0000
,
0001
0000
0000
2002
,
0000
3003
0000
0000
,
0001
0000
1000
0000
,
1001
0000
0000
0000
,
1001
0000
0000
0000
,
1000
0000
0100
0000
,
0010
0000
0001
0000
,
1001
0000
0000
0000
,
1001
0000
0000
0000
,
0001
0000
0100
0000
,
1001
0000
0110
0000
,
1001
0000
1000
0000
,
0001
0000
0001
0000
,
0100
0100
0100
0000
,
0010
0010
0010
0000
,
1000
0000
1000
0000
,
0001
0000
0001
0000
,
0010
0010
0010
0000
,
1001
0000
1001
1001
,
0000
0001
0000
1000
,
0000
0100
0100
0100
,
0000
1000
0000
0001
,
0000
0100
0100
0100
,
0000
0010
0000
1000
,
0000
0100
0100
0100
,
0000
0010
0000
0001
,
0000
0100
0100
0100
,
0000
0001
0000
1000
,
0000
0010
0010
0010
,
0000
1000
0000
0001
,
0000
0010
0010
0010
,
0000
0100
0000
1000
,
0000
0010
0010
0010
,
0000
0100
0000
0001
,
0000
0010
0010
0000
,
0002
0000
0003
0000
,
0100
0000
1001
0000
,
1000
0000
0001
0000
,
1000
0000
0100
0000
,
2000
0000
3000
0000
,
0100
0000
1001
0000
,
0001
0000
1000
0000
,
0001
0000
0100
0100
,
0100
0000
0110
0000
,
0000
0000
0110
0000
,
1000
0000
0001
0000
,
0010
0000
0110
0000
,
1000
1000
1000
0000
,
0100
0000
0001
0000
,
1000
1000
1000
0000
,
0001
0000
0100
0000
,
1000
1000
1000
0000
,
0010
0000
0100
0000
,
0001
0000
0010
0000
,
1001
0000
0110
0000
,
0001
0001
0001
0000
,
0100
0000
1000
0000
,
0001
0001
0001
0000
,
1000
0000
0100
0000
,
0001
0001
0001
0000
,
0010
0000
0100
0000
,
1000
0000
0010
0000
,
1001
0000
0010
0010
,
0000
0000
0000
0000
,
0001
0000
0001
0000
,
1000
0000
1000
0000
,
0001
0000
1000
0000
,
1001
1001
2002
3003
;
