#VERSION:0.83;
#TITLE:Moon Trance;
#SUBTITLE:;
#ARTIST:Lindsey Stirling;
#TITLETRANSLIT:;
#SUBTITLETRANSLIT:;
#ARTISTTRANSLIT:;
#GENRE:Violin Electro;
#ORIGIN:;
#CREDIT:;
#BANNER:Moon Trance.png;
#BACKGROUND:Moon Trance-bg.png;
#PREVIEWVID:;
#JACKET:Moon Trance-jacket.png;
#CDIMAGE:;
#DISCIMAGE:;
#LYRICSPATH:;
#CDTITLE:cdtitle.png;
#MUSIC:Moon Trance.ogg;
#OFFSET:-0.101792;
#SAMPLESTART:15.098791;
#SAMPLELENGTH:14.999999;
#SELECTABLE:YES;
#BPMS:0.000=64.000,
16.000=128.000,
112.000=64.000,
128.000=128.000;
#STOPS:;
#DELAYS:;
#WARPS:;
#TIMESIGNATURES:0.000=4=4;
#TICKCOUNTS:0.000=4;
#COMBOS:0.000=1;
#SPEEDS:0.000=1.000=0.000=0;
#SCROLLS:0.000=1.000;
#FAKES:;
#LABELS:0.000=Song Start;
#BGCHANGES:;
#KEYSOUNDS:;
#ATTACKS:
;

//---------------dance-single - ----------------
#NOTEDATA:;
#CHARTNAME:;
#STEPSTYPE:dance-single;
#DESCRIPTION:;
#CHARTSTYLE:;
#DIFFICULTY:Challenge;
#METER:15;
#RADARVALUES:0.729391,1.085835,0.053907,0.500562,1.031928,663.000000,656.000000,7.000000,65.000000,49.000000,0.000000,0.000000,0.000000,0.000000,0.729391,1.085835,0.053907,0.500562,1.031928,663.000000,656.000000,7.000000,65.000000,49.000000,0.000000,0.000000,0.000000,0.000000;
#CREDIT:;
#NOTES:
0000
0000
0000
0000
,
0000
0000
0000
0000
,
0001
0000
0000
0001
1000
0000
0000
1000
0100
0000
0100
0010
0001
0000
0000
0001
0100
0000
0000
0100
0010
0000
0000
0010
1000
0000
1000
0001
0010
0000
0001
0000
,
1000
0000
0000
1000
0010
0000
0000
0010
0100
0000
0100
0001
1000
0000
0000
1000
0200
0000
0000
0000
0320
0000
0000
0000
0032
0000
0000
0000
1003
0010
0100
0001
,
2000
0000
0000
0000
3001
1000
0001
1000
0000
0001
0100
0001
0010
0001
0100
0010
,
1000
0100
1000
0001
0100
0010
0100
0001
0020
0000
0000
0000
0130
0010
0001
1000
,
0010
0000
0100
0010
0100
0000
0100
0000
0010
1000
0010
0100
0001
0010
0100
1000
,
0200
0000
0000
0000
0302
0000
0000
0000
0203
0000
0000
0000
13MM
0100
0010
0100
,
2000
0000
0000
0000
3001
1000
0001
0100
0000
0001
0100
0001
1000
0100
1000
0010
,
0100
0001
0000
0002
0000
0000
1003
0010
1000
0000
0010
1000
0001
0010
0100
0000
,
0010
0100
1000
0001
1000
0100
0010
0000
0100
1000
0010
0100
0001
1000
0001
0000
,
0200
2300
3200
0302
,
1003
0001
0100
0001
1000
0100
0010
0100
1000
0001
0100
0001
1000
0100
0010
0100
,
1000
0010
0100
0010
1000
0001
0010
0001
1000
0010
0100
0010
1000
0001
0010
0001
,
1000
0001
0100
0001
1000
0100
0010
0100
1000
0001
0100
0001
1000
0100
0010
0100
,
0010
0001
0100
0001
0010
0100
1000
0100
0010
0001
1000
0001
0100
0010
0100
0001
,
1000
0010
0100
0010
1000
0100
0010
0100
1000
0010
0100
0010
1000
0100
0010
0001
,
0100
0010
0100
0001
0010
0100
0010
0001
0100
0010
0100
0001
0010
0100
0010
0001
,
1000
0010
0200
0000
1300
0100
0002
0000
,
0023
0100
0230
1000
1300
0010
M2M2
0303
,
1002
0000
0000
0000
1003
0010
1000
0100
1000
0000
0001
0000
0100
0000
0010
0000
,
2010
0000
0000
0000
3001
0010
0001
0100
0001
1000
0010
1000
0100
1000
0010
0100
,
0002
0000
0000
0000
0013
0100
0010
0001
2000
0000
0000
0000
0000
3010
1000
0010
,
1000
0100
1000
0100
0010
0100
1000
0001
0100
0010
1000
0100
0010
0000
0001
0000
,
2001
0000
0000
0000
3010
1000
0100
1000
0001
0100
0001
1000
0100
0010
0100
1000
,
0001
0000
0000
0100
0000
0000
0001
0000
0000
0100
0000
0000
0010
0000
1000
0000
0010
0000
1000
0000
0000
0001
0000
0000
1000
0000
0000
0100
0000
0000
1000
0000
0000
0001
0000
0000
1000
0000
0000
0010
0000
0000
0100
0000
0000
0001
0000
0000
,
0020
0000
0000
0000
0130
1000
0001
0100
0020
0000
0000
0000
0130
0001
1000
0100
,
0010
0000
0001
0000
0010
0000
0100
0000
1000
0010
0100
0001
MM10
0001
0100
0002
,
2000
0000
0000
0000
0000
0000
0000
0000
3003
0000
0000
0000
0000
0000
0000
0200
,
0000
0000
0020
0000
0000
0330
0000
MMMM
,
2001
0000
0000
0000
3100
0000
0010
0000
0100
0000
1000
0000
0001
0000
0100
0000
0010
0100
0010
0100
0001
0100
0010
0100
0001
0010
0001
0010
0200
0000
0000
0000
,
0000
0000
0310
0100
0010
0001
0010
0001
1000
0010
1000
0010
0200
0000
0000
0000
0000
0000
0310
0100
0010
1000
0010
0100
0001
0010
0100
1000
00M1
0100
0010
1000
,
0002
0000
0000
0000
1003
0100
1000
0100
0000
1000
0001
0100
M01M
0100
0001
1000
,
0100
0010
0100
1000
0010
1000
0001
0010
0200
0000
0000
0000
M31M
0100
1000
0010
,
0100
0000
0001
0100
0001
0000
0001
0000
1000
0010
0100
0001
MM10
0001
1000
0010
,
0200
0000
0000
0000
2300
0000
0000
0000
3200
0000
0000
0000
M3M1
0100
0010
0100
,
M0M2
0000
0000
0000
0103
0010
1000
0001
0000
1000
0001
1000
01MM
1000
0001
0100
,
0010
1000
0000
2000
0000
0000
3001
0010
0001
0000
1000
0010
M10M
0010
1000
0000
,
0001
0010
0100
0010
0001
1000
0010
0000
1000
0010
0100
0001
1MM0
0001
0010
0000
,
0200
0302
0203
23MM
,
3MM1
0100
0001
1000
0001
0010
1M0M
0010
,
0001
0100
0010
1000
0001
0100
10MM
0100
,
0001
0010
0100
0010
0002
0000
0000
0000
1003
0010
0100
0010
2M0M
0000
0000
0000
,
3001
0000
0010
0000
0100
0000
1000
0000
0020
0000
0000
0000
M23M
0000
0000
0300
,
M1M2
0000
0000
0000
0013
0001
0100
0001
1000
0000
0001
0000
M10M
0000
0010
0000
,
2010
0000
0000
0000
3010
1000
0100
1000
0001
0010
0001
0100
M01M
0100
0010
1000
,
0002
0000
0000
0000
0013
0001
0100
0010
2000
0000
0000
0000
3M1M
1000
0100
0010
,
0001
0000
0010
0000
0100
0000
1000
0000
0010
1000
0010
0100
M0M1
0000
1000
0000
,
0001
1000
0100
1000
0001
0100
0001
1000
0100
0010
0100
1000
0001
0010
0001
0000
,
1000
0000
0001
0100
0001
0100
0010
0000
0010
0000
1000
0100
1000
0100
0020
0000
,
0000
0000
0031
1000
0001
1000
0020
0000
0000
0000
0130
0010
0100
0010
1000
0000
,
0001
1000
0010
1000
0001
1000
0100
1000
0001
0100
0010
0100
0001
0010
0100
0000
,
1000
0001
0100
0010
1000
0010
0001
0010
,
1000
0100
0010
0100
1000
0010
0100
0001
,
1000
0001
0010
0001
0100
1000
0100
0001
,
0020
0230
2300
3002
,
0203
0000
0000
0000
0301
0100
0001
0100
0000
0001
0100
0010
1000
0010
0100
0001
,
1000
0100
0010
0100
1000
0100
0010
0001
2000
0000
0000
0000
3001
0100
0010
1000
,
0001
0000
0010
0100
0010
0000
0010
0000
0001
0010
0100
1000
0001
0100
0010
1000
,
0002
0203
2300
3020
,
0030
0000
0000
0000
;

//---------------dance-single - ----------------
#NOTEDATA:;
#CHARTNAME:;
#STEPSTYPE:dance-single;
#DESCRIPTION:;
#CHARTSTYLE:;
#DIFFICULTY:Hard;
#METER:12;
#RADARVALUES:0.541267,0.693086,0.223328,0.639179,0.284935,492.000000,463.000000,29.000000,83.000000,0.000000,0.000000,0.000000,0.000000,0.000000,0.541267,0.693086,0.223328,0.639179,0.284935,492.000000,463.000000,29.000000,83.000000,0.000000,0.000000,0.000000,0.000000,0.000000;
#CREDIT:;
#NOTES:
0000
0000
0000
0000
,
0000
0000
0000
0000
,
0001
0000
0100
0000
0010
1000
0100
0000
1000
0000
0001
0000
0010
0001
0100
0000
,
0010
0000
1000
0000
0100
1000
0020
0000
2030
0000
3002
0000
0023
0000
0130
1000
,
1002
0000
0000
0000
1003
0000
0001
0100
0000
0001
0100
0000
0010
0000
1000
0000
,
0100
0001
0100
1000
0020
0000
0130
0001
,
0010
0000
0001
1000
0001
0000
1000
0000
0010
0000
1000
0000
0100
0000
0010
0000
,
0022
0033
0202
0303
2002
3003
1100
0100
,
0020
0000
0000
0000
0031
0000
0100
0010
0000
1000
0001
0000
0010
0000
0001
0000
,
1000
0010
0000
0020
0000
0000
0130
0000
0001
0000
0010
0000
0100
1000
0100
0000
,
0010
0001
0100
1000
0100
0001
0010
0100
,
2200
3300
2020
3030
2002
3003
0022
0033
,
0001
0100
0001
0010
0001
0100
0001
0010
,
0100
1000
0010
1000
0100
1000
0010
1000
,
0001
0100
0001
0010
0001
0100
0001
0010
,
1000
0010
0001
0100
1000
0001
0010
1000
,
0001
0010
0001
1000
0001
0010
0001
1000
,
0010
0100
0010
1000
0010
0100
0010
0001
,
0010
1000
0200
0000
0301
0100
2000
0000
,
3020
0100
0230
0001
0301
0010
0220
0330
,
1002
0000
0000
0000
1003
0010
1000
0000
0100
0000
0010
0000
0001
0000
0100
0000
,
0020
0000
0000
0000
1030
0010
1000
0000
0100
0000
0001
0000
0100
0000
0010
0000
,
0002
0000
0000
0000
1003
0001
1000
0000
0200
0000
0000
0000
0300
0010
0001
0000
,
0100
0010
0100
0000
0001
1000
0001
0000
1000
0100
1000
0000
0010
0000
0100
0000
,
0002
0000
0000
0000
0013
0001
0010
0000
0001
0000
0100
0000
1000
0000
0100
0000
,
0001
0100
0001
0000
0100
0010
0100
0000
0010
1000
0010
0000
1000
0001
1000
0001
,
2000
0000
0000
0000
3001
1000
0001
1000
0002
0000
0000
0000
1003
0001
1000
0001
,
1000
0000
0100
0000
0001
0000
0100
0000
1000
0010
1000
0000
0100
0000
0010
0000
,
2002
0000
0000
0000
0000
0000
0000
0000
3003
0000
0000
0000
0000
0000
0000
0200
,
0000
0000
0020
0000
0000
0330
0000
0110
,
2001
0000
3001
0010
0100
1000
0001
0100
0010
0010
1000
1000
0001
0001
0020
0000
,
0000
0031
0100
0100
0010
0010
2000
0000
0000
3010
0100
0001
0010
0100
1000
0001
,
2001
0000
0000
0000
3001
0000
1000
0100
0000
1000
0100
0000
0010
0000
0001
0000
,
0100
1000
0100
0001
0020
0000
0031
1000
,
0010
0000
0100
0001
0100
0000
0001
0000
0010
0000
0100
0000
1000
0000
0001
0000
,
0202
0303
0220
0330
2020
3030
1001
0001
,
0021
0000
0000
0000
0031
0000
0100
0010
0000
1000
0010
0000
1000
0000
0100
0000
,
0010
0001
0000
0002
0000
0000
1003
0000
0001
0000
0100
0000
1000
0000
0100
0000
,
0010
1000
0100
0001
0100
1000
0010
1000
,
2200
3300
0220
0330
0022
0033
2002
3003
,
1000
0100
1000
0010
0001
0010
1000
0100
,
0010
0100
0001
1000
0010
0001
0100
0010
,
1000
0010
1000
0010
2000
0000
0000
0000
3001
0010
0001
0010
0002
0000
0000
0000
,
1003
0100
0001
0100
2000
0000
3010
0000
,
0102
0000
0000
0000
1003
0001
1000
0001
1000
0000
0100
0000
0010
0000
0001
0000
,
2000
0000
0000
0000
3001
1000
0001
1000
0001
0000
0100
0000
1000
0000
0100
0000
,
0002
0000
0000
0000
0013
0100
0010
0100
0020
0000
0000
0000
0130
0010
0100
0010
,
0100
0000
0010
0000
0001
0000
1000
0000
0001
0100
0001
0100
0001
0000
1000
0000
,
0010
1000
0100
1000
0010
0100
0001
0010
,
0001
0000
0100
0000
0010
0000
1000
0000
1000
0000
0001
0100
0001
0100
0002
0000
,
0000
0000
1003
0010
1000
0010
2000
0000
0000
0000
3001
0010
0001
0010
0001
0000
,
1000
0010
0001
0010
1000
0010
0001
0010
,
1000
0100
1000
0001
0010
1000
0010
0001
,
0100
0010
1000
0100
0001
0100
1000
0010
,
1000
0100
0010
0001
0100
1000
0100
0001
,
0020
0032
0203
0320
,
2030
0000
0000
0000
3001
0000
1000
0100
0000
1000
0100
0000
0010
0000
0001
0000
,
0100
1000
0100
0001
0020
0000
0130
1000
,
0010
0000
1000
0001
1000
0000
0001
0000
0010
0000
0001
0000
0100
0000
0010
0000
,
2020
3030
2200
3300
2002
3003
0220
0000
,
0330
0000
0000
0000
;

//---------------dance-single - ----------------
#NOTEDATA:;
#CHARTNAME:;
#STEPSTYPE:dance-single;
#DESCRIPTION:;
#CHARTSTYLE:;
#DIFFICULTY:Medium;
#METER:8;
#RADARVALUES:0.391649,0.415852,0.369646,0.323440,0.003850,356.000000,308.000000,48.000000,42.000000,0.000000,0.000000,0.000000,0.000000,0.000000,0.391649,0.415852,0.369646,0.323440,0.003850,356.000000,308.000000,48.000000,42.000000,0.000000,0.000000,0.000000,0.000000,0.000000;
#CREDIT:;
#NOTES:
0000
0000
0000
0000
,
0000
0000
0000
0000
,
1000
1000
0010
0010
0100
0100
0001
0001
,
0010
0001
0100
0010
1000
0100
0010
0001
,
2001
0000
3001
1000
0001
0000
0100
0000
,
0010
1000
0100
0010
0002
0000
0103
0001
,
0010
0000
0100
0000
0010
0001
1000
0000
,
1100
0000
0110
0000
0011
0000
0001
0100
,
0020
0000
1030
0001
1000
0000
0100
0010
,
0001
0000
0002
0000
0103
0010
1000
0000
,
0010
1000
0100
0000
0010
0001
0100
0000
,
0101
0110
1010
0011
,
1001
0000
0001
0000
1000
0000
0001
1000
,
0100
0000
1000
0000
0100
0000
0010
0001
,
0100
0000
0001
0000
0100
0000
0001
1000
,
0100
0010
0100
0000
0010
0001
0100
0000
,
1001
0000
1000
0000
0001
0000
1000
0010
,
0100
0000
0010
0000
0100
0000
0001
0010
,
0100
0010
0002
0000
0103
0010
2000
0000
,
3020
0000
0230
0000
1300
0100
0001
0000
,
1002
0000
0013
0001
0100
0000
0010
0000
,
2001
0000
3010
1000
0100
1000
0100
0000
,
0120
0000
0031
1000
0200
0000
0000
0310
,
0001
0000
0100
0000
0010
1000
0001
0000
,
2001
0000
3001
0100
0010
1000
0100
0000
,
1000
0100
1000
0100
0010
0000
0001
0010
,
0002
0000
1003
0010
2000
0000
3001
0010
,
0001
1000
0001
0000
1000
0010
0100
0000
,
2002
0000
0000
0000
0000
0000
0000
0000
3003
0000
0000
0000
0000
0000
0000
0200
,
0000
0000
0020
0000
0000
0330
0000
0110
,
1002
0013
0001
0100
0001
0001
1000
0020
,
0030
1000
0001
0020
0030
0100
0010
0110
,
1002
0000
0103
0001
0100
0000
1001
0000
,
1000
0100
0010
0001
0200
0300
1010
1000
,
0001
0000
0100
0000
0001
0010
0011
0000
,
0101
0110
1010
1100
,
0012
0000
0013
0100
0010
0000
1001
0001
,
0100
0000
0200
0000
0310
1000
1010
0000
,
0010
0100
0001
0000
0010
0100
0110
0000
,
1100
1001
0011
0101
,
1010
0000
0010
0000
1000
1000
1001
0000
,
0001
0000
0010
0000
0001
0001
1001
0000
,
1000
1000
2000
0000
3001
0001
1002
0000
,
1003
0001
1000
0001
0020
0030
1200
0300
,
0021
0000
0031
0010
0100
0000
1100
0000
,
2000
0000
3010
0100
0001
0000
0101
0000
,
0020
0000
1030
0001
2000
3000
1001
0000
,
0001
1000
0100
0000
0010
0100
0110
0000
,
0001
0000
1000
0000
0001
0000
1000
0001
,
0010
0000
0001
1000
0010
0000
1000
2000
,
0000
3100
0100
0200
0000
0310
0001
0000
,
0010
0100
0010
0100
0010
0001
1000
0000
,
0001
0000
0100
0000
0010
0000
1000
0100
,
0010
0000
0001
0000
1000
0000
0100
1000
,
0001
0000
0100
0000
0010
0000
1000
0001
,
0020
0032
2003
3020
,
1030
1000
1000
0100
,
0010
0001
0100
0010
,
1000
1000
0100
0010
,
0011
0101
1001
2020
,
3030
0000
0000
0000
;

//---------------dance-single - ----------------
#NOTEDATA:;
#CHARTNAME:;
#STEPSTYPE:dance-single;
#DESCRIPTION:;
#CHARTSTYLE:;
#DIFFICULTY:Easy;
#METER:5;
#RADARVALUES:0.284935,0.346543,0.338842,0.315739,0.000000,259.000000,215.000000,44.000000,41.000000,0.000000,0.000000,0.000000,0.000000,0.000000,0.284935,0.346543,0.338842,0.315739,0.000000,259.000000,215.000000,44.000000,41.000000,0.000000,0.000000,0.000000,0.000000,0.000000;
#CREDIT:;
#NOTES:
0000
0000
0000
0000
,
0000
0000
0000
0000
,
1000
0100
0001
0100
,
1000
0000
0010
0000
0100
0100
0100
0010
,
1001
1000
1000
0010
,
0100
0001
0020
0030
,
0001
0100
0010
1000
,
1100
1001
1010
0101
,
0011
0001
0100
0010
,
1000
2000
3000
0100
,
0010
0001
0100
0010
,
1010
1001
1100
0011
,
1001
1000
0001
0001
,
1000
1000
0001
0001
,
1000
1000
0001
0001
,
0010
0001
0100
0010
,
1001
1000
0100
0100
,
0010
0010
0001
0001
,
0100
0200
0310
0020
,
1030
0001
1000
0110
,
2001
0000
3001
0100
,
1002
0000
1003
0100
,
0012
0000
0203
0000
,
0310
1000
0001
0010
,
0210
0000
1300
0100
,
0001
0010
1000
0100
,
0022
0033
0022
0033
,
0001
1000
0010
0110
,
2002
0000
3003
0000
,
0200
0000
0020
0000
0000
0030
0000
0300
,
1002
0000
1003
0000
0001
0001
0001
2000
,
0000
3010
0010
0200
0000
0301
0001
1000
,
1001
0001
0001
0100
,
1000
0100
0002
0003
,
1000
0100
0010
0001
,
0101
0011
1001
0110
,
1001
1000
0100
0001
,
0100
2000
3000
0010
,
0001
0010
1000
0100
,
1100
1010
1001
0110
,
1001
1000
0010
0100
,
0001
0001
0010
0100
,
1000
2000
3001
0002
,
0103
1000
0100
0001
,
0021
0000
0130
1000
,
1020
0000
0130
0001
,
0022
0033
0022
0033
,
0100
1000
0001
0100
,
0001
0001
1000
1000
,
0100
0100
0010
2002
,
3003
2200
3300
0011
,
0001
0001
0001
0100
,
0010
0100
0010
1000
,
0100
1000
0001
0100
,
0001
0010
0001
1000
,
0020
2030
3002
0203
,
0301
0001
0001
0010
,
0100
1000
0020
0030
,
1000
0100
0010
0001
,
0011
0101
1001
2020
,
3030
0000
0000
0000
;

//---------------dance-single - ----------------
#NOTEDATA:;
#CHARTNAME:;
#STEPSTYPE:dance-single;
#DESCRIPTION:;
#CHARTSTYLE:;
#DIFFICULTY:Beginner;
#METER:2;
#RADARVALUES:0.144118,0.183283,0.038505,0.023103,0.000000,131.000000,126.000000,5.000000,3.000000,0.000000,0.000000,0.000000,0.000000,0.000000,0.144118,0.183283,0.038505,0.023103,0.000000,131.000000,126.000000,5.000000,3.000000,0.000000,0.000000,0.000000,0.000000,0.000000;
#CREDIT:;
#OFFSET:-0.101792;
#BPMS:0.000000=128.000000
;
#STOPS:;
#DELAYS:;
#WARPS:;
#TIMESIGNATURES:0.000000=4=4
;
#TICKCOUNTS:0.000000=4
;
#COMBOS:0.000000=1
;
#SPEEDS:0.000000=1.000000=0.000000=0
;
#SCROLLS:0.000000=1.000000
;
#FAKES:;
#LABELS:0.000000=Song Start
;
#NOTES:
0000
0000
0000
0000
,
0000
0000
0000
0000
,
0000
0000
0000
0000
,
0000
0000
0000
0000
,
1000
0000
0000
0000
,
0001
0000
0000
0000
,
1000
0000
0000
0000
,
0001
0000
1000
0000
,
1001
0000
0001
0000
,
0100
0000
0010
0000
,
1000
0000
0100
0000
,
0010
0010
0010
0010
,
0010
0000
0001
0000
,
0100
0000
0100
0000
,
0010
0000
1000
0000
,
0001
0001
0001
0001
,
0001
0000
0001
0000
,
1000
0000
1000
0000
,
0001
0000
0001
0000
,
0100
0100
0100
0100
,
0100
0000
0100
0000
,
0010
0000
0010
0000
,
1000
0000
1000
0000
,
0001
0000
0000
0000
,
1001
0000
0001
0000
,
1000
0000
0001
0000
,
0010
0000
0100
0000
,
1000
0000
0001
0000
,
0100
0000
0100
0000
,
0010
0000
1000
0000
,
0001
0000
0001
0000
,
0010
0000
0100
0000
,
2002
0000
0000
0000
,
3003
0000
0000
0000
,
0000
0000
0000
0000
,
0000
0000
0000
0000
,
1001
0000
0000
0000
,
0100
0000
0000
0000
,
0010
0000
0000
0000
,
1000
0000
0001
0000
,
1001
0000
1000
0000
,
0100
0000
0010
0000
,
0001
0000
0100
0000
,
0010
0010
0010
0010
,
0010
0000
1000
0000
,
0100
0000
0100
0000
,
0010
0000
0001
0000
,
1000
1000
1000
1000
,
1000
0000
0000
0100
,
0100
0000
0000
0010
,
0010
0000
0001
0000
,
0100
0000
0010
0010
,
0010
0000
0000
1000
,
1000
0000
0000
0001
,
0001
0000
0001
0000
,
0100
0000
0010
0000
,
1000
0000
0001
0000
,
1000
0000
0001
0000
,
0100
0000
0010
0000
,
1000
1000
1000
1000
,
1000
0000
0100
0000
,
0010
0000
0001
0000
,
0010
0000
0100
0000
,
1000
0000
0010
0000
,
1000
0000
0000
0000
,
0100
0000
0000
0000
,
0010
0000
0000
0000
,
0001
0001
0001
0002
,
0003
0000
0000
0000
;
