#VERSION:0.83;
#TITLE:Miss Murder's Personal Jesus;
#SUBTITLE:;
#ARTIST:Celldweller;
#TITLETRANSLIT:;
#SUBTITLETRANSLIT:;
#ARTISTTRANSLIT:;
#GENRE:Complextro Mashup;
#ORIGIN:;
#CREDIT:;
#BANNER:Miss Murder's Personal Jesus.png;
#BACKGROUND:Miss Murder's Personal Jesus-bg.png;
#PREVIEWVID:;
#JACKET:Miss Murder's Personal Jesus-jacket.png;
#CDIMAGE:;
#DISCIMAGE:;
#LYRICSPATH:;
#CDTITLE:cdtitle.png;
#MUSIC:Miss Murder's Personal Jesus.ogg;
#OFFSET:-0.058549;
#SAMPLESTART:56.947437;
#SAMPLELENGTH:14.222229;
#SELECTABLE:YES;
#BPMS:0.000=135.000;
#STOPS:124.000=1.333;
#DELAYS:;
#WARPS:;
#TIMESIGNATURES:0.000=4=4;
#TICKCOUNTS:0.000=4;
#COMBOS:0.000=1;
#SPEEDS:0.000=1.000=0.000=0;
#SCROLLS:0.000=1.000;
#FAKES:;
#LABELS:0.000=Song Start;
#BGCHANGES:;
#KEYSOUNDS:;
#ATTACKS:
;

//---------------dance-single - ----------------
#NOTEDATA:;
#CHARTNAME:;
#STEPSTYPE:dance-single;
#DESCRIPTION:;
#CHARTSTYLE:;
#DIFFICULTY:Challenge;
#METER:13;
#RADARVALUES:0.590608,0.700022,0.134127,0.418159,1.061177,524.000000,507.000000,17.000000,53.000000,49.000000,0.000000,0.000000,0.000000,0.000000,0.590608,0.700022,0.134127,0.418159,1.061177,524.000000,507.000000,17.000000,53.000000,49.000000,0.000000,0.000000,0.000000,0.000000;
#CREDIT:;
#NOTES:
// measure 0
0000
0000
0000
0000
,  // measure 1
0000
0000
0000
0000
,  // measure 2
0000
0000
0000
0000
,  // measure 3
0000
0000
0000
0000
,  // measure 4
1000
0000
0000
0001
0000
0001
0100
0000
0000
0001
0000
1000
,  // measure 5
0001
0000
0001
1000
0000
1000
0100
0000
0000
1000
0000
0001
,  // measure 6
0100
0000
0000
0010
0000
0010
0100
0000
0000
0010
0000
2000
,  // measure 7
0002
0000
0000
3003
,  // measure 8
1002
0000
0000
1003
0000
1000
0200
0000
0000
0310
0000
0010
,  // measure 9
0001
0000
0001
0100
0000
0100
2000
0000
0000
3100
0000
0001
,  // measure 10
0020
0000
0000
0031
0000
0001
2000
0000
0000
3010
0000
0010
,  // measure 11
1000
0000
1000
0100
0000
0100
0002
0000
0000
0103
0000
1000
,  // measure 12
0020
0000
0000
1030
0000
1000
0200
0000
0000
0310
0000
0010
,  // measure 13
0001
0000
0001
0010
0000
0010
2000
0000
0000
3010
0000
0001
,  // measure 14
0100
0000
0000
0010
0000
0010
2000
0000
0000
3001
0100
0010
,  // measure 15
1000
0000
1000
0000
0000
1000
0100
1000
0100
0010
0001
0100
,  // measure 16
0020
0000
0030
1001
0000
0001
0200
0000
0000
0301
0000
0001
,  // measure 17
0010
0000
0010
1000
0000
1000
0020
0000
0000
0031
0000
0100
,  // measure 18
0020
0000
0030
1001
0000
1000
0200
0000
0000
1300
0000
1000
,  // measure 19
0010
0000
0010
0001
0000
0001
0020
0000
0000
1030
0000
0100
,  // measure 20
0020
0000
0030
1001
0000
0001
0020
0000
0000
0031
0000
0001
,  // measure 21
1000
0000
1000
0100
0000
0100
0002
0000
0000
0103
0000
0010
,  // measure 22
0001
0010
0001
0100
0001
0100
0010
0100
0010
1000
0010
1000
,  // measure 23
0001
1000
0001
1000
0100
1000
0100
0010
0100
0010
0001
0010
,  // measure 24
0M02
0010
2M03
0000
,  // measure 25
3M02
0000
2M03
0000
,  // measure 26
3M02
0010
2M03
0000
,  // measure 27
3M02
0000
2M03
0000
,  // measure 28
3M02
0M10
2M03
0M10
,  // measure 29
3M02
0M10
2M03
0M10
,  // measure 30
3M01
0000
0M10
0000
1M00
0000
0M10
0000
0M01
0000
1M00
0000
,  // measure 31
0M10
0000
0000
1000
0010
0100
0010
1000
0100
1000
0010
0100
,  // measure 32
0010
1000
0001
0010
MM0M
0010
1000
0100
0010
0100
1000
0001
,  // measure 33
0100
0100
0100
0001
0010
0100
0010
0001
1000
0010
0001
0010
,  // measure 34
1000
0000
0100
0000
1000
0000
0010
0000
0001
0000
1000
0000
0100
0000
0001
0000
0010
0000
0200
0000
0000
0300
0000
0000
,  // measure 35
1001
0000
0010
0001
0100
0010
0100
0001
0010
0100
0100
1000
,  // measure 36
0010
0010
0010
1000
0100
0010
1000
0010
0100
1000
0001
0001
,  // measure 37
0100
0000
0100
0000
0010
0000
202M
0000
0000
3030
0000
0000
0M21
0000
0000
0030
0001
0000
M201
0000
0000
0300
0000
0000
,  // measure 38
22M0
0000
0000
3300
0000
0000
1001
0000
0000
0000
0001
0000
0100
0000
0010
0000
0100
0000
0001
0000
1000
0000
0001
0000
,  // measure 39
0010
0100
0010
0001
0100
0010
0100
0001
0010
0001
0100
0010
,  // measure 40
0100
0001
1000
0100
M0MM
0100
0001
0010
0100
0010
0001
1000
,  // measure 41
0010
0010
0010
1000
0010
0100
0001
0010
0001
0100
1000
0100
,  // measure 42
0001
0000
0010
0000
0001
0000
0100
0000
1000
0000
0001
0000
0010
0000
1000
0000
0100
0000
0020
0000
0000
0130
0000
0000
,  // measure 43
1001
1000
0010
1000
0100
0010
0100
1000
0010
0100
0100
0001
,  // measure 44
1000
1000
1000
0001
0010
0100
0001
0100
0010
0001
0100
0100
,  // measure 45
0010
0010
0010
100M
0000
0000
00M1
0000
0100
M010
0000
0000
,  // measure 46
1M00
0000
0001
1000
0001
1000
0100
0010
0100
1000
0001
1000
,  // measure 47
0010
0100
0010
1000
0001
0100
0010
0010
0010
0100
0001
0010
,  // measure 48
0100
1000
0010
0100
0100
0100
0010
1000
0100
1000
0001
0010
,  // measure 49
2000
0000
3010
0001
1000
0001
0100
0100
0100
0001
1000
0001
,  // measure 50
0010
0010
0010
0001
0100
0001
1000
0100
1000
0001
0001
0100
,  // measure 51
1010
0000
1000
0100
0000
0000
0011
0000
0001
0010
0001
0100
,  // measure 52
0010
1000
0100
1000
0000
0000
1000
0100
0001
1000
0010
0001
,  // measure 53
0200
0000
0301
1000
0010
1000
0100
0000
MM00
0001
0010
0001
,  // measure 54
0100
0000
0M1M
1000
0100
0010
0001
0100
0010
1000
0001
1000
,  // measure 55
1001
0001
1000
0001
0010
0001
0100
0000
0M0M
1000
0010
1000
,  // measure 56
0100
0000
MM10
0001
0000
0001
1000
0000
0100
1000
0100
1000
,  // measure 57
0001
0010
0001
1000
0010
1000
0100
0000
MM00
0001
0010
0001
,  // measure 58
0100
0000
0M1M
1000
0001
1000
0100
0001
1000
0010
0001
0100
,  // measure 59
0110
0000
0000
2001
0000
0000
0010
0000
3001
0100
0000
0001
,  // measure 60
1000
0000
0000
0002
0000
0000
0010
0000
1003
0100
0000
1000
,  // measure 61
0001
0000
0000
0200
0000
0000
0001
0000
0310
1000
0000
0100
,  // measure 62
0010
0000
0000
0200
0000
0000
1000
0000
0310
0001
0000
0100
,  // measure 63
0010
0000
0000
0200
0000
0000
0001
0000
1300
0100
0000
0100
,  // measure 64
0001
0000
0000
0200
0000
0000
1000
0000
0310
1000
0000
0001
,  // measure 65
0010
0000
0000
0200
0000
0000
1000
0000
0301
0100
0000
0100
,  // measure 66
1000
0000
0000
0200
0000
0000
0001
0000
0310
0001
0000
1000
,  // measure 67
0010
0220
0000
0000
,  // measure 68
0000
0330
0000
0000
;

//---------------dance-single - ----------------
#NOTEDATA:;
#CHARTNAME:;
#STEPSTYPE:dance-single;
#DESCRIPTION:;
#CHARTSTYLE:;
#DIFFICULTY:Hard;
#METER:11;
#RADARVALUES:0.456481,0.511555,0.339261,0.473388,0.544396,405.000000,362.000000,43.000000,60.000000,0.000000,0.000000,0.000000,0.000000,0.000000,0.456481,0.511555,0.339261,0.473388,0.544396,405.000000,362.000000,43.000000,60.000000,0.000000,0.000000,0.000000,0.000000,0.000000;
#CREDIT:;
#NOTES:
// measure 0
0000
0000
0000
0000
,  // measure 1
0000
0000
0000
0000
,  // measure 2
0000
0000
0000
0000
,  // measure 3
0000
0000
0000
0000
,  // measure 4
1000
0000
0000
0001
0000
1000
0100
0000
0000
1000
0000
0001
,  // measure 5
0100
0000
0010
0100
0000
0001
0100
0000
0000
0010
0000
1000
,  // measure 6
0001
0000
0000
0010
0000
0001
1000
0000
0000
0010
0000
0200
,  // measure 7
0020
0000
0000
0330
,  // measure 8
1002
0000
0000
1003
0000
1000
0200
0000
0000
0310
0000
0002
,  // measure 9
0000
0000
0203
0000
0000
2300
0000
0000
0000
3100
0000
0001
,  // measure 10
0020
0000
0000
0031
0000
0001
2000
0000
0000
3020
0000
2030
,  // measure 11
0000
0000
3200
0000
0000
0302
0000
0000
0000
0103
0000
1000
,  // measure 12
0020
0000
0000
1030
0000
1000
0200
0000
0000
0310
0000
0002
,  // measure 13
0000
0000
0023
0000
0000
2030
0000
0000
0000
3010
0000
0000
,  // measure 14
0011
0000
0000
1100
0000
0000
0201
0000
0000
0301
1000
0100
,  // measure 15
0010
0000
0010
0000
0000
0010
0100
0000
0000
1000
0000
0000
,  // measure 16
0010
0000
0000
1001
0000
0001
2000
0000
0000
3002
0000
0023
,  // measure 17
0000
0000
0230
0000
0000
0302
0000
0000
0000
0103
0000
0100
,  // measure 18
0010
0000
0000
1001
0000
1000
0002
0000
0000
2003
0000
3020
,  // measure 19
0000
0000
0230
0000
0000
2300
0000
0000
0000
3100
0000
0100
,  // measure 20
0010
0000
0000
1001
0000
1000
0020
0000
0000
0130
0000
0002
,  // measure 21
0000
0000
0023
0000
0000
2030
0000
0000
0000
3010
0000
0100
,  // measure 22
1000
0000
1000
0010
0000
0010
0100
0000
0100
0001
0000
0001
,  // measure 23
1000
0000
1000
0100
0000
0000
0011
0000
0000
1100
0000
0000
,  // measure 24
1002
0010
1000
0000
,  // measure 25
1003
0000
1000
0000
,  // measure 26
2001
0010
0001
0000
,  // measure 27
3001
0000
0001
0000
,  // measure 28
1002
0010
1000
1003
,  // measure 29
2001
0010
0001
3001
,  // measure 30
1000
0000
0001
0000
1000
0000
0001
0000
1000
0000
0001
0000
,  // measure 31
0010
0000
0000
1001
0000
0001
0100
0000
0001
0010
0000
0001
,  // measure 32
0100
0000
0010
2000
0000
3100
0010
0000
0100
1000
0000
0001
,  // measure 33
0100
0010
0100
0010
0000
1000
0100
0000
0001
0100
0000
1000
,  // measure 34
0100
0000
0001
0100
0000
0010
0001
0000
0000
1001
0000
0000
,  // measure 35
0110
0000
0000
1000
0000
0010
1000
0000
0100
0010
0000
0010
,  // measure 36
0001
1000
0001
1000
0000
0001
0100
0000
0010
1000
0000
0100
,  // measure 37
0010
0001
0010
0001
0000
0000
1100
0000
0001
0100
0000
0000
,  // measure 38
1010
0000
0000
1001
0000
1000
0000
0000
0001
0010
0000
0000
,  // measure 39
0100
0000
0000
1001
0000
1000
0010
0000
1000
0100
0000
1000
,  // measure 40
0010
0000
0100
0002
0000
0013
0100
0000
1000
0100
0000
0010
,  // measure 41
0001
1000
0001
1000
0000
0001
0100
0000
1000
0100
0000
0001
,  // measure 42
0100
0000
0000
0000
1000
0000
0100
0000
0000
0000
0001
0000
0010
0000
0000
0000
0000
0000
0100
0000
0000
0010
0000
0000
,  // measure 43
1001
0000
0000
0001
0000
0010
0001
0000
1000
0010
0000
0010
,  // measure 44
0100
0001
0100
0001
0000
0010
0100
0000
1000
0001
0000
0100
,  // measure 45
0010
1000
0010
1000
0000
0000
0001
0000
0010
0100
0000
0000
,  // measure 46
0010
0000
0000
0001
0000
0001
0100
0000
0100
0010
0000
0010
,  // measure 47
1000
0010
1000
0100
0000
0000
1001
0000
0000
0001
0100
0010
,  // measure 48
1000
0000
0000
1001
0000
0000
1000
0100
0010
0001
0000
0000
,  // measure 49
0110
0000
0000
0012
0000
0103
0010
0000
0000
2010
0000
3100
,  // measure 50
0010
0000
0000
0012
0000
0003
2010
0000
3000
0012
0000
0003
,  // measure 51
1001
0000
0000
0100
0000
0000
1001
0000
0000
0001
0100
0001
,  // measure 52
0010
0000
0000
1001
0000
0000
1000
0100
1000
0010
0000
0000
,  // measure 53
0110
0000
0000
2010
0000
3100
0010
0000
0000
0012
0000
0103
,  // measure 54
0010
0000
0000
0100
0000
0000
1001
0000
1000
0100
0000
0001
,  // measure 55
0100
0000
0000
1200
0000
0310
0001
0000
0000
0201
0000
0310
,  // measure 56
1000
0000
0000
1001
0000
0001
0010
0000
1000
0010
0000
0000
,  // measure 57
0001
0000
0000
1020
0000
0130
0001
0000
0000
0021
0000
0130
,  // measure 58
1000
0000
0001
0100
0000
0100
1000
0000
1000
0010
0000
0010
,  // measure 59
0001
0000
0000
2001
0000
0000
0100
0000
0000
0001
0000
3100
,  // measure 60
1000
0000
0000
0002
0000
0000
0100
0000
0000
1000
0000
0103
,  // measure 61
0001
0000
0000
2000
0000
0000
0010
0000
0000
0001
0000
3010
,  // measure 62
1000
0000
0000
0002
0000
0000
0010
0000
0000
1000
0000
0013
,  // measure 63
0001
0000
0000
0200
0000
0000
1000
0000
0000
0010
0000
0301
,  // measure 64
1000
0000
0000
0200
0000
0000
0001
0000
0000
0010
0000
1300
,  // measure 65
0100
0000
0000
0020
0000
0000
1000
0000
0000
0100
0000
0031
,  // measure 66
1000
0000
0000
0020
0000
0000
0001
0000
0000
0100
0000
1030
,  // measure 67
0010
2002
0000
0000
,  // measure 68
0000
3003
0000
0000
;

//---------------dance-single - ----------------
#NOTEDATA:;
#CHARTNAME:;
#STEPSTYPE:dance-single;
#DESCRIPTION:;
#CHARTSTYLE:;
#DIFFICULTY:Medium;
#METER:6;
#RADARVALUES:0.334753,0.403859,0.331371,0.441829,0.051284,297.000000,255.000000,42.000000,56.000000,0.000000,0.000000,0.000000,0.000000,0.000000,0.334753,0.403859,0.331371,0.441829,0.051284,297.000000,255.000000,42.000000,56.000000,0.000000,0.000000,0.000000,0.000000,0.000000;
#CREDIT:;
#NOTES:
// measure 0
0000
0000
0000
0000
,  // measure 1
0000
0000
0000
0000
,  // measure 2
0000
0000
0000
0000
,  // measure 3
0000
0000
0000
0000
,  // measure 4
0001
1000
0100
1000
,  // measure 5
1000
0001
0100
0001
,  // measure 6
0001
0010
0001
1000
,  // measure 7
0020
0000
0000
0030
,  // measure 8
2000
0010
3002
0023
,  // measure 9
2030
3020
0032
0103
,  // measure 10
0002
0010
2003
3020
,  // measure 11
0032
0023
2030
3100
,  // measure 12
2000
0010
3002
0203
,  // measure 13
2300
3200
0302
0013
,  // measure 14
0011
1100
0012
1000
,  // measure 15
0103
0000
0010
0010
,  // measure 16
0100
1001
2000
3200
,  // measure 17
0302
0203
0320
0031
,  // measure 18
0100
1001
0002
0203
,  // measure 19
2300
3200
0320
1030
,  // measure 20
0100
1001
0002
0023
,  // measure 21
2030
3002
0203
1300
,  // measure 22
1010
0101
2010
0001
,  // measure 23
0100
3100
1001
0110
,  // measure 24
1002
0000
0100
0000
,  // measure 25
0103
0000
0100
0000
,  // measure 26
2001
0000
0100
0000
,  // measure 27
3100
0000
0100
0000
,  // measure 28
1002
0100
0100
0103
,  // measure 29
2001
0100
0100
3100
,  // measure 30
1000
0100
0001
0010
,  // measure 31
1000
1000
0010
0100
,  // measure 32
0001
0000
0000
1000
0000
1000
0001
0000
0000
0100
0000
0100
,  // measure 33
0010
1000
0100
0001
,  // measure 34
0100
1000
0010
1001
,  // measure 35
0110
0000
0000
1000
0000
0000
0100
0000
0000
1000
0000
1000
,  // measure 36
0001
0100
0010
1000
,  // measure 37
0001
0000
0001
2000
0000
0000
3200
0000
0000
0302
0000
0000
,  // measure 38
0203
2300
0001
0001
,  // measure 39
3001
1001
0100
0001
,  // measure 40
0010
0000
0000
0001
0000
0001
1000
0000
0000
0010
0000
0010
,  // measure 41
0100
0001
0100
1000
,  // measure 42
0100
0001
0010
1001
,  // measure 43
0110
0000
0000
1000
0000
0000
0100
0000
0000
0010
0000
0010
,  // measure 44
0001
1000
0010
0100
,  // measure 45
0001
0000
0001
0010
0000
0000
0100
0000
0000
0010
0000
0000
,  // measure 46
0001
0200
0001
1000
,  // measure 47
0301
0000
0000
0100
0000
0000
1001
0000
0000
0001
0000
0010
,  // measure 48
0001
0000
0000
1001
0000
0000
1000
0000
0010
1000
0000
0000
,  // measure 49
1001
2100
3010
2100
,  // measure 50
3010
1100
0011
1100
,  // measure 51
0001
0000
0000
1000
0000
0000
1001
0000
0000
0001
0000
0100
,  // measure 52
0001
0000
0000
0001
0000
0000
1000
0000
0100
1000
0000
0000
,  // measure 53
1001
0102
0013
0102
,  // measure 54
0013
0001
0101
1010
,  // measure 55
0001
0012
0103
2010
,  // measure 56
3100
0000
0000
0010
0000
0000
0010
0000
0000
0001
0000
1000
,  // measure 57
0001
0102
0013
2100
,  // measure 58
3010
0100
0100
1001
,  // measure 59
0110
1001
0001
0010
,  // measure 60
0010
1000
1000
0100
,  // measure 61
0100
1000
1000
0010
,  // measure 62
0010
0001
0001
0100
,  // measure 63
0100
0001
0010
1000
,  // measure 64
0100
1000
0010
0001
,  // measure 65
0100
0001
0010
1000
,  // measure 66
0100
1000
0010
0001
,  // measure 67
0100
2002
0000
0000
,  // measure 68
0000
3003
0000
0000
;

//---------------dance-single - ----------------
#NOTEDATA:;
#CHARTNAME:;
#STEPSTYPE:dance-single;
#DESCRIPTION:;
#CHARTSTYLE:;
#DIFFICULTY:Easy;
#METER:4;
#RADARVALUES:0.229931,0.269239,0.205135,0.142016,0.000000,204.000000,178.000000,26.000000,18.000000,0.000000,0.000000,0.000000,0.000000,0.000000,0.229931,0.269239,0.205135,0.142016,0.000000,204.000000,178.000000,26.000000,18.000000,0.000000,0.000000,0.000000,0.000000,0.000000;
#CREDIT:;
#NOTES:
// measure 0
0000
0000
0000
0000
,  // measure 1
0000
0000
0000
0000
,  // measure 2
0000
0000
0000
0000
,  // measure 3
0000
0000
0000
0000
,  // measure 4
0001
0001
1000
0000
,  // measure 5
0100
0000
1000
0000
,  // measure 6
0010
0010
0100
0000
,  // measure 7
0002
0000
0000
0003
,  // measure 8
2001
0000
3010
1000
,  // measure 9
0100
0010
0002
0003
,  // measure 10
1002
0000
0013
0001
,  // measure 11
0100
0010
2000
3000
,  // measure 12
1002
0000
0103
0001
,  // measure 13
0010
0001
0200
0300
,  // measure 14
0010
0010
2000
0000
,  // measure 15
3100
0000
0010
0000
,  // measure 16
0100
1001
0000
0001
,  // measure 17
0100
0010
2000
3000
,  // measure 18
0100
1001
0000
1000
,  // measure 19
0100
0010
0002
0003
,  // measure 20
0100
1001
0000
0001
,  // measure 21
1000
0010
0200
0300
,  // measure 22
0001
0001
2000
0000
,  // measure 23
3100
0100
0010
0010
,  // measure 24
1002
0000
0100
0000
,  // measure 25
0103
0000
0100
0000
,  // measure 26
2001
0000
0100
0000
,  // measure 27
3100
0000
0100
0000
,  // measure 28
1002
0000
0103
0000
,  // measure 29
2001
0000
3100
0000
,  // measure 30
1000
0001
1000
0001
,  // measure 31
1000
1000
1000
0001
,  // measure 32
0001
0010
0000
0001
,  // measure 33
0000
0100
0010
1000
,  // measure 34
0100
0010
0001
0000
,  // measure 35
0110
1000
1000
0000
,  // measure 36
0010
0100
0001
0000
,  // measure 37
0010
0001
0001
1000
,  // measure 38
1000
0010
0000
0010
,  // measure 39
0100
0001
0001
1000
,  // measure 40
1000
0100
0000
0010
,  // measure 41
0000
0001
0100
0010
,  // measure 42
1000
0001
1000
0000
,  // measure 43
0110
0001
0001
0000
,  // measure 44
0010
0001
0100
0000
,  // measure 45
0010
1000
0100
0010
,  // measure 46
0001
1000
0000
0001
,  // measure 47
0001
0000
1001
0010
,  // measure 48
0010
0000
1000
1000
,  // measure 49
0100
1001
0000
1001
,  // measure 50
0000
0010
0010
0010
,  // measure 51
0110
0000
1001
0100
,  // measure 52
0100
0000
0010
0010
,  // measure 53
0001
1001
0000
1001
,  // measure 54
0000
0000
0010
0100
,  // measure 55
0110
1001
0000
1001
,  // measure 56
0000
1000
1000
0001
,  // measure 57
0001
0110
0000
0110
,  // measure 58
0000
1000
1000
0001
,  // measure 59
1001
1000
0000
0100
,  // measure 60
0000
0010
0000
0001
,  // measure 61
0000
0100
0000
0010
,  // measure 62
0000
1000
0000
0100
,  // measure 63
0000
0010
0000
0100
,  // measure 64
0000
1000
0000
0001
,  // measure 65
0000
0100
0000
0010
,  // measure 66
0000
1000
0000
0001
,  // measure 67
0000
2002
0000
0000
,  // measure 68
0000
3003
0000
0000
;

//---------------dance-single - ----------------
#NOTEDATA:;
#CHARTNAME:;
#STEPSTYPE:dance-single;
#DESCRIPTION:;
#CHARTSTYLE:;
#DIFFICULTY:Beginner;
#METER:2;
#RADARVALUES:0.156669,0.217758,0.110457,0.063118,0.000000,139.000000,125.000000,14.000000,8.000000,0.000000,0.000000,0.000000,0.000000,0.000000,0.156669,0.217758,0.110457,0.063118,0.000000,139.000000,125.000000,14.000000,8.000000,0.000000,0.000000,0.000000,0.000000,0.000000;
#CREDIT:;
#OFFSET:-0.058549;
#BPMS:0.000000=135.000000
;
#STOPS:;
#DELAYS:;
#WARPS:;
#TIMESIGNATURES:0.000000=4=4
;
#TICKCOUNTS:0.000000=4
;
#COMBOS:0.000000=1
;
#SPEEDS:0.000000=1.000000=0.000000=0
;
#SCROLLS:0.000000=1.000000
;
#FAKES:;
#LABELS:0.000000=Song Start
;
#NOTES:
// measure 0
0000
0000
0000
0000
,  // measure 1
0000
0000
0000
0000
,  // measure 2
0000
0000
0000
0000
,  // measure 3
0000
0000
0000
0000
,  // measure 4
0001
0000
0001
0000
,  // measure 5
1000
0000
1000
0000
,  // measure 6
0010
0000
0010
0000
,  // measure 7
0000
0000
0000
0000
,  // measure 8
1000
0000
0010
0000
,  // measure 9
0100
0100
0100
0000
,  // measure 10
0001
0000
0010
0000
,  // measure 11
0100
0100
0100
0000
,  // measure 12
1000
0000
0001
0000
,  // measure 13
1000
1000
1000
0000
,  // measure 14
0010
0010
0020
0000
,  // measure 15
0030
0000
0000
0000
,  // measure 16
0000
1001
0000
0001
,  // measure 17
0000
0100
0100
0000
,  // measure 18
0000
1001
0000
1000
,  // measure 19
0000
0100
0100
0000
,  // measure 20
0000
1001
0000
0001
,  // measure 21
0000
0010
0010
0000
,  // measure 22
0100
0100
0200
0000
,  // measure 23
0300
0000
1000
1000
,  // measure 24
2000
0000
0000
0000
,  // measure 25
3000
0000
0000
0000
,  // measure 26
0002
0000
0000
0000
,  // measure 27
0003
0000
0000
0000
,  // measure 28
2000
0000
3000
0000
,  // measure 29
0002
0000
0003
0000
,  // measure 30
1000
0000
0001
0000
,  // measure 31
0000
0000
0000
0000
,  // measure 32
1000
1000
1000
0000
,  // measure 33
0010
0000
0100
0000
,  // measure 34
0001
0001
0001
0000
,  // measure 35
1000
1000
1000
0000
,  // measure 36
0100
0100
0000
0010
,  // measure 37
0010
0010
0000
0001
,  // measure 38
0001
0000
1000
0000
,  // measure 39
0100
0000
0010
0000
,  // measure 40
0001
0001
0001
0000
,  // measure 41
0100
0000
0010
0000
,  // measure 42
1000
1000
1000
0000
,  // measure 43
0001
0001
0001
0000
,  // measure 44
0100
0100
0000
0010
,  // measure 45
0010
0010
0000
1000
,  // measure 46
1000
0000
0100
0000
,  // measure 47
0010
0000
0001
0000
,  // measure 48
0000
1001
0000
1000
,  // measure 49
0000
0001
0001
0000
,  // measure 50
1001
0000
1001
0000
,  // measure 51
0100
0100
0100
0100
,  // measure 52
0000
1001
0000
0001
,  // measure 53
0000
0010
0010
0000
,  // measure 54
1001
0000
1001
0000
,  // measure 55
0000
0100
0100
0000
,  // measure 56
1001
0000
1001
0000
,  // measure 57
0010
0000
0100
0000
,  // measure 58
1001
0000
1001
0000
,  // measure 59
0010
0010
0010
0000
,  // measure 60
0001
0000
0000
0000
,  // measure 61
0100
0000
0000
0000
,  // measure 62
0010
0000
0000
0000
,  // measure 63
1000
0000
0000
0000
,  // measure 64
0100
0000
0000
0000
,  // measure 65
0010
0000
0000
0000
,  // measure 66
0001
0000
0000
0000
,  // measure 67
1000
0000
0000
0000
,  // measure 68
2002
0000
0000
0000
,  // measure 69
3003
0000
0000
0000
;
