#VERSION:0.83;
#TITLE:ミルキーベリー・スウィートタイム;
#SUBTITLE:;
#ARTIST:ぽんきち;
#TITLETRANSLIT:Milky Berry Sweet Time;
#SUBTITLETRANSLIT:;
#ARTISTTRANSLIT:Pon Kichi;
#GENRE:Sweet Pop;
#ORIGIN:;
#CREDIT:;
#BANNER:Milky Berry Sweet Time.png;
#BACKGROUND:Milky Berry Sweet Time-bg.png;
#PREVIEWVID:;
#JACKET:Milky Berry Sweet Time-jacket.png;
#CDIMAGE:;
#DISCIMAGE:;
#LYRICSPATH:;
#CDTITLE:cdtitle.png;
#MUSIC:Milky Berry Sweet Time.ogg;
#OFFSET:-0.557379;
#SAMPLESTART:66.381615;
#SAMPLELENGTH:11.234119;
#SELECTABLE:YES;
#BPMS:0.000=170.000,
67.500=85.000,
84.000=170.000,
231.500=85.000,
233.500=170.000;
#STOPS:67.500=1.235,
265.500=0.353,
267.500=0.353;
#DELAYS:;
#WARPS:;
#TIMESIGNATURES:0.000=4=4;
#TICKCOUNTS:0.000=4;
#COMBOS:0.000=1;
#SPEEDS:0.000=1.000=0.000=0;
#SCROLLS:0.000=1.000;
#FAKES:;
#LABELS:0.000=Song Start;
#BGCHANGES:;
#KEYSOUNDS:;
#ATTACKS:
;

//---------------dance-single - ----------------
#NOTEDATA:;
#CHARTNAME:;
#STEPSTYPE:dance-single;
#DESCRIPTION:;
#CHARTSTYLE:;
#DIFFICULTY:Challenge;
#METER:14;
#RADARVALUES:0.699922,0.856090,0.603291,0.712980,0.393053,536.000000,470.000000,66.000000,78.000000,0.000000,0.000000,0.000000,0.000000,0.000000,0.699922,0.856090,0.603291,0.712980,0.393053,536.000000,470.000000,66.000000,78.000000,0.000000,0.000000,0.000000,0.000000,0.000000;
#CREDIT:;
#OFFSET:-0.557379;
#BPMS:0.000000=170.000000
,67.500000=85.000000
,84.000000=170.000000
,231.500000=85.000000
,233.500000=170.000000
;
#STOPS:67.500000=1.235293
,265.500000=0.352936
,267.500000=0.352944
;
#DELAYS:;
#WARPS:;
#TIMESIGNATURES:0.000000=4=4
;
#TICKCOUNTS:0.000000=4
;
#COMBOS:0.000000=1
;
#SPEEDS:0.000000=1.000000=0.000000=0
;
#SCROLLS:0.000000=1.000000
;
#FAKES:;
#LABELS:0.000000=Song Start
;
#NOTES:
0000
0000
0000
0000
,
0000
0000
0000
0000
,
0000
0000
0000
0000
,
0000
0000
0000
0000
1000
0010
0100
0002
,
0000
0010
0000
2003
0000
0010
0000
3002
,
0000
0000
0103
0000
0001
1000
0002
0000
0000
0000
1003
0000
0100
0000
0012
0000
,
0000
1003
0010
0101
0000
0110
0000
2010
,
0000
3001
0010
1200
0000
1300
0100
0022
,
0000
0000
0000
0033
,
0010
0001
1000
0000
1000
0000
0010
1000
0001
0000
0001
0000
1000
0000
2001
0000
,
0000
0000
3001
0010
0001
0000
1000
0010
1000
0010
1000
0000
0000
0000
0102
0000
,
0000
0000
1003
0000
0001
0000
1000
0100
1000
0100
1000
0000
0000
0000
0012
0000
,
0000
0000
1003
0010
1000
0010
1000
0000
0001
0100
0001
0000
0000
0000
2001
0000
,
0000
3001
0010
1100
0000
1100
0000
1002
,
0000
0000
1003
0010
1000
0000
0001
0010
0001
0010
0001
0000
0000
0000
1002
0000
,
0000
0000
0103
0000
1000
0000
0100
0010
0100
0010
0100
0000
0001
0000
2001
0000
,
0000
0000
3100
0010
0100
0000
1000
0001
1000
0000
0010
0000
0100
0000
0101
0000
,
1000
0100
0010
0001
0000
0001
0100
0020
0000
1030
0100
0020
0000
0030
0100
1000
,
0000
1000
0010
0200
0000
0301
1000
0200
0000
0310
0001
2000
0000
0000
3001
0000
,
0001
0100
0010
1000
0000
1000
0100
0020
0000
0031
0100
2000
0000
3100
0001
0010
,
0000
0000
0010
0000
0001
0000
1000
0001
1000
0000
0010
0000
1000
0000
0200
0000
0000
0000
0310
0000
0010
0000
0002
0000
0000
0000
1000
0000
1003
0000
0000
0000
,
0001
0000
0100
0000
0010
0000
1000
0001
1000
0000
0010
0000
1000
0000
0200
0000
,
0000
0000
1300
0000
0100
0000
0010
0001
0010
0000
0100
0000
1000
0000
0002
0000
,
0000
0000
0103
0000
0010
0000
1000
0001
0000
1000
0001
0000
0010
0000
0200
0000
,
0000
0000
0310
0000
0001
0000
0100
0010
0000
0100
0010
0000
1000
0000
0000
0000
,
1000
0000
0010
0000
0100
0000
0001
1000
0001
0000
0010
0000
0001
0000
0200
0000
,
0000
0000
0301
0000
0010
0000
0100
1000
0100
0000
0001
0000
0100
0000
2000
0000
,
0000
0000
3100
0000
1000
0000
0001
0100
0001
0000
0100
0000
0010
0000
2010
0000
,
0000
3001
0010
0012
0000
0103
0010
2001
,
0000
3001
0010
1000
0000
1000
0010
0002
,
0000
1003
0010
0001
0000
0001
0010
2000
,
0000
0000
3001
0000
1000
0000
0100
0000
0000
0010
0001
0000
0000
0000
1002
0000
,
0000
0100
0103
0001
1000
0100
0010
0021
,
0000
0031
0100
1000
0000
1000
0100
0102
,
0000
1003
0100
2100
0000
3001
0100
1020
,
0000
1030
0001
2001
0000
3100
0010
1002
,
0000
0000
1003
0000
0001
0000
0010
0000
0100
0000
1000
0001
1000
0000
0010
0000
,
1000
0001
0001
1000
0001
0001
1000
0100
,
0100
0000
1000
0001
0100
0000
0100
0000
1000
0000
0100
0000
0010
0000
0210
0000
,
0000
0000
0310
0000
0010
0000
1000
0001
0010
0000
0010
0000
0001
0000
1001
0000
,
0000
1001
1001
2002
0000
0000
0000
0000
,
0000
0000
3003
0000
1000
0100
0010
0021
,
0000
0031
0100
2000
0000
3100
0001
0020
,
0000
0000
0130
0000
1000
0001
1000
0000
0000
0000
0001
0000
0100
0000
0020
0000
,
0000
0000
1030
0001
1000
0000
1001
0000
0000
0000
1100
0000
0000
0000
0102
0000
,
0000
0000
0010
0000
0013
0000
0001
1000
0001
0000
0100
0000
0010
0000
1020
0000
,
0000
1030
0100
0002
0000
0103
1000
0020
,
0000
0000
0130
0000
0001
1000
0001
0000
0000
0000
1000
0000
0100
0000
0020
0000
,
0000
0000
0031
0100
0001
0000
1000
0100
1000
0000
0001
0000
0100
0000
0120
0000
,
0000
0000
1000
0000
1030
0000
0001
1000
0001
0000
0010
0000
0100
0000
1200
0000
,
0000
1300
0010
0002
0000
0013
1000
0200
,
0000
0000
1300
0000
0001
0100
0001
0000
0000
0000
1000
0000
0100
0000
0002
0000
,
0000
1003
0010
0011
0000
0101
0000
2010
,
0000
0000
3001
1000
0200
0000
0000
0000
1300
0000
0010
0000
0100
0000
0201
0000
,
0000
0301
0010
2000
0000
3010
0001
0200
,
0000
0000
0310
0000
1000
0001
0010
0000
0000
0000
0001
0000
1000
0000
2001
0000
,
0000
3010
1000
1100
0000
0011
0000
1002
,
0000
0013
0001
0101
0000
1010
0000
2001
,
3100
0010
0100
0000
1000
0000
1002
0000
0000
0000
0013
0000
0001
0000
0201
0000
,
0000
0000
0310
0000
1000
0000
2001
0000
0000
0000
3001
0010
0001
0000
0100
0001
,
0100
0001
0100
0000
0000
0000
1002
0000
0000
0000
0103
0000
0010
0000
1000
0001
,
1000
0001
1000
0000
0000
0000
0012
0000
0000
0000
1003
0010
1000
0010
1000
0000
,
0001
0100
0001
0000
0000
0000
2001
0000
0000
0000
3001
0000
0010
0000
1100
0000
,
0000
0000
0011
0000
0000
0000
1002
0000
0000
0000
1003
0010
1000
0000
0100
1000
,
0100
1000
0100
0000
0000
0000
2001
0000
0000
0000
3010
0000
0001
0000
0010
0100
,
0010
0100
0010
0000
1000
0000
1002
0000
0000
0000
1003
0100
1000
0000
0001
0100
,
0001
0010
0100
0110
0011
0001
1001
0001
,
1010
1000
1001
2200
0000
0000
0000
0000
,
0000
0000
0000
0000
,
0000
0000
0000
3300
0000
0000
0000
0000
;

//---------------dance-single - ----------------
#NOTEDATA:;
#CHARTNAME:;
#STEPSTYPE:dance-single;
#DESCRIPTION:;
#CHARTSTYLE:;
#DIFFICULTY:Hard;
#METER:11;
#RADARVALUES:0.583703,0.830324,0.612431,0.712980,0.132541,447.000000,380.000000,67.000000,78.000000,0.000000,0.000000,0.000000,0.000000,0.000000,0.583703,0.830324,0.612431,0.712980,0.132541,447.000000,380.000000,67.000000,78.000000,0.000000,0.000000,0.000000,0.000000,0.000000;
#CREDIT:;
#OFFSET:-0.557379;
#BPMS:0.000000=170.000000
,67.500000=85.000000
,84.000000=170.000000
,231.500000=85.000000
,233.500000=170.000000
;
#STOPS:67.500000=1.235293
;
#DELAYS:;
#WARPS:;
#TIMESIGNATURES:0.000000=4=4
;
#TICKCOUNTS:0.000000=4
;
#COMBOS:0.000000=1
;
#SPEEDS:0.000000=1.000000=0.000000=0
;
#SCROLLS:0.000000=1.000000
;
#FAKES:;
#LABELS:0.000000=Song Start
;
#NOTES:
0000
0000
0000
0000
,
0000
0000
0000
0000
,
0000
0000
0000
0000
,
0000
0000
0000
0000
0001
0010
0100
2000
,
0000
0010
0000
3002
0000
0010
0000
2003
,
0000
3100
0010
0002
0000
0103
0010
2010
,
0000
3001
1000
1100
0000
0110
0000
0012
,
0000
1003
0001
0201
0000
0310
1000
2002
,
0000
0000
0000
3003
,
0000
1000
0001
0000
1000
0001
0000
1001
,
0000
1000
0010
0100
0001
1000
0000
1200
,
0000
0310
0001
0200
0000
0310
0000
2010
,
0000
3001
0010
0100
1000
0001
0000
1002
,
0000
1003
0010
0110
0000
0110
0000
1001
,
0000
0001
0010
0100
1000
0001
0000
0201
,
0000
0301
0100
1000
0100
0001
0010
0021
,
0000
0130
1000
0001
1000
0010
0100
0110
,
1000
0001
1000
0100
0000
1000
0100
0020
0000
0031
0100
0020
0000
0000
1030
0001
,
0000
0001
1000
0200
0000
1300
0001
0200
0000
0310
1000
0002
0000
0000
1003
0000
,
0001
1000
0001
0100
0000
0001
0100
0020
0000
1030
0100
0020
0000
0130
1000
0010
,
0000
1000
0001
1000
0100
0010
0001
0200
0000
0310
0100
0002
0000
1000
1003
0000
,
0001
0100
0010
1000
0000
0001
0010
0200
,
0000
0301
0100
0020
0000
0031
0100
0010
,
0000
1000
0010
0200
0000
1300
0100
0020
,
0000
1030
0100
0020
0000
0001
0031
0000
,
1000
0010
0100
0001
0000
1000
0100
0020
,
0000
1030
0010
0200
0000
0310
0001
0100
,
0000
0001
0100
0001
1000
0100
0010
0002
,
0000
0103
0010
2000
0000
3001
1000
2001
,
0000
0000
0001
3001
0000
0001
0010
0002
,
0000
0000
1000
1003
0000
1000
0010
0200
,
0000
0000
0001
0301
0000
0011
0000
2100
,
0000
0001
3001
0100
0010
1000
0001
0021
,
0000
0000
0100
0130
0000
0010
0001
2001
,
0000
3010
1000
0002
0000
1003
0100
0120
,
0000
0031
0100
0020
0000
1030
0001
2001
,
0000
3001
0010
0100
1000
0001
0100
0010
,
0000
1000
0001
0000
1000
0001
0000
1000
,
0100
0000
0001
0100
0000
1100
0000
0012
,
0000
1003
0010
0000
0001
0010
0000
1000
,
0000
0001
1000
2002
0000
0000
0000
0000
,
0000
0000
3003
0000
1000
0100
0010
0021
,
0000
0031
0000
2001
0000
3001
0000
0201
,
0000
1300
0100
0001
0000
0001
1000
2100
,
0000
3001
0000
1001
0000
0110
0000
1002
,
0000
0010
0013
0000
0001
0100
0010
1020
,
0000
1030
0000
1002
0000
1003
0000
1200
,
0000
0301
0100
1000
0000
1000
0001
0201
,
0000
0301
0100
1000
0100
0001
1000
1002
,
0000
0010
0013
0000
0001
0010
0100
2100
,
0000
3001
0000
0102
0000
1003
0000
1200
,
0000
0301
0100
1000
0000
1000
0010
0120
,
0000
1030
0000
1001
0000
1100
0000
0012
,
0000
1003
1001
0000
1000
0010
0100
0102
,
0000
1003
0000
2100
0000
3001
0000
0021
,
0000
1030
0010
0001
0000
0001
0100
0210
,
0000
0310
1000
1001
0000
1100
0000
0210
,
0000
0310
0001
1001
0000
0101
0000
2001
,
3100
0010
0100
0000
1000
0000
1002
0000
0000
0000
0103
0000
0010
0000
2000
0000
,
0000
3100
0010
0012
0000
1003
0010
0001
,
0010
1000
0000
2001
0000
3100
0010
0002
,
0000
0103
0000
1002
0000
1003
0100
0010
,
0001
1000
0000
1002
0000
1003
0010
0110
,
0000
0110
0000
1001
0000
0001
0010
1000
,
0010
0001
0000
1002
0000
1003
0010
0001
,
0010
1000
0001
2001
0000
3001
0100
1000
,
0100
0001
0010
0001
0000
0000
1000
0010
,
1000
0001
0000
0000
0001
0010
0001
2002
,
0000
0000
0000
0000
,
0000
0000
0000
0000
0000
0000
0000
3003
;

//---------------dance-single - ----------------
#NOTEDATA:;
#CHARTNAME:;
#STEPSTYPE:dance-single;
#DESCRIPTION:;
#CHARTSTYLE:;
#DIFFICULTY:Medium;
#METER:9;
#RADARVALUES:0.464873,0.578953,0.255942,0.621572,0.018282,356.000000,328.000000,28.000000,68.000000,0.000000,0.000000,0.000000,0.000000,0.000000,0.464873,0.578953,0.255942,0.621572,0.018282,356.000000,328.000000,28.000000,68.000000,0.000000,0.000000,0.000000,0.000000,0.000000;
#CREDIT:;
#OFFSET:-0.557379;
#BPMS:0.000000=170.000000
,68.000000=85.000000
,86.000000=170.000000
,233.500000=85.000000
,235.500000=170.000000
;
#STOPS:;
#DELAYS:;
#WARPS:;
#TIMESIGNATURES:0.000000=4=4
;
#TICKCOUNTS:0.000000=4
;
#COMBOS:0.000000=1
;
#SPEEDS:0.000000=1.000000=0.000000=0
;
#SCROLLS:0.000000=1.000000
,67.500000=0.500000
,68.000000=1.000000
;
#FAKES:;
#LABELS:0.000000=Song Start
;
#NOTES:
0000
0000
0000
0000
,
0000
0000
0000
0000
,
0000
0000
0000
0000
,
0000
0000
0000
0000
0001
0000
1000
0002
,
0000
0013
0000
0002
0000
1003
0000
0002
,
0000
0103
0010
0200
0000
0310
0000
2001
,
0000
3100
0010
0100
0000
0100
0000
1002
,
0000
0103
0010
0100
0000
0010
0000
2002
,
0000
0000
0000
3003
,
0000
1000
0001
0000
1000
0001
0000
1001
,
0000
1000
0010
0000
0010
0100
0000
0002
,
0000
1003
0001
2000
0000
3100
0000
0021
,
0000
0031
0100
0000
0100
0010
0000
2010
,
0000
3010
1000
0001
0000
1001
0000
1001
,
0000
0001
0010
0000
0010
0100
0000
2000
,
0000
3001
0100
0000
0010
1000
0010
2000
,
0000
3001
0010
0000
0100
0000
0010
0002
,
0000
0000
0000
0003
1000
0010
0100
0001
,
0010
0001
0100
0010
1000
0100
0001
0100
,
1000
0001
0100
0010
1000
0001
0010
0001
,
0100
0000
0010
0000
1000
0000
0010
0000
0001
0000
0010
0000
1000
0000
0100
0020
,
0000
0100
0000
0100
0000
0031
1000
0000
0001
0000
0000
0000
0100
0000
0010
0000
,
0000
1000
0001
2000
0000
3001
1000
0002
,
0000
0000
1003
0100
0000
1000
0001
2000
,
0000
3001
0010
0002
0000
1003
0010
2000
,
0000
0000
3001
0000
1000
0000
0100
0010
,
0000
0001
1000
0002
0000
1003
0001
2000
,
0000
3010
0100
0010
0000
1000
0001
0000
,
0001
0000
0010
0200
0000
1300
0001
2000
,
0000
3010
0100
0020
0000
0000
1030
0001
,
0000
0010
0100
0020
0000
0000
0031
1000
,
0000
0001
1000
0002
0000
0000
0103
0010
,
0000
1000
0000
0001
0000
0010
0100
0010
,
0100
0010
0000
1002
0000
0000
0103
0010
,
0000
1000
0000
2001
0000
3100
0000
0002
,
0000
0103
0000
2001
0000
3010
0000
0002
,
0000
0013
0000
2001
0000
0000
3010
0000
,
1000
0000
0100
0000
0000
1000
0001
0000
,
1000
0001
0000
1000
0010
0000
1000
0010
,
0000
0010
0000
2001
0000
3001
0010
0000
,
0001
0010
0000
0001
0000
1000
0002
2000
,
0000
0000
0000
3003
,
0000
0001
1000
0002
0000
0010
0000
2003
,
0000
0010
0000
3002
0000
1003
0100
1000
,
0000
0001
0100
0002
0000
1003
0000
1100
,
0000
0011
0000
2001
0000
3001
0100
0000
,
0010
1000
0010
2000
0000
0010
0000
3002
,
0000
0010
0000
2003
0000
3001
0100
0001
,
0000
1000
0100
2000
0000
3001
0100
0000
,
0010
0000
1000
0002
0000
1003
0001
0000
,
0010
0100
0010
0200
0000
1000
0000
0320
,
0000
0001
0000
0230
0000
1300
0001
1000
,
0000
0001
0100
0002
0000
1003
0000
1100
,
0000
0011
0000
2001
0000
3001
1000
0000
,
0010
0100
0010
0200
0000
0001
0000
0320
,
0000
1000
0000
0230
0000
0301
1000
0001
,
0000
1000
0000
2001
0000
3100
0010
0100
,
0000
0100
0000
1002
0000
0103
0010
0100
,
0000
0100
0000
2001
0000
3010
0010
1002
,
0000
0013
0100
0010
0000
0100
0000
1002
,
0000
1003
0010
0000
0100
0001
0000
2000
,
0000
3001
1000
0002
0000
0013
0000
2100
,
0000
3001
0100
0000
0010
1000
0000
1002
,
0000
0013
0001
1000
0000
1001
0000
1001
,
0000
0001
0010
0000
0100
1000
0000
0002
,
0000
0103
0010
0000
1000
0001
1000
0002
,
0000
0013
0100
0000
1000
0000
0001
0100
,
0000
0000
1000
0010
1000
0010
0000
0000
,
0001
0100
0002
0200
0000
0000
0000
0000
,
0000
0000
0000
0000
,
0000
0000
0000
0303
0000
0000
0000
0000
;

//---------------dance-single - ----------------
#NOTEDATA:;
#CHARTNAME:;
#STEPSTYPE:dance-single;
#DESCRIPTION:;
#CHARTSTYLE:;
#DIFFICULTY:Easy;
#METER:6;
#RADARVALUES:0.318621,0.482290,0.466179,0.694698,0.000000,244.000000,193.000000,51.000000,76.000000,0.000000,0.000000,0.000000,0.000000,0.000000,0.318621,0.482290,0.466179,0.694698,0.000000,244.000000,193.000000,51.000000,76.000000,0.000000,0.000000,0.000000,0.000000,0.000000;
#CREDIT:;
#OFFSET:-0.557379;
#BPMS:0.000000=170.000000
;
#STOPS:;
#DELAYS:;
#WARPS:;
#TIMESIGNATURES:0.000000=4=4
;
#TICKCOUNTS:0.000000=4
;
#COMBOS:0.000000=1
;
#SPEEDS:0.000000=1.000000=0.000000=0
;
#SCROLLS:0.000000=1.000000
;
#FAKES:;
#LABELS:0.000000=Song Start
;
#NOTES:
0000
0000
0000
0000
,
0000
0000
0000
0000
,
0000
0000
0000
0000
,
0000
0000
0000
0000
1000
0000
0000
0020
,
0000
0030
0000
0200
0000
0300
0000
0002
,
0000
0003
0000
2000
0000
3000
0000
1002
,
0000
0000
0000
0010
0000
0013
0000
2001
,
0000
0000
0000
0010
0000
3001
0000
2002
,
0000
0000
0000
3003
,
0000
0110
0000
0000
0110
0000
0000
1002
,
0000
0003
1000
0000
0010
0000
0000
0200
,
0000
0300
0000
0200
0000
0300
0000
0002
,
0000
0003
0010
0000
0100
0000
0000
2000
,
0000
3000
0000
0110
0000
0110
0000
2001
,
0000
3000
0001
0000
0010
0000
0000
0200
,
0000
0300
0010
0000
0001
0000
0000
0200
,
0000
0300
0010
0000
1000
0000
0000
2002
,
0000
0000
0000
3003
,
1000
0000
0100
0000
,
0010
0000
0001
0000
,
0100
0000
0010
0000
,
1000
0000
0001
0000
,
0010
0000
0001
0000
,
0100
0000
0010
0000
,
1000
0000
0000
0000
0001
0000
0000
2000
,
0000
0000
0000
0002
0000
0000
3003
0000
,
0001
0000
0000
0100
0000
0000
0000
0020
,
0000
0000
0030
2000
0000
0000
3000
0001
,
0000
0000
0000
0020
0000
0000
0030
0200
,
0000
0000
0300
2000
0000
0000
3001
0000
,
1000
0000
0000
0010
0000
0000
0000
0200
,
0000
0000
0300
0002
0000
0000
0003
0020
,
0000
0030
0100
0000
1000
0000
0000
2200
,
0000
3300
0000
0202
0000
0303
0000
1002
,
0000
0000
0003
1000
0000
0010
0000
0200
,
0000
0000
0300
0001
0000
0010
0000
0200
,
0000
0000
0300
0010
0000
0001
0000
1000
,
0000
0000
0001
0000
0100
0000
0000
2001
,
0000
0000
3000
0010
0000
1000
0000
0100
,
0000
0001
0000
0100
0000
1000
0000
2010
,
0000
3001
0000
0012
0000
1003
0000
2001
,
0000
3010
0100
0001
,
0000
1001
0000
0000
1001
0000
0000
1010
,
0000
0000
1010
0000
0000
1010
0000
1001
,
0000
0000
0011
0000
0011
0000
0000
1001
,
0000
1001
0000
0220
0000
0000
0000
0000
,
0000
0000
0330
0000
0000
1000
0000
0002
,
0000
0013
0000
0002
0000
0103
0000
0002
,
0000
0000
2003
0000
0000
3001
0000
2000
,
0000
3010
0000
0110
0000
0110
0000
2001
,
0000
0000
0100
0000
3100
0000
0000
2001
,
0000
3010
0000
2000
0000
3100
0000
2000
,
0000
0000
3002
0000
0000
0103
0000
0020
,
0000
0000
1030
0000
0100
0000
0000
0120
,
0000
0000
0031
0000
1000
0000
0000
2001
,
0000
3010
0000
0002
0000
0103
0000
2000
,
0000
0000
3001
0000
0000
0100
0000
0020
,
0000
1030
0000
1100
0000
1100
0000
0012
,
0000
0000
1000
0000
1003
0000
0000
1002
,
0000
0103
0000
2000
0000
3010
0000
0002
,
0000
0000
0203
0000
0000
0310
0000
2001
,
0000
0000
0000
0100
0000
3100
0000
1002
,
0000
0000
0000
0100
0000
0103
0000
2001
,
0000
0000
0000
3100
0000
0100
0000
1002
,
0000
0000
0000
0100
0000
1003
0000
1002
,
0000
0000
0013
0000
0100
0000
0000
2000
,
0000
3000
0000
2000
0000
3000
0000
0020
,
0000
0030
0100
0000
0001
0000
0000
2000
,
0000
3000
0000
0110
0000
0110
0000
2001
,
0000
3000
0010
0000
0100
0000
0000
0002
,
0000
0003
0010
0000
0100
0000
0000
0020
,
0000
0030
0001
0000
0100
0000
0000
1001
,
0000
1010
0101
0000
,
0011
2200
0000
0000
,
0000
0000
0000
0000
,
0000
0000
0000
3300
0000
0000
0000
0000
;

//---------------dance-single - ----------------
#NOTEDATA:;
#CHARTNAME:;
#STEPSTYPE:dance-single;
#DESCRIPTION:;
#CHARTSTYLE:;
#DIFFICULTY:Beginner;
#METER:3;
#RADARVALUES:0.169757,0.275594,0.237660,0.383912,0.000000,130.000000,104.000000,26.000000,42.000000,0.000000,0.000000,0.000000,0.000000,0.000000,0.169757,0.275594,0.237660,0.383912,0.000000,130.000000,104.000000,26.000000,42.000000,0.000000,0.000000,0.000000,0.000000,0.000000;
#CREDIT:;
#OFFSET:-0.557379;
#BPMS:0.000000=170.000000
;
#STOPS:;
#DELAYS:;
#WARPS:;
#TIMESIGNATURES:0.000000=4=4
;
#TICKCOUNTS:0.000000=4
;
#COMBOS:0.000000=1
;
#SPEEDS:0.000000=1.000000=0.000000=0
;
#SCROLLS:0.000000=1.000000
;
#FAKES:;
#LABELS:0.000000=Song Start
;
#NOTES:
0000
0000
0000
0000
,
0000
0000
0000
0000
,
0000
0000
0000
0000
,
0000
0000
0000
0000
0000
0000
0000
0001
,
0000
0000
0000
0001
0000
0000
0000
1000
,
0000
0000
0000
1000
0000
0000
0000
1001
,
0000
0000
0000
0100
0000
0000
0000
1001
,
0000
0000
0000
0100
0000
0000
0000
0220
,
0000
0000
0000
0330
,
0000
2002
0000
0000
0000
0000
0000
3003
,
0000
1000
0000
1000
,
0000
0001
0000
0001
,
0000
0100
0000
0100
,
0000
0000
0000
2002
0000
0000
0000
3003
,
0000
0001
0000
1000
,
0000
0000
0100
0000
0000
0000
0000
0220
,
0000
0000
0330
0000
0000
0000
0000
1001
,
0000
0000
0000
0000
,
1000
0000
0000
0000
,
0010
0000
0000
0000
,
0100
0000
0000
0000
,
0001
0000
0000
0000
,
1000
0000
0000
0000
,
0100
0000
0000
0000
,
1000
0000
0000
0000
0000
0000
0000
0001
,
0000
0000
0000
0000
,
0001
0000
0000
0000
0000
0000
0000
0100
,
0000
0000
0000
0100
0000
0000
0000
0010
,
0000
0000
0000
0010
0000
0000
0000
1000
,
0000
0000
0000
1000
0000
0000
0000
0000
,
0001
0000
0000
0000
0000
0000
0000
0010
,
0000
0000
0000
0010
0000
0000
0000
0100
,
0000
0000
0000
0100
0000
0000
0000
2002
,
0000
0000
0000
3003
0000
0000
0000
1000
,
0000
0000
0000
0010
0000
0000
0000
0010
,
0000
0000
0000
0100
0000
0000
0000
0100
,
0000
0000
0000
0001
0000
0000
0000
2000
,
0000
0000
0000
3000
0000
0000
0000
0001
,
0000
0000
0000
0010
0000
0000
0000
0100
,
0000
0000
0000
0100
0000
0000
0000
1000
,
0000
0000
0000
1000
0000
0000
0000
2002
,
0000
0000
0000
3003
,
0000
2002
0000
0000
3003
0000
0000
0220
,
0000
0000
0000
0000
0000
0330
0000
2002
,
0000
0000
0000
0000
3003
0000
0000
1001
,
0000
0000
0000
0220
0000
0000
0000
0000
,
0330
0000
0000
0000
0000
0000
0000
0001
,
0000
0000
0000
0001
0000
0000
0000
1000
,
0000
0000
0000
1000
0000
0000
0000
0100
,
0000
0000
0000
0100
0000
0000
0000
2002
,
0000
0000
0000
3003
0000
0000
0000
1000
,
0000
0000
0000
1000
0000
0000
0000
0001
,
0000
0000
0000
0001
0000
0000
0000
0200
,
0000
0000
0000
0000
0300
0000
0000
2002
,
0000
0000
0000
3003
0000
0000
0000
0001
,
0000
0000
0000
0001
0000
0000
0000
1000
,
0000
0000
0000
1000
0000
0000
0000
0010
,
0000
0000
0000
0010
0000
0000
0000
2002
,
0000
0000
0000
3003
0000
0000
0000
1000
,
0000
0000
0000
1000
0000
0000
0000
0100
,
0000
0000
0000
0010
0000
0000
0000
0220
,
0000
0000
0000
0330
0000
0000
0000
2002
,
0000
0000
0000
3003
0000
0000
0000
0220
,
0000
0000
0000
0330
0000
0000
0000
2002
,
0000
0000
0000
0000
0000
0000
0000
3003
,
0000
0001
0000
0001
,
0000
1000
0000
1000
,
0000
0100
0000
0100
,
0000
0000
0000
2002
0000
0000
0000
3003
,
0000
1000
0000
0001
,
0000
0000
0100
0000
0000
0000
0000
0220
,
0000
0000
0000
0000
0330
0000
0000
1001
,
0000
0000
1001
0000
,
0000
0220
0000
0000
,
0000
0000
0000
0000
,
0000
0000
0000
0330
0000
0000
0000
0000
;

//---------------dance-single - [B-SIDE] 24ths Ver.----------------
#NOTEDATA:;
#CHARTNAME:[B-SIDE] 24ths Ver.;
#STEPSTYPE:dance-single;
#DESCRIPTION:[B-SIDE] 24ths Ver.;
#CHARTSTYLE:;
#DIFFICULTY:Edit;
#METER:15;
#RADARVALUES:0.737791,1.014625,0.639854,0.712980,0.502742,565.000000,495.000000,70.000000,78.000000,0.000000,0.000000,0.000000,0.000000,0.000000,0.737791,1.014625,0.639854,0.712980,0.502742,565.000000,495.000000,70.000000,78.000000,0.000000,0.000000,0.000000,0.000000,0.000000;
#CREDIT:[B-SIDE] 24ths Ver.;
#OFFSET:-0.557379;
#BPMS:0.000000=170.000000
,67.500000=85.000000
,84.000000=170.000000
,231.500000=85.000000
,233.500000=170.000000
;
#STOPS:67.500000=1.235293
,265.500000=0.352936
,267.500000=0.352944
;
#DELAYS:;
#WARPS:;
#TIMESIGNATURES:0.000000=4=4
;
#TICKCOUNTS:0.000000=4
;
#COMBOS:0.000000=1
;
#SPEEDS:0.000000=1.000000=0.000000=0
;
#SCROLLS:0.000000=1.000000
;
#FAKES:;
#LABELS:0.000000=Song Start
;
#NOTES:
0000
0000
0000
0000
,
0000
0000
0000
0000
,
0000
0000
0000
0000
,
0000
0000
0000
0000
1000
0010
0100
0002
,
0000
0010
0000
2003
0000
0010
0000
3002
,
0000
0000
0000
0103
0000
0000
0001
1000
0001
2000
0000
0000
0000
0000
0000
3100
0000
0000
0010
0000
0000
0012
0000
0000
,
0000
1003
0010
0101
0000
0110
0000
2010
,
0000
3001
0010
1200
0000
1300
0100
0022
,
0000
0000
0000
0033
,
0010
0001
0100
0000
0100
0000
0010
1000
0100
0000
0100
0000
0010
0000
2001
0000
,
0000
0000
0000
0000
0000
0000
3001
0000
0000
0010
0000
0000
0100
0000
0000
0000
0000
0000
1000
0000
0010
0000
1000
0000
0010
0000
0000
1000
0000
0000
0001
0000
0000
0000
0000
0000
0000
0000
0000
0000
0000
0000
0102
0000
0000
0000
0000
0000
,
0000
0000
1003
0000
0001
0000
1000
0100
1000
0100
0010
0000
0000
0000
0012
0000
,
0000
0000
0000
0000
0000
0000
1003
0000
0000
0010
0000
0000
1000
0000
0001
0000
1000
0000
0001
0000
0000
0000
0000
0000
0010
0000
0000
0100
0000
0000
1000
0000
0000
0000
0000
0000
0000
0000
0000
0000
0000
0000
2001
0000
0000
0000
0000
0000
,
0000
3001
0100
1010
0000
1010
0000
1002
,
0000
0000
0000
0000
0000
0000
1003
0000
0000
0010
0000
0000
1000
0000
0000
0000
0000
0000
0001
0000
0010
0000
0001
0000
0010
0000
0000
0001
0000
0000
1000
0000
0000
0000
0000
0000
0000
0000
0000
0000
0000
0000
1002
0000
0000
0000
0000
0000
,
0000
0000
0103
0000
1000
0000
0100
0010
0100
0001
0100
0000
0010
0000
2001
0000
,
0000
0000
3100
0010
0001
0000
0100
0010
1000
0000
0100
0000
0110
0000
1001
0000
,
1000
0100
0010
0001
0000
0001
0100
0020
0000
1030
0100
0020
0000
0030
0100
1000
,
0000
1000
0010
0200
0000
0301
1000
0200
0000
0310
0001
2000
0000
0000
3001
0000
,
0001
0100
0010
1000
0000
1000
0100
0020
0000
0031
0100
2000
0000
3100
0001
0010
,
0000
0000
0000
0000
0000
0000
0000
0000
0000
0000
0000
0000
0010
0000
0000
0000
0000
0000
0000
0000
0000
0000
0000
0000
0001
0000
0000
0000
0000
0000
0000
0000
0000
0000
0000
0000
1000
0000
0000
0000
0001
0000
0000
0000
1000
0000
0000
0000
0001
0000
0000
0000
0000
0000
0000
0000
0000
0000
0000
0000
0100
0000
0000
0000
0000
0000
0000
0000
0000
0000
0000
0000
0010
0000
0000
0000
0000
0000
0000
0000
0000
0000
0000
0000
2010
0000
0000
0000
0000
0000
0000
0000
0000
0000
0000
0000
0000
0000
0000
0000
0000
0000
0000
0000
0000
0000
0000
0000
3100
0000
0000
0000
0000
0000
0000
0000
0000
0000
0000
0000
0010
0000
0000
0000
0000
0000
0000
0000
0000
0000
0000
0000
0012
0000
0000
0000
0000
0000
0000
0000
0000
0000
0000
0000
0000
0000
0000
0000
0000
0000
0000
0000
0000
0000
0000
0000
1000
0000
0000
0000
0000
0000
0000
0000
0000
0000
0000
0000
1003
0000
0000
0000
0000
0000
0000
0000
0000
0000
0000
0000
0001
0000
0000
0000
0000
0000
1000
0000
0000
0000
0000
0000
,
0001
0000
0100
0000
0010
0000
1000
0001
1000
0000
0010
0000
1000
0000
0200
0000
,
0000
0000
1300
0000
0100
0000
0010
0001
0010
0000
0100
0000
1000
0000
0002
0000
,
0000
0000
0103
0000
0010
0000
1000
0001
0000
1000
0001
0000
0010
0000
0200
0000
,
0000
0000
0310
0000
0001
0000
0100
0010
0000
0010
1000
0000
0001
0000
0010
0100
,
1000
0000
0010
0000
0100
0000
0001
1000
0001
0000
0010
0000
0001
0000
0200
0000
,
0000
0000
0301
0000
0010
0000
0100
1000
0100
0000
0001
0000
0100
0000
2000
0000
,
0000
0000
0000
3100
0000
0000
1000
0000
0000
0001
0100
0001
0100
0000
0000
0010
0000
0000
1000
0000
0000
2010
0000
0000
,
0000
3001
0010
0012
0000
0103
0010
2001
,
0000
3001
0010
1000
0000
1000
0010
0002
,
0000
1003
0010
0001
0000
0001
0010
2000
,
0000
0000
3001
0000
1000
0000
0100
0000
0000
0010
0001
0000
0000
0000
1002
0000
,
0000
0100
0103
0001
1000
0100
0010
0021
,
0000
0031
0100
1000
0000
1000
0100
0102
,
0000
1003
0100
2100
0000
3001
0100
1020
,
0000
1030
0001
2001
0000
3100
0010
1002
,
0000
0000
1003
0000
0001
0000
0010
0000
0100
0000
1000
0001
1000
0000
0010
0000
,
1000
0001
0001
1000
0001
0001
1000
0100
,
0100
0000
1000
0001
0100
0000
0100
0000
1000
0000
0100
0000
0010
0000
0210
0000
,
0000
0000
0310
0000
0010
0000
1000
0001
0010
0000
0010
0000
0001
0000
1001
0000
,
0000
1001
1001
2002
0000
0000
0000
0000
,
0000
0000
3003
0000
1000
0100
0010
0021
,
0000
0031
0100
2000
0000
3100
0001
0020
,
0000
0000
0000
0130
0000
0000
1000
0001
1000
0001
0000
0000
0000
0000
0000
0001
0000
0000
0100
0000
0000
0020
0000
0000
,
0000
0000
0000
0130
0001
0100
0001
0000
0000
1001
0000
0000
0000
0000
0000
1100
0000
0000
0000
0000
0000
0102
0000
0000
,
0000
0000
0000
0010
0000
0000
0013
0000
0000
0100
1000
0100
1000
0000
0000
0001
0000
0000
0100
0000
0000
1020
0000
0000
,
0000
1030
0100
0002
0000
0103
1000
0020
,
0000
0000
0000
0130
0000
0000
0001
1000
0001
1000
0000
0000
0000
0000
0000
1000
0000
0000
0100
0000
0000
0020
0000
0000
,
0000
0000
0000
0031
0100
0001
0100
0000
0000
0010
1000
0010
1000
0000
0000
0001
0000
0000
0100
0000
0000
0120
0000
0000
,
0000
0000
0000
1000
0000
0000
1030
0000
0000
0001
1000
0001
1000
0000
0000
0001
0000
0000
0010
0000
0000
1200
0000
0000
,
0000
1300
0010
0002
0000
0013
1000
0200
,
0000
0000
0000
1300
0000
0000
0001
0100
0001
0100
0000
0000
0000
0000
0000
1000
0000
0000
0100
0000
0000
0002
0000
0000
,
0000
1003
0100
0011
0000
0101
0000
2010
,
0000
0000
0000
3010
1000
0001
0020
0000
0000
0000
0000
0000
0130
0000
0000
1000
0000
0000
0010
0000
0000
0201
0000
0000
,
0000
0301
0010
2000
0000
3010
0001
0200
,
0000
0000
0000
0310
0000
0000
1000
0010
0100
0001
0000
0000
0000
0000
0000
0001
0000
0000
1000
0000
0000
2001
0000
0000
,
0000
3010
1000
1100
0000
0011
0000
1002
,
0000
0013
0001
0101
0000
1010
0000
2001
,
3100
0000
0010
0000
0100
0000
0000
0000
1000
0001
1000
0000
1002
0000
0000
0000
0000
0000
0000
0000
0013
0000
0000
0000
0001
0000
0000
0000
0201
0000
0000
0000
,
0000
0000
0000
0000
0000
0000
0310
0000
0000
0000
0000
0000
1000
0000
0000
0000
0000
0000
2001
0000
0000
0000
0000
0000
0000
0000
0000
0000
0000
0000
3001
0000
0000
0010
0000
0000
0001
0000
0000
0000
0000
0000
0100
0000
0001
0000
0100
0000
,
0001
0100
0010
0000
0000
0000
1002
0000
0000
0000
0103
0000
0010
0000
1000
0100
,
1000
0000
0000
0100
0000
0000
0010
0000
0000
0000
0000
0000
0000
0000
0000
0000
0000
0000
0012
0000
0000
0000
0000
0000
0000
0000
0000
0000
0000
0000
1003
0000
0000
0010
0000
0000
0100
0000
0010
0000
0100
0000
0010
0000
0000
0000
0000
0000
,
0100
0001
1000
0000
0000
0000
2001
0000
0000
0000
3001
0000
0010
0000
1100
0000
,
0000
0000
0000
0000
0000
0000
0011
0000
0000
0000
0000
0000
0000
0000
0000
0000
0000
0000
1002
0000
0000
0000
0000
0000
0000
0000
0000
0000
0000
0000
1003
0000
0000
0010
0000
0000
1000
0000
0000
0000
0000
0000
0100
0000
1000
0000
0100
0000
,
1000
0100
0010
0000
0000
0000
2001
0000
0000
0000
3010
0000
0001
0000
0010
0100
,
0010
1000
0010
0000
0100
0000
1002
0000
0000
0000
1003
0100
0010
0000
0001
0100
,
0010
0100
0110
1001
0011
0010
1100
0100
,
1010
0010
0101
2002
0000
0000
0000
0000
,
0000
0000
0000
0000
,
0000
0000
0000
3003
0000
0000
0000
0000
;
