#VERSION:0.83;
#TITLE:Miami Sunset Drive;
#SUBTITLE:;
#ARTIST:Dirty Androids;
#TITLETRANSLIT:;
#SUBTITLETRANSLIT:;
#ARTISTTRANSLIT:;
#GENRE:80's Electro House;
#ORIGIN:;
#CREDIT:;
#BANNER:Miami Sunset Drive.png;
#BACKGROUND:Miami Sunset Drive-bg.png;
#PREVIEWVID:;
#JACKET:Miami Sunset Drive-jacket.png;
#CDIMAGE:;
#DISCIMAGE:;
#LYRICSPATH:;
#CDTITLE:cdtitle.png;
#MUSIC:Miami Sunset Drive.ogg;
#OFFSET:-0.012214;
#SAMPLESTART:76.960777;
#SAMPLELENGTH:14.656487;
#SELECTABLE:YES;
#BPMS:0.000=131.000;
#STOPS:;
#DELAYS:;
#WARPS:;
#TIMESIGNATURES:0.000=4=4;
#TICKCOUNTS:0.000=4;
#COMBOS:0.000=1;
#SPEEDS:0.000=1.000=0.000=0;
#SCROLLS:0.000=1.000;
#FAKES:;
#LABELS:0.000=Song Start;
#BGCHANGES:;
#KEYSOUNDS:;
#ATTACKS:
;

//---------------dance-single - ----------------
#NOTEDATA:;
#CHARTNAME:;
#STEPSTYPE:dance-single;
#DESCRIPTION:;
#CHARTSTYLE:;
#DIFFICULTY:Challenge;
#METER:11;
#RADARVALUES:0.441362,0.536095,0.073173,0.691079,0.284562,380.000000,371.000000,9.000000,85.000000,0.000000,2.000000,0.000000,0.000000,0.000000,0.441362,0.536095,0.073173,0.691079,0.284562,380.000000,371.000000,9.000000,85.000000,0.000000,2.000000,0.000000,0.000000,0.000000;
#CREDIT:;
#NOTES:
0000
0000
0000
0000
,
0000
0000
0000
0000
,
0000
0000
0000
0000
,
0000
0000
0000
0000
,
0001
0000
1000
0000
0000
0100
0000
0000
0010
0000
0000
0100
0000
0000
1000
0000
,
0001
0000
1000
0000
0000
0010
0000
0100
0000
0010
0000
0000
0100
0000
0001
0000
,
1000
0000
0001
0000
0000
0010
0000
0000
0100
0000
0000
0010
0000
0000
0001
0000
,
1000
0000
0001
0000
0000
0100
0000
0001
0100
0000
0010
0000
0120
0000
0000
0000
,
1030
0000
0010
0000
1000
0000
0001
0010
0000
0001
0000
1000
0000
0000
1000
0000
,
0001
0000
0100
0000
0001
0000
1000
0100
0000
1000
0000
0001
0000
0000
0001
0000
,
1000
0000
0001
0000
0010
0000
0001
1000
0000
0010
0000
1000
0000
0000
1000
0000
,
0001
0000
0100
0000
0001
0000
1000
0100
0000
1000
0000
0001
0000
0000
0001
0000
,
0100
0000
1000
0000
0100
0000
0001
0100
0000
0010
0000
1000
0000
0000
1000
0000
,
0100
0000
0001
0000
0100
0000
1000
0010
0000
1000
0000
0001
0000
0000
0001
0000
,
0010
0000
1000
0000
0010
0000
0001
0010
0000
0100
0000
1000
0000
0000
1000
0000
,
0010
0000
0001
0000
0010
0000
1000
0100
0000
0010
0001
0000
1002
0000
0000
0000
,
1003
0000
0100
0000
1000
0000
0001
0100
0000
0010
1000
0000
0010
0000
0002
0000
,
0000
0013
1000
0200
0000
0301
0100
1000
,
0001
0000
0100
0000
0001
0000
1000
0100
0000
0010
0001
0000
0010
0000
2000
0000
,
0000
3010
0001
0200
0000
1300
0100
0001
,
0010
0000
0001
0000
0100
0000
0010
1000
0000
0100
0010
0000
0100
0000
0002
0000
,
0000
0103
1000
0020
0000
0031
0010
1000
,
0100
0000
1000
0000
0010
0000
0100
0001
0000
0010
0100
0000
1000
0000
0001
0000
,
0100
0000
0010
0000
0100
0000
0010
1000
0000
0001
0010
0000
0120
0000
0000
0000
,
0032
0000
0000
0000
0000
0023
0032
0200
,
0000
0000
0000
1000
0000
0000
0300
0000
,
2000
0000
0000
0003
0000
3020
2030
0200
,
0000
0000
0000
0001
0000
0000
0300
0000
,
3002
0010
0000
0010
0000
0023
0032
0203
,
0000
0010
0000
0320
0000
0100
0000
0130
,
0020
1000
0000
1000
0000
2030
3002
0023
,
0000
0100
0000
0230
0000
0310
0001
0000
,
1001
0000
0000
0000
0000
0000
0002
0000
0203
0000
0000
0320
0000
0000
2030
0000
,
0000
0000
0000
0000
0000
0000
0000
0000
0000
0000
0000
0000
3001
0100
0002
0000
,
0000
0000
0103
0002
2003
0000
3200
0302
,
0000
0000
0000
0203
0000
0000
0000
0000
,
1300
0000
0000
0000
0000
0000
2000
0000
3020
0000
0000
0230
0000
0000
0302
0000
,
0000
0000
0000
0000
0000
0000
0000
0000
0000
0000
0000
0000
1003
0100
2000
0000
,
0000
0000
3002
0203
0000
0000
0000
0320
,
0000
0000
2030
0000
,
3001
0000
0000
2000
3200
0000
0310
1002
,
0000
0000
0000
0000
0000
0000
0103
0010
0000
0100
0010
0000
2001
0000
0000
0000
,
3001
0000
0000
0000
1000
0000
0200
0000
0302
0000
0000
0203
0000
0000
2300
0000
,
0000
0000
0010
0000
0000
0000
0010
0000
0000
0000
3010
0000
0100
0001
2000
0000
,
0000
3001
0100
0020
2030
0000
3002
0023
,
0000
0100
0000
0032
0000
0103
0010
0000
,
1000
0000
0000
0000
0001
0000
0200
0000
2300
0000
0000
3200
0000
0000
0302
0000
,
0000
0000
0010
0000
0000
0000
0010
0000
0000
0000
0013
0000
0001
1000
0200
0000
,
0000
0000
0310
0000
0001
0000
1000
0010
0000
0100
0000
0001
0000
0000
0001
0000
,
0100
0000
0001
0000
1000
0000
0100
0010
0000
0100
1000
0000
1002
0000
0000
0000
,
1003
0000
0000
0000
0001
0000
0020
0000
2030
0000
0000
3020
0000
0000
0032
0000
,
0000
0000
0100
0000
0000
0000
0100
0000
0000
0000
0103
0000
0010
1000
0002
0000
,
0000
0000
1003
0010
1000
0000
0010
0000
0002
0000
0000
0023
0000
0000
2030
0000
,
0000
0000
0100
0000
0000
0000
3002
0000
0000
0000
0013
0000
0001
0000
1000
0200
,
0000
0000
0302
0000
0203
0000
2300
0000
3020
0000
0000
0032
0000
0000
0023
0000
,
0000
0000
1000
0000
0000
0000
1000
0000
0000
0000
1030
0000
0010
0100
0002
0000
,
0000
0000
1003
0000
0100
0000
0010
0000
0001
0100
0000
0001
0000
0100
0020
0000
,
0000
0000
1030
0100
1000
0000
0001
0010
0000
0000
0001
0000
1002
0000
0000
0000
,
1003
0010
1000
0100
0000
1000
0100
0001
,
0000
0001
0100
1000
0000
0100
1000
0001
,
0000
0010
0001
0100
0000
0001
0100
1000
,
0000
1000
0100
0001
1000
0100
0110
0000
,
0001
0100
0010
1000
0000
0001
0010
1000
,
0000
1000
0010
0001
0000
0100
0010
1000
,
0000
0100
0010
0001
0000
1000
0010
0001
,
0000
0000
0001
0000
0010
0000
1000
0000
0001
0000
0100
0000
0010
0000
1000
0100
;

//---------------dance-single - ----------------
#NOTEDATA:;
#CHARTNAME:;
#STEPSTYPE:dance-single;
#DESCRIPTION:;
#CHARTSTYLE:;
#DIFFICULTY:Hard;
#METER:10;
#RADARVALUES:0.373996,0.402071,0.065043,0.560994,0.048782,322.000000,314.000000,8.000000,69.000000,0.000000,0.000000,0.000000,0.000000,0.000000,0.373996,0.402071,0.065043,0.560994,0.048782,322.000000,314.000000,8.000000,69.000000,0.000000,0.000000,0.000000,0.000000,0.000000;
#CREDIT:;
#NOTES:
0000
0000
0000
0000
,
0000
0000
0000
0000
,
0000
0000
0000
0000
,
0000
0000
0000
0000
,
0001
0000
0100
0000
0010
1000
0010
0000
,
1000
0000
0100
0000
0010
0001
0010
0000
,
0001
0000
1000
0000
0010
0100
0010
0000
,
1000
0001
1000
0000
0100
0000
2001
0000
,
3001
0100
0010
0000
0010
1000
0001
0000
,
1000
0100
0010
0000
0010
0001
1000
0000
,
0001
0100
0010
0000
0100
0001
0010
0000
,
0100
1000
0010
0000
0100
0010
1000
0000
,
0001
0010
0100
0000
0001
0100
0010
0000
,
0001
1000
0001
0000
0100
0010
0100
0000
,
0010
0100
1000
0000
0100
0010
1000
0000
,
0001
1000
0001
0000
0010
0000
0120
0000
,
0032
0000
1000
0000
1003
0100
0010
0002
,
0000
0013
0001
0200
0000
1300
0100
0001
,
2000
0000
0001
0000
3001
0010
0100
2000
,
0000
3100
0010
2000
0000
3010
0001
0000
,
2000
0000
0001
0000
3001
0100
0010
2000
,
0000
3010
1000
0200
0000
0301
0100
1000
,
0002
0000
1000
0000
1003
0100
0010
0002
,
0000
0103
0010
0002
0000
0000
0013
0000
,
2010
0000
0000
0000
0000
3100
0010
0002
,
0000
0000
0000
2000
0000
0000
0003
0000
,
3002
0000
0000
0000
0000
0103
0010
2000
,
0000
0000
0000
0002
0000
0000
3000
0000
,
0023
0100
0000
0100
0000
0130
0010
0002
,
0000
0100
0000
0203
0000
0310
0000
1000
,
0020
0100
0000
0100
0000
0130
0010
2000
,
0000
0100
0000
3002
0000
1000
1003
0000
,
1001
0000
0000
0000
0000
0000
0002
0000
0203
0000
0000
0320
0000
0000
2030
0000
,
0000
0000
0000
0000
0000
0000
3200
0320
,
0000
0000
0130
2000
3002
0000
0203
0320
,
0000
0000
0000
2030
0000
0000
0000
0000
,
3001
0000
0000
0000
0000
0000
2000
0000
3200
0000
0000
0320
0000
0000
0032
0000
,
0000
0000
0000
0000
0000
0000
0203
0320
,
0000
0000
2030
3200
0000
0000
0000
0320
,
0000
0000
0031
0000
,
1000
0000
0000
0002
0203
0000
0320
2000
,
0000
0000
0000
0000
3030
0000
1000
0000
0000
0100
0000
0000
0012
0000
0000
0000
,
1003
0000
0000
0000
1000
0000
0010
0000
0100
0000
0000
0010
0000
0000
0002
0000
,
0000
0010
0000
0013
0000
0001
0010
2000
,
0000
3001
1000
0100
0002
0000
0103
2000
,
0000
0010
0000
3002
0000
0100
0000
1000
,
1003
0000
0000
0000
0001
0000
0010
0000
0100
0000
0000
0010
0000
0000
2000
0000
,
0000
0010
0000
3010
0000
1000
0010
0002
,
0000
0003
0100
0000
1000
0000
0200
0000
0000
0000
0310
0000
1000
0000
0200
0000
,
0000
0301
0100
0000
1000
0001
1001
0000
,
1000
0000
0000
0000
0001
0000
0100
0000
0010
0000
0000
0100
0000
0000
2000
0000
,
0000
0100
0000
3100
0000
1000
0100
0001
,
0000
0000
0001
0000
1000
0000
0100
0000
0010
0000
0000
0100
0000
0000
0002
0000
,
0000
0000
0100
0000
0000
0000
0203
0000
0000
0000
2300
0000
0000
0000
3001
0200
,
0000
0000
1300
0000
0100
0000
0001
0000
0010
0000
0000
1000
0000
0000
0020
0000
,
0000
0001
0000
0001
0000
0031
0010
2000
,
0000
0000
3001
0000
0100
0000
1000
0000
0010
0000
0000
0100
0000
0000
0002
0000
,
0000
0000
1003
0000
0100
0000
0010
0001
0000
0000
1000
0000
1002
0000
0000
0000
,
1003
0010
0100
0001
0000
1000
0100
0010
,
0000
0100
1000
0001
0000
0100
0010
1000
,
0000
0001
0010
0100
0000
0010
0001
0100
,
0000
0010
1000
0001
1000
0100
0110
0000
,
0010
0001
0100
0010
0000
0100
0010
1000
,
0000
0001
0010
0100
0000
0010
0100
1000
,
0000
0001
0100
1000
0000
1000
0100
0001
,
0000
0000
1000
0000
0100
0000
0010
0000
0001
0000
0100
0000
0010
0000
1000
0001
;

//---------------dance-single - ----------------
#NOTEDATA:;
#CHARTNAME:;
#STEPSTYPE:dance-single;
#DESCRIPTION:;
#CHARTSTYLE:;
#DIFFICULTY:Medium;
#METER:7;
#RADARVALUES:0.269463,0.348131,0.065043,0.308953,0.000000,232.000000,224.000000,8.000000,38.000000,0.000000,0.000000,0.000000,0.000000,0.000000,0.269463,0.348131,0.065043,0.308953,0.000000,232.000000,224.000000,8.000000,38.000000,0.000000,0.000000,0.000000,0.000000,0.000000;
#CREDIT:;
#NOTES:
0000
0000
0000
0000
,
0000
0000
0000
0000
,
0000
0000
0000
0000
,
0000
0000
0000
0000
,
0001
0010
0001
0010
,
0100
1000
0100
1000
,
0001
0100
0001
0100
,
0010
1000
0010
1001
,
1000
0100
0010
0001
,
0001
0100
0010
1000
,
1000
0100
0010
0001
,
0001
0100
0010
1000
,
0001
0010
1000
1000
,
0010
1000
0100
0100
,
1000
0100
0001
0001
,
0100
0001
0010
0110
,
1002
0000
0000
0000
0000
0013
0001
2000
,
0000
0000
0000
3002
0000
0000
0000
0000
,
2003
0000
0000
0000
0000
3010
1000
0002
,
0000
0000
0000
2003
0000
0000
0000
0000
,
3200
0000
0000
0000
0000
0310
0001
0200
,
0000
0000
0000
0320
0000
0000
0000
0000
,
0230
0000
0000
0000
0000
0310
1000
0200
,
0000
0000
0000
0320
0000
0000
0030
0000
,
0012
0000
0000
0000
0000
1000
0000
0100
,
0000
0000
0000
1000
0000
0000
0000
0000
,
2003
0000
0000
0000
0000
0001
0000
0100
,
0000
0000
0000
0001
0000
0000
0000
0000
,
3002
0000
0000
0000
0000
0010
0000
1000
,
0000
0000
0000
0100
0000
0000
0000
0000
,
2003
0000
0000
0000
0000
0010
0000
0001
,
0000
0000
0000
0200
0000
0000
3300
0000
,
1001
0000
0000
1000
2000
0000
0100
3200
,
0000
0000
0000
0000
0000
0000
0310
0020
,
0000
0000
0030
0001
0002
0000
0103
0020
,
0000
0000
0000
2030
0000
0000
0000
0000
,
3001
0000
0000
0001
0002
0000
0103
0200
,
0000
0000
0000
0000
0000
0000
0310
0020
,
0000
0000
1030
2000
0000
0000
0000
0002
,
0000
0000
3000
0000
,
1003
0000
0000
1000
0200
0000
0310
0002
,
0000
0000
0003
0110
,
1001
0000
1000
0010
0100
0000
0001
0000
,
0020
0000
0001
0000
0130
0000
1000
0100
,
1000
0000
0001
0100
0010
0000
1000
0000
,
0002
0010
2003
0100
,
3001
0000
0001
0010
0100
0000
1000
0000
,
0020
0000
1000
0000
0130
0000
0001
0100
,
0001
0000
1000
0000
0100
0010
0001
0000
,
1000
0000
0001
0000
0100
0010
1000
0000
,
0001
0000
0010
0001
0100
0000
0010
0000
,
2000
0000
0010
0000
3100
0000
1000
0100
,
1000
0000
0001
0100
0010
0000
1000
0000
,
0200
1000
0320
0001
,
0130
0000
0100
1000
0010
0000
0100
0000
,
0002
0000
0010
0000
0103
0000
0001
0100
,
0001
0000
1000
0100
0010
0000
0001
0000
,
1000
0000
0001
0100
0010
0000
1001
0000
,
0000
0001
0000
1000
0000
0001
0000
1000
,
0000
0100
0000
0010
0000
0100
0000
0010
,
0000
0001
0000
0100
0000
0001
0000
0100
,
0000
0010
0000
1000
0000
0010
1000
0001
,
0000
1000
0000
0100
0000
0010
0000
0001
,
0000
0100
0000
0010
0000
1000
0000
0001
,
0000
1000
0000
0100
0000
0001
0000
0100
,
0000
1000
0000
0010
0000
1000
0001
0010
;

//---------------dance-single - ----------------
#NOTEDATA:;
#CHARTNAME:;
#STEPSTYPE:dance-single;
#DESCRIPTION:;
#CHARTSTYLE:;
#DIFFICULTY:Easy;
#METER:4;
#RADARVALUES:0.175383,0.240557,0.024391,0.349605,0.000000,151.000000,148.000000,3.000000,43.000000,0.000000,0.000000,0.000000,0.000000,0.000000,0.175383,0.240557,0.024391,0.349605,0.000000,151.000000,148.000000,3.000000,43.000000,0.000000,0.000000,0.000000,0.000000,0.000000;
#CREDIT:;
#NOTES:
0000
0000
0000
0000
,
0000
0000
0000
0000
,
0000
0000
0000
0000
,
0000
0000
0000
0000
,
0001
0000
0010
0000
,
0001
0000
1000
0000
,
0010
0000
1000
0000
,
0100
0000
0010
0001
,
1000
1000
0010
0000
,
0100
0100
0001
0000
,
1000
1000
0100
0000
,
0010
0010
0001
0000
,
0100
0010
0100
0000
,
0001
1000
0001
0000
,
1000
0100
0010
0000
,
0001
0100
0010
1000
,
0002
0000
0013
0001
,
0200
0000
0320
0000
,
2030
0000
3010
1000
,
0200
0000
0320
0000
,
0032
0000
1003
0010
,
0200
0000
0302
0000
,
2003
0000
3001
0010
,
0200
0000
1300
0001
,
2000
0000
0000
0000
0000
0000
0000
3020
,
0000
0000
0000
0230
0000
0000
0000
0000
,
0302
0000
0000
0000
0000
0000
0000
0023
,
0000
0000
0000
0230
0000
0000
0000
0000
,
2300
0000
0000
0000
0000
0000
0000
3002
,
0000
0000
0000
0203
0000
0000
0000
0000
,
0320
0000
0000
0000
0000
0000
0000
2030
,
0000
0000
0000
3002
0000
0000
0000
0000
,
1003
0000
0000
0000
2000
0000
0000
3200
,
0000
0000
0000
0320
,
0000
0000
0030
0000
0002
0000
0000
0203
,
0000
0000
0000
0320
0000
0000
0000
0000
,
1030
0000
0000
0000
0002
0000
0000
0023
,
0000
0000
0000
0230
,
0000
0000
2300
0000
0000
0000
0000
0002
,
0000
0000
3000
0000
,
1003
0000
0000
0000
0020
0000
0000
0200
,
0000
0000
0330
0110
,
1001
0000
1000
0100
,
0020
0000
0031
0100
,
0001
0000
1000
0001
,
0020
0000
0230
0000
,
1300
0000
0001
0100
,
0020
0000
1030
0100
,
1000
0000
0001
0100
,
0010
0000
1000
0100
,
0010
0000
0100
1000
,
0020
0000
0130
0001
,
1000
0001
0010
0000
,
0002
0000
0103
0010
,
1000
0001
0010
0000
,
0200
0000
0310
0001
,
1000
0000
0010
0100
,
0001
0010
0100
1000
,
0000
0001
0000
0100
,
0000
0001
0000
1000
,
0000
0100
0000
0010
,
0000
0100
0000
1000
,
0000
0010
0000
0100
,
0000
0001
0000
0010
,
0000
0100
0000
1000
,
0000
0001
0000
1001
;

//---------------dance-single - ----------------
#NOTEDATA:;
#CHARTNAME:;
#STEPSTYPE:dance-single;
#DESCRIPTION:;
#CHARTSTYLE:;
#DIFFICULTY:Beginner;
#METER:1;
#RADARVALUES:0.084788,0.132118,0.000000,0.121955,0.000000,73.000000,73.000000,0.000000,15.000000,0.000000,0.000000,0.000000,0.000000,0.000000,0.084788,0.132118,0.000000,0.121955,0.000000,73.000000,73.000000,0.000000,15.000000,0.000000,0.000000,0.000000,0.000000,0.000000;
#CREDIT:;
#NOTES:
0000
0000
0000
0000
,
0000
0000
0000
0000
,
0000
0000
0000
0000
,
0000
0000
0000
0000
,
0001
0000
0000
0000
,
1000
0000
0000
0000
,
0001
0000
0000
0000
,
1000
0000
0000
0000
,
0010
0000
0000
0000
,
0100
0000
0000
0000
,
0001
0000
0000
0000
,
1000
0000
0000
0000
,
0100
0000
0000
0000
,
0010
0000
0000
0000
,
0001
0000
0000
0000
,
0100
0000
0000
0000
,
0010
0000
0000
0000
,
1000
0000
1000
0000
,
1000
0000
0000
0000
,
0100
0000
0100
0000
,
0100
0000
0000
0000
,
0010
0000
0010
0000
,
0010
0000
0000
0000
,
0001
0000
0001
0000
,
0002
0000
0000
0000
,
0003
0000
0000
0000
,
0200
0000
0000
0000
,
0300
0000
0000
0000
,
0020
0000
0000
0000
,
0030
0000
0000
0000
,
2000
0000
0000
0000
,
3000
0000
0000
0000
,
0001
0000
0001
0000
,
0002
0000
0000
0003
,
0000
0000
1000
0000
,
2000
0000
3000
0000
,
1000
0000
1000
0000
,
2000
0000
0000
3000
,
0000
0001
0000
0000
,
0002
0000
0003
0000
,
1000
0000
0100
0000
,
0020
0000
0030
0000
,
0001
0000
1000
0000
,
0002
0000
0003
0000
,
0100
0000
0010
0000
,
0200
0000
0300
0000
,
0001
0000
1000
0000
,
0002
0000
0003
0000
,
1000
0000
0000
0000
,
0100
0000
0000
0000
,
1000
0000
0001
0000
,
2000
0000
3000
0000
,
0001
0000
0100
0000
,
0002
0000
0003
0000
,
1000
0000
0010
0000
,
2000
0000
3000
0000
,
0001
0000
0010
0000
,
0001
0000
0010
0000
,
0001
0000
0000
0000
,
0100
0000
0000
0000
,
0010
0000
0000
0000
,
1000
0000
0000
0000
,
0001
0000
0000
0000
,
0010
0000
0000
0000
,
0100
0000
0000
0000
,
1000
0000
0000
0000
;
