#VERSION:0.83;
#TITLE:Megascorcher;
#SUBTITLE:;
#ARTIST:Machinae Supremacy;
#TITLETRANSLIT:;
#SUBTITLETRANSLIT:;
#ARTISTTRANSLIT:;
#GENRE:SID Metal;
#ORIGIN:;
#CREDIT:;
#BANNER:Megascorcher.png;
#BACKGROUND:Megascorcher-bg.png;
#PREVIEWVID:;
#JACKET:Megascorcher-jacket.png;
#CDIMAGE:;
#DISCIMAGE:;
#LYRICSPATH:;
#CDTITLE:cdtitle.png;
#MUSIC:Megascorcher.ogg;
#OFFSET:-0.426396;
#SAMPLESTART:13.181396;
#SAMPLELENGTH:12.000000;
#SELECTABLE:YES;
#BPMS:0.000=160.000;
#STOPS:;
#DELAYS:;
#WARPS:;
#TIMESIGNATURES:0.000=4=4;
#TICKCOUNTS:0.000=4;
#COMBOS:0.000=1;
#SPEEDS:0.000=1.000=0.000=0;
#SCROLLS:0.000=1.000;
#FAKES:;
#LABELS:0.000=Song Start;
#BGCHANGES:;
#KEYSOUNDS:;
#ATTACKS:
;

//---------------dance-single - ----------------
#NOTEDATA:;
#CHARTNAME:;
#STEPSTYPE:dance-single;
#DESCRIPTION:;
#CHARTSTYLE:;
#DIFFICULTY:Challenge;
#METER:14;
#RADARVALUES:0.650505,0.828525,0.410908,0.352207,0.306085,543.000000,494.000000,49.000000,42.000000,0.000000,0.000000,6.000000,0.000000,0.000000,0.650505,0.828525,0.410908,0.352207,0.306085,543.000000,494.000000,49.000000,42.000000,0.000000,0.000000,6.000000,0.000000,0.000000;
#CREDIT:;
#NOTES:
0000
0000
0000
0000
,
0000
0000
0000
0000
,
0000
0000
0000
0000
,
0000
0000
0000
0000
,
1000
1000
0000
1000
0100
0010
0100
0010
,
0001
0001
0000
0001
0100
0010
0100
0010
,
1000
0000
0110
0000
1001
0000
0000
1100
,
0000
0101
0000
0011
0000
2010
0000
0000
,
0000
0000
3001
1000
0001
0000
0001
0000
1000
0000
0100
0000
0010
0000
0100
0000
,
1000
0100
0001
0200
0000
1300
0001
0020
,
0000
1030
0010
0001
1000
0001
0100
0010
,
1000
0001
0100
2000
0000
3001
0010
2000
,
0010
0000
3001
0010
0100
0000
0010
0000
0001
0000
0100
0000
0010
0000
0100
0000
,
0001
0100
1000
0200
0000
0301
1000
0020
,
0000
0031
1000
0100
0001
1000
0100
0010
,
0001
1000
0100
0002
0000
1003
0010
0001
,
1000
0000
0100
0010
0100
0010
0001
1000
0001
0000
0100
0000
0001
0000
0101
0000
,
0000
1000
0001
0001
1000
1010
1000
0001
,
0011
0001
1000
0010
0110
0001
1000
1001
,
0100
0000
0010
0000
0100
0000
1001
0000
0000
0000
4000
0004
0000
0000
0000
0000
,
0000
0000
3003
0000
1001
1000
0100
1100
,
0000
0001
1000
1000
0001
0011
0001
1000
,
1010
1000
0001
0010
2100
0000
0010
0000
,
0001
0000
3100
0010
0012
0000
0103
2010
,
0000
3010
1001
0000
0011
0100
1000
1100
,
0000
0001
0100
0100
0010
1010
0001
0010
,
0011
1000
0001
0100
0110
1000
0001
1001
,
0100
0000
0010
0000
0100
0000
1001
0000
0000
0000
0004
4000
0000
0000
0000
0000
,
0000
0000
3003
0000
1010
0100
0001
0101
,
0000
1000
0100
0100
0010
0011
0100
1000
,
1010
0100
0001
1000
1002
0000
0010
0000
,
1000
0000
0103
0010
2010
0000
3100
0010
,
0001
0100
0001
0100
0010
1000
0010
1000
0001
0000
0010
0000
0100
0000
0010
0000
,
0001
0010
1000
0002
0000
1003
0010
0002
,
0000
1003
0100
0001
0100
1000
0010
0100
,
0001
0100
1000
0002
0000
0013
1000
0002
,
0010
0000
1003
0100
1000
0000
0001
0000
1000
0000
0010
0000
0100
0000
0010
0000
,
1000
0010
0001
2000
0000
3001
0010
2000
,
0000
3001
0100
1000
0100
0001
0010
0100
,
1000
0100
0001
0201
0000
0310
0100
1000
,
1001
0000
0001
0100
0001
0100
0010
1000
0002
0000
0000
0000
0010
0000
2003
0000
,
0000
0010
3001
0001
1000
0010
0100
0010
,
0001
1000
0100
0001
0020
0000
0100
0002
,
0030
0000
1003
0000
1100
0000
0110
0000
0000
0000
0004
4000
0000
0000
0000
0000
,
0000
0000
3003
0000
2000
0000
0100
3002
,
0000
1000
1003
0010
0100
0001
0010
1000
,
0001
0100
1000
0010
2010
0000
0001
0000
,
3100
0000
1000
1100
0011
0000
0101
1010
,
1000
0001
1000
0001
0010
0100
0010
0100
1000
0000
0001
0100
0000
0001
0100
0000
,
0010
0000
1000
0100
0000
1000
0100
0000
0010
0000
0001
1000
0000
0010
0100
0000
,
0001
0000
1000
0001
0000
0010
0100
0000
1000
0000
0001
0100
0000
0001
1000
0000
,
0100
0000
1000
0001
0000
1000
0010
0000
1000
0000
0100
0000
0010
0100
0010
0000
,
0002
0000
0000
0000
1003
0000
0001
0000
0100
0000
0010
1000
0000
0010
1000
0000
,
0100
0000
0010
0001
0000
0010
0001
0000
0100
0000
0010
1000
0000
0001
0010
0000
,
0100
0000
0010
0001
0000
1000
0010
0000
0210
0000
0000
0000
0001
0000
0000
0000
,
0301
0000
0000
0000
1000
0000
0100
0000
0010
0000
0001
0100
0000
0010
1000
0000
,
0001
1000
0100
0010
0100
0010
0100
2000
0002
0000
0000
0000
0000
0000
0000
0000
,
0000
0000
0000
0000
,
0000
0000
0000
0000
,
0000
0000
0000
3003
,
1000
0001
1000
0000
0000
0000
0000
0000
0001
1000
0001
0000
0000
0000
1000
0010
,
1000
0000
0000
0000
0001
0000
0000
0000
1000
0100
1000
0000
0000
0000
0001
0010
,
0001
0000
0001
0000
0001
0000
0000
0000
1000
0001
1000
0000
0000
0000
0010
1000
,
0010
0000
0000
0000
0100
0000
0000
0000
0001
1000
0001
0000
0000
0000
1000
0001
,
0010
0000
0000
0000
0110
0000
0000
0000
0100
1000
0001
0000
1000
0000
0010
1000
,
0001
0000
1000
0000
0100
0000
1000
0000
0001
1000
0100
0000
0010
0000
0100
1000
,
0001
0000
0000
0001
0000
0000
0001
0000
0100
0001
1000
0000
0010
0000
1000
0001
,
0100
0000
0001
0000
0010
0000
0001
0000
1000
0010
0100
0000
0001
0000
0010
0100
,
1000
0000
0000
0000
1001
0000
0000
0000
0001
0100
0010
0000
1000
0000
0100
0010
,
0001
0000
0100
0000
0010
0000
1000
0000
0001
0010
0100
0000
1000
0000
0010
0100
,
0001
0000
0001
0000
0001
0000
0000
0000
1000
0001
0010
0000
0001
0000
0100
0010
,
1000
0000
0100
0000
0010
0000
0001
0000
1000
0001
0100
0000
0010
0000
1000
0002
,
2000
3003
2200
3300
,
0022
0000
0000
0033
,
0202
0303
2020
0030
,
0002
0000
0000
0000
,
3003
0000
0000
0000
;

//---------------dance-single - ----------------
#NOTEDATA:;
#CHARTNAME:;
#STEPSTYPE:dance-single;
#DESCRIPTION:;
#CHARTSTYLE:;
#DIFFICULTY:Hard;
#METER:11;
#RADARVALUES:0.493569,0.541728,0.293506,0.377365,0.016772,412.000000,377.000000,35.000000,45.000000,0.000000,0.000000,6.000000,0.000000,0.000000,0.493569,0.541728,0.293506,0.377365,0.016772,412.000000,377.000000,35.000000,45.000000,0.000000,0.000000,6.000000,0.000000,0.000000;
#CREDIT:;
#NOTES:
0000
0000
0000
0000
,
0000
0000
0000
0000
,
0000
0000
0000
0000
,
0000
0000
0000
0000
,
1000
0010
0000
0100
0001
1000
0001
1000
,
0001
0010
0000
0100
1000
0001
1000
0001
,
1000
0000
1001
0000
0110
0000
0000
1001
,
0000
1100
0000
0011
0000
2002
0000
0000
,
3003
0000
1001
0000
1000
0001
0010
0100
,
0010
0001
1000
0020
0000
0130
0001
0020
,
0000
0031
1000
0001
0000
1000
0010
0100
,
0010
1000
0100
0020
0000
0031
0100
0020
,
0000
1030
1010
0000
0001
1000
0010
0100
,
0010
1000
0001
0020
0000
0130
1000
0020
,
0000
1030
0001
1000
0000
0001
0010
0100
,
0010
0001
0100
0120
0000
1030
0001
2001
,
0000
0000
3100
0010
0001
0000
0100
0001
,
0000
0001
0100
0000
0010
1000
0000
1000
,
0001
0000
1000
0100
0010
0000
0001
0100
,
0000
0000
0010
0000
1000
0000
1001
0000
0000
0000
4000
0004
0000
0000
0000
0000
,
0000
0000
3003
0000
1000
0000
0100
1000
,
0000
1000
0100
0000
0010
0001
0000
0001
,
0100
0000
0010
1000
1002
0000
0010
0000
,
1003
0000
0001
0100
0120
0000
1030
2001
,
0000
3100
0110
0000
1001
0000
0010
1000
,
0000
1000
0100
0000
0010
0100
0000
0100
,
0001
0000
0100
0010
0001
0000
1000
0010
,
0000
0000
0100
0000
0001
0000
1001
0000
0000
0000
0004
4000
0000
0000
0000
0000
,
0000
0000
3003
0000
0001
0000
0010
0001
,
0000
0001
0100
0000
0010
0100
0000
0100
,
1000
0000
0100
0001
2001
0000
0010
0000
,
3001
0000
1000
0100
0120
0000
0031
0100
,
0010
1000
0001
0000
1000
0100
0010
0001
,
0100
0010
1000
0200
0000
0301
0100
0002
,
0000
0103
0010
0100
0000
1000
0100
0010
,
0001
0100
0010
2000
0000
3010
0001
0020
,
0000
1030
1010
0000
0001
0100
0010
1000
,
0100
0010
0001
0200
0000
1300
0100
2000
,
0000
3100
0010
0100
0000
0001
0100
0010
,
1000
0100
0010
0011
0000
1000
0010
2020
,
0000
0000
3030
0000
2000
0000
0100
0200
,
3000
0000
0001
0000
0000
0310
0100
0010
,
0001
1000
0001
0100
0020
0000
1000
1000
,
0000
0000
0130
0000
0000
0000
1001
0000
0000
0000
0004
4000
0000
0000
0000
0000
,
0000
0000
3003
0000
0002
0000
0010
0020
,
0003
0000
1000
0000
0000
0130
0010
0001
,
1000
0010
0100
0001
2001
0000
0010
0000
,
3001
0000
1000
0100
0020
0000
0031
0100
,
1000
0100
0001
0000
0010
0000
0001
0010
,
0001
0000
0010
1000
0010
0000
1000
0100
,
1000
0000
0100
0001
0100
0000
0001
0010
,
0001
0000
1000
0010
0100
0001
0010
0100
,
2000
0000
3010
0000
1000
0000
0010
0001
,
0010
0000
0001
0100
0001
0000
0100
1000
,
0100
0000
1000
0001
2001
0000
0000
0000
,
0001
0000
3001
0000
1000
0100
0010
0000
,
0001
0100
0010
1000
2002
0000
0000
0000
,
0000
0000
0000
0000
,
0000
0000
0000
0000
,
0000
0000
0000
3003
,
1000
1000
0000
0000
0001
0001
0000
0010
,
0010
0000
0001
0000
1000
1000
0000
0001
,
0100
0100
0100
0000
0001
0001
0000
0010
,
0010
0000
0001
0000
1000
1000
0000
0001
,
0101
0000
1100
0000
1000
0100
0010
0001
,
0100
0010
0100
0010
1000
0100
0010
0001
,
1000
0000
0000
1000
0000
0000
1000
0000
0001
0000
0100
0000
0010
0000
1000
0000
,
0100
0010
0100
0010
0001
0100
0010
1000
,
1001
0000
0110
0000
0001
0100
0010
1000
,
0100
0001
0100
0001
0100
1000
0010
0100
,
0001
1000
0001
0000
1000
0100
0010
0001
,
0100
1000
0100
1000
0100
0001
0010
0001
,
2002
3003
2200
3300
,
0022
0000
0000
0033
,
0202
0303
2020
0030
,
0002
0000
0000
0000
,
3003
0000
0000
0000
;

//---------------dance-single - ----------------
#NOTEDATA:;
#CHARTNAME:;
#STEPSTYPE:dance-single;
#DESCRIPTION:;
#CHARTSTYLE:;
#DIFFICULTY:Medium;
#METER:8;
#RADARVALUES:0.362989,0.446129,0.318664,0.419294,0.000000,303.000000,265.000000,38.000000,50.000000,0.000000,0.000000,0.000000,0.000000,0.000000,0.362989,0.446129,0.318664,0.419294,0.000000,303.000000,265.000000,38.000000,50.000000,0.000000,0.000000,0.000000,0.000000,0.000000;
#CREDIT:;
#NOTES:
0000
0000
0000
0000
,
0000
0000
0000
0000
,
0000
0000
0000
0000
,
0000
0000
0000
0000
,
1000
0000
0001
0010
,
0001
0000
1000
0010
,
1000
0000
1001
0000
1001
0000
0000
1100
,
0000
0110
0000
0011
0000
2002
0000
0000
,
3003
1001
1000
0001
,
0100
0000
0010
2000
0000
3001
0010
0002
,
0000
1003
0010
1000
0000
0010
1000
0000
,
0001
0000
1000
0200
0000
0310
0001
2000
,
0000
3000
1001
0000
0001
0000
1000
0000
,
0100
0000
0010
0002
0000
1003
0010
2000
,
0000
3001
0010
0001
0000
0010
0001
0000
,
1000
0001
0000
1001
0000
0110
0000
2002
,
0000
0000
3003
0000
1000
0000
0001
0100
,
0000
0001
0100
0000
0010
1000
0000
0001
,
0100
0000
0001
0000
1000
0000
0100
0010
,
0000
0001
0000
2002
0000
0000
0000
0000
,
0000
0000
3003
0000
0001
0000
1000
0100
,
0000
1000
0100
0000
0010
0001
0000
0100
,
0010
1000
2001
0010
,
0001
0000
3100
0000
1100
0000
0000
0101
,
0000
0000
1100
0000
0001
0000
1000
0010
,
0000
1000
0010
0000
0100
0001
0000
1000
,
0100
0000
0010
0000
0001
0000
0100
0010
,
0000
1000
0000
2002
0000
0000
0000
0000
,
0000
0000
3003
0000
1000
0000
0001
0010
,
0000
0001
0010
0000
0100
1000
0000
0010
,
0100
0001
1002
0010
,
1000
0000
0103
0000
0110
0000
0000
1001
,
0000
0000
0001
1000
0001
0000
0100
0000
,
0010
0000
1000
0200
0000
1300
0001
2000
,
0000
3010
1000
0010
0000
0100
0001
0000
,
1000
0000
0100
0020
0000
0031
1000
0020
,
0000
0030
1001
0000
1000
0000
0100
0000
,
0010
0000
0001
0200
0000
0301
1000
0002
,
0000
0013
0001
0010
0000
0100
1000
0000
,
0001
0100
0000
1001
0000
0110
0000
2002
,
0000
0000
3003
0000
2000
0000
0000
0200
,
0000
0000
0000
3300
0000
0010
0001
0000
,
1000
0010
0100
0000
0002
0000
0000
0020
,
0000
0033
0000
2200
0000
0000
0000
0000
,
0000
0000
3300
0000
0002
0000
0000
0200
,
0000
0000
0000
0303
0000
0010
1000
0000
,
0100
0010
0001
0000
2001
0000
0000
3020
,
0000
0000
0130
0000
0110
0000
0000
1001
,
0000
1000
0001
0001
,
0010
0010
1000
1000
,
0100
0100
0001
0001
,
1000
0000
1000
0000
0001
0010
0100
1000
,
0002
0003
1000
1000
,
0010
0010
0100
0100
,
0001
1000
2002
0000
,
0000
3003
0001
1000
,
0100
0010
0001
2000
0002
0000
0000
0000
,
0000
0000
0000
0000
,
0000
0000
0000
0000
,
0000
0000
0000
3003
,
1000
0000
0001
0000
,
1000
0001
0100
0000
,
0010
0010
1000
0000
,
0001
0010
0100
0000
,
0110
1001
1000
0100
,
1000
0100
1000
0000
0001
0000
0100
0000
,
0010
1000
0001
0010
,
0001
0010
0001
0000
1000
0000
0010
0000
,
1010
0101
0001
0100
,
0010
1000
0001
0000
1000
0000
0100
0000
,
0010
0001
1000
0000
0010
0000
0100
0000
,
0001
1000
0100
0000
0010
0000
0001
0000
,
2002
3003
2200
3300
,
0022
0000
0000
0033
,
0202
0303
2020
0030
,
0002
0000
0000
0000
,
3003
0000
0000
0000
;

//---------------dance-single - ----------------
#NOTEDATA:;
#CHARTNAME:;
#STEPSTYPE:dance-single;
#DESCRIPTION:;
#CHARTSTYLE:;
#DIFFICULTY:Easy;
#METER:6;
#RADARVALUES:0.291110,0.446129,0.293506,0.310278,0.000000,243.000000,208.000000,35.000000,37.000000,0.000000,0.000000,0.000000,0.000000,0.000000,0.291110,0.446129,0.293506,0.310278,0.000000,243.000000,208.000000,35.000000,37.000000,0.000000,0.000000,0.000000,0.000000,0.000000;
#CREDIT:;
#NOTES:
0000
0000
0000
0000
,
0000
0000
0000
0000
,
0000
0000
0000
0000
,
0000
0000
0000
0000
,
1000
0000
1000
1000
,
0001
0000
0001
0001
,
0000
0000
0110
0000
1001
0000
0000
1001
,
0000
0110
0000
0110
0000
2002
0000
0000
,
3003
1001
1000
0100
,
0010
0001
0100
0010
,
1000
0001
1000
0001
,
0010
0100
1000
0010
,
0001
0010
1000
0100
,
0010
0001
0100
0010
,
1000
0001
0010
0100
,
1000
0000
0000
1001
0000
0000
0000
0110
,
0000
0001
1000
0000
,
0100
0000
1000
0100
,
0010
0001
1000
0000
,
0001
0000
0000
2002
0000
0000
0000
0000
,
0000
3003
0001
0000
,
0100
0000
0010
1000
,
0100
0010
0012
0000
,
1000
0000
0003
0000
0101
0000
0000
0110
,
0000
1010
1001
0000
,
1000
0000
0001
0010
,
1000
0010
0001
0000
,
1000
0000
0000
2002
0000
0000
0000
0000
,
0000
3003
1000
0000
,
0001
0000
1000
0010
,
0001
0010
2010
0000
,
0001
0000
3000
0000
1100
0000
0000
1001
,
0000
0101
0001
0100
,
0010
1000
0100
0010
,
0001
1000
0001
0100
,
0010
1000
0100
0001
,
0100
1000
0001
0100
,
0010
1000
0100
1000
,
0010
0100
0001
1000
,
0001
0000
0000
1001
0000
0000
0000
0110
,
0000
0000
0001
0000
2000
0000
0000
0002
,
0000
0000
3003
1000
,
0010
0000
0100
0000
0002
0000
0000
2000
,
0000
3003
0000
0220
0000
0000
0000
0000
,
0000
0000
0330
0000
0002
0000
0000
0020
,
0000
0000
0000
0033
0000
0000
0001
0000
,
0010
0000
0100
0000
2000
0000
0000
0020
,
0000
0000
3030
0000
0002
0000
0000
0020
,
0000
0033
1000
0010
,
0001
0010
1000
0100
,
0001
0100
1000
0010
,
0100
0001
1000
0001
,
2002
3003
0001
0010
,
1000
0010
0001
0100
,
1000
0100
0220
0000
,
0000
0330
0001
0001
,
1000
1000
2002
0000
,
0000
0000
0000
0000
,
0000
0000
0000
0000
,
0000
0000
0000
3003
,
1000
0000
1000
0000
,
0010
0100
0001
0000
,
0010
0010
0001
0000
,
1000
0010
1000
0000
,
0110
1001
1000
0100
,
0010
0001
1000
0001
,
0100
0100
0001
0100
,
0010
1000
0001
1000
,
0110
1001
0001
1000
,
0100
0001
0100
1000
,
0010
0010
1000
0001
,
0100
1000
0100
0001
,
2002
3003
2200
3300
,
0022
0000
0000
0033
,
0202
0303
2020
0030
,
0002
0000
0000
0000
,
3003
0000
0000
0000
;

//---------------dance-single - ----------------
#NOTEDATA:;
#CHARTNAME:;
#STEPSTYPE:dance-single;
#DESCRIPTION:;
#CHARTSTYLE:;
#DIFFICULTY:Beginner;
#METER:3;
#RADARVALUES:0.198865,0.254931,0.142560,0.134174,0.000000,166.000000,149.000000,17.000000,16.000000,0.000000,0.000000,0.000000,0.000000,0.000000,0.198865,0.254931,0.142560,0.134174,0.000000,166.000000,149.000000,17.000000,16.000000,0.000000,0.000000,0.000000,0.000000,0.000000;
#CREDIT:;
#NOTES:
0000
0000
0000
0000
,
0000
0000
0000
0000
,
0000
0000
0000
0000
,
0000
0000
0000
0000
,
1000
0000
1000
0000
,
0001
0000
0001
0000
,
0000
1001
2002
0000
,
0000
0000
0000
0000
,
3003
0000
1000
1000
,
1000
0000
0100
0000
,
0010
0000
0001
0001
,
0001
0000
0100
0000
,
0010
0000
1000
1000
,
1000
0000
0100
0000
,
0010
0000
0001
0001
,
0001
0000
1001
0000
,
0110
0000
1000
0000
,
1000
0000
0001
0000
,
1000
0000
0001
0000
,
0001
0000
2002
0000
,
3003
0000
0001
0000
,
0001
0000
1000
0000
,
0001
0000
1000
0000
,
0100
0000
0010
0000
,
0001
0000
1000
0000
,
1000
0000
0010
0000
,
1000
0000
0010
0000
,
0010
0000
2002
0000
,
3003
0000
0001
0000
,
0001
0000
0010
0000
,
0001
0000
1000
0000
,
0010
0000
0100
0000
,
0001
0000
1000
1000
,
1000
0000
0100
0000
,
0001
0000
0010
0010
,
0010
0000
1000
0000
,
0100
0000
0001
0001
,
0001
0000
0010
0000
,
1000
0000
0100
0100
,
0100
0000
1001
0000
,
0110
0000
1000
0000
,
2000
0000
3000
0001
,
0001
0000
0100
0000
,
0010
0000
2002
0000
,
3003
0000
0001
0000
,
0002
0000
0003
1000
,
1000
0000
0010
0000
,
0100
0000
0100
0000
,
0001
0000
0010
0010
,
0010
0000
0100
0100
,
0100
0000
1000
1000
,
1000
0000
0010
0000
,
0100
0000
0010
0010
,
0010
0000
0100
0100
,
0100
0000
0002
0000
,
0003
0000
1000
0000
,
0001
0000
2002
0000
,
0000
0000
0000
0000
,
0000
0000
0000
0000
,
0000
0000
3003
0000
,
1000
0000
1000
0000
,
0100
0000
0010
0000
,
0001
0001
0001
0000
,
1000
0000
0001
0000
,
1001
0000
1000
1000
,
1000
0000
0010
0010
,
0010
0000
0001
0001
,
0001
0000
0010
0000
,
1001
0000
1000
1000
,
1000
0000
0100
0100
,
0100
0000
0001
0001
,
0001
0000
0100
0000
,
1001
0000
0110
0000
,
2002
0000
3003
0000
,
0110
0000
1001
0000
,
0020
0000
0000
0000
,
0030
0000
0000
0000
;
