#VERSION:0.83;
#TITLE:Machine Gun;
#SUBTITLE:(16Bit Remix);
#ARTIST:NOISIΛ;
#TITLETRANSLIT:;
#SUBTITLETRANSLIT:;
#ARTISTTRANSLIT:NOISIA;
#GENRE:Dirty Dubstep;
#ORIGIN:;
#CREDIT:;
#BANNER:Machine Gun (16Bit Remix).png;
#BACKGROUND:Machine Gun (16Bit Remix)-bg.png;
#PREVIEWVID:;
#JACKET:Machine Gun (16Bit Remix)-jacket.png;
#CDIMAGE:;
#DISCIMAGE:;
#LYRICSPATH:;
#CDTITLE:cdtitle.png;
#MUSIC:Machine Gun (16Bit Remix).ogg;
#OFFSET:-0.102448;
#SAMPLESTART:20.669878;
#SAMPLELENGTH:13.714285;
#SELECTABLE:YES;
#BPMS:0.000=140.000,
46.000=70.000,
47.000=140.000,
97.000=70.000,
99.021=140.000,
239.000=70.000,
241.000=140.000;
#STOPS:;
#DELAYS:;
#WARPS:;
#TIMESIGNATURES:0.000=4=4;
#TICKCOUNTS:0.000=4;
#COMBOS:0.000=1;
#SPEEDS:0.000=1.000=0.000=0;
#SCROLLS:0.000=1.000;
#FAKES:;
#LABELS:0.000=Song Start;
#BGCHANGES:;
#KEYSOUNDS:;
#ATTACKS:
;

//---------------dance-single - ----------------
#NOTEDATA:;
#CHARTNAME:;
#STEPSTYPE:dance-single;
#DESCRIPTION:;
#CHARTSTYLE:;
#DIFFICULTY:Challenge;
#METER:15;
#RADARVALUES:0.726025,0.877097,0.264009,0.366679,1.353046,693.000000,657.000000,36.000000,50.000000,30.000000,0.000000,0.000000,0.000000,0.000000,0.726025,0.877097,0.264009,0.366679,1.353046,693.000000,657.000000,36.000000,50.000000,30.000000,0.000000,0.000000,0.000000,0.000000;
#CREDIT:;
#DISPLAYBPM:140.000000;
#NOTES:
0000
0000
0000
0000
,
0000
0000
0000
0000
,
0000
0000
0000
0000
,
0000
0000
0000
0000
,
1001
0000
0001
0010
0000
0000
0001
0000
,
0101
0000
0000
1000
0100
0000
1000
0010
,
0100
0000
0000
0001
0020
0000
0100
0000
,
0100
0000
0000
0130
1000
0001
0010
0000
,
1001
0000
0000
0000
0001
0100
0001
0100
0010
0100
0001
0100
0001
1000
0000
0000
,
0001
0010
1001
0100
,
0001
0000
0000
0000
1000
0100
1000
0100
0010
0100
1000
0100
1000
0001
0000
0000
,
2001
0000
0000
0000
0000
0000
0001
0000
0000
0000
0000
0000
0001
0000
0000
0000
0000
0000
0002
0000
0000
0000
0000
0000
3003
0000
0000
1000
0000
0000
1001
0000
0000
0001
0000
0000
1000
0000
0000
0000
0100
0000
0000
0000
1000
0000
0000
0000
,
0100
0010
0001
0100
00M0
0100
1000
0010
0000
0100
0001
0100
,
0001
1000
0001
0010
0M00
0010
1000
0001
0000
0010
0100
0010
,
0100
1000
0001
0100
00M0
0100
1000
0001
0000
1000
0001
1000
,
0001
0010
0100
1200
0000
0310
0001
0201
0000
0301
0100
1000
,
0100
0001
0100
1000
000M
1000
0010
0001
0010
1000
0100
0010
,
0001
0100
0001
0010
0M00
0010
1000
0100
0010
0001
0010
1000
,
0010
0000
0001
0000
0010
0000
0200
0000
0000
00M0
0000
0000
2000
0000
0000
0000
0000
0000
0300
0000
0000
0000
0M00
0000
,
3001
0000
0000
0000
0100
0000
0120
0000
0000
0030
0100
0000
0001
0000
1000
0000
0000
0000
1001
0000
0000
0000
0001
0000
,
0010
0000
0001
1000
0001
1000
0020
0000
0000
0000
0030
0000
0000
0000
1010
0000
0000
0000
0101
0000
0000
0000
0100
0000
,
0010
0000
1000
0001
1000
0000
0100
0000
0000
0000
0000
0000
0010
0000
0010
0000
0000
0000
1001
0000
0000
0001
0000
0000
,
1000
0010
1000
0001
0000
0100
0020
1000
0000
M200
0000
0030
,
0000
0300
00M1
0000
0100
0000
0020
0000
0000
0000
0000
0000
1030
0000
0001
0000
1000
0000
1200
0000
0000
0300
0000
0000
,
0010
0001
0100
20M2
0M00
0000
3003
0000
0000
1001
0000
0001
,
0100
0010
0100
0010
0100
0010
1000
0000
0000
0000
0001
0000
0100
0000
1000
0000
0100
0000
0001
0000
0000
0000
0000
0000
,
1000
0100
0000
0100
0010
0000
0010
0001
0000
1001
0000
0000
,
2000
3000
0020
0000
0000
0000
1030
0000
0000
0000
0000
0000
0001
0000
0010
0000
0001
0000
0100
0000
0000
0000
0000
0000
,
0010
1000
0000
0001
0000
0000
1000
0010
1000
0100
0000
0001
,
0100
1000
0100
0010
0001
0100
0001
1000
0010
1000
0000
0000
,
0100
0010
0000
0001
0000
0000
0100
0010
0100
2002
0000
0000
,
3003
0000
0010
1000
0100
0010
0001
1000
0001
0010
0M00
0010
,
1000
0100
0001
0100
1000
0010
0100
0001
1000
0100
00M0
0100
,
0001
0100
1000
0100
0001
0010
0100
1000
0001
0100
00M0
0100
,
1000
0000
0010
0000
0000
0000
0001
0000
0010
0000
1000
0000
0100
0000
0010
0000
0001
0000
0100
0000
0000
0010
0000
0000
,
0100
0010
0100
0001
0010
0001
0100
0010
1000
0100
00M0
0100
,
0001
0010
1000
0010
0001
0100
0010
1000
0001
0010
0M00
0010
,
1000
0100
0000
0001
0100
1000
0010
1000
0001
2000
0000
3001
,
0200
0000
0000
0000
0000
0000
0000
0000
0000
0000
0000
0000
0000
0000
0000
0000
0000
0000
0000
0000
0000
0000
0000
0000
0000
0000
0000
0000
0000
0000
0000
0000
0301
0000
0000
0000
0000
0000
0000
0000
0000
0000
0000
0000
0000
0000
0000
0000
0020
0000
0000
0000
0000
0000
0000
0000
0000
0000
0000
0000
0000
0000
0000
0000
0000
0000
0000
0000
0000
0000
0000
0000
0000
0000
0000
0000
0000
0000
0000
0000
0031
0000
0000
0000
0000
0000
0000
0000
0000
0000
0000
0000
0000
0000
0000
0000
0100
0000
0000
0000
0000
0000
0000
0000
0000
0000
0000
0000
0000
0000
0000
0000
0020
0000
0000
0000
0000
0000
0000
0000
0000
0000
0000
0000
0000
0000
0000
0000
0000
0000
0000
0000
0000
0030
0000
0000
0000
0000
0000
0000
0000
0000
0000
0000
1020
0000
0000
0000
0000
0000
0000
0000
0000
0000
0000
0000
0000
0000
0000
0000
0000
0000
0000
0000
0000
0000
0000
0000
0000
0000
0000
0000
0000
0000
0000
0000
0130
0000
0000
0000
0000
0000
0000
0000
0000
0000
0000
0000
0000
0000
0000
0000
,
0001
0021
0000
0031
0010
1000
0010
0001
0010
1000
000M
1000
,
0100
0010
0001
1000
0010
0001
0010
1000
0010
0001
M000
0001
,
0100
0010
0000
1000
0100
0001
0100
1000
0100
0001
M000
0001
,
0010
0100
1000
0001
0100
1000
0100
0001
0100
2020
0000
0000
,
3030
0000
0010
1000
0100
0001
0100
1000
0100
0001
M000
0001
,
0010
0000
0001
0000
0100
0000
0001
0000
0010
0000
1000
0000
0010
0000
0001
0000
0010
0000
1000
0000
0000
0010
0000
0000
,
1000
0010
0001
1000
0010
0001
0010
1000
0010
0001
M000
0001
,
0100
0000
0010
0000
1000
0000
0100
0000
0000
0000
0010
0100
0010
0000
0001
0000
0100
0000
0010
0000
0000
2000
3000
0000
,
0002
0003
0000
2000
3000
0000
1001
0000
0000
0000
0000
0000
0001
0000
0000
0000
0100
0000
0010
0000
0000
0000
0000
0000
,
0010
1000
0001
1000
0000
0000
1000
0000
0100
0010
0100
0000
,
1000
0000
1000
0001
0000
0000
0001
0100
0000
0010
0000
0000
,
0010
0000
0000
1001
0000
0000
0000
1000
0100
0020
0000
0000
,
0031
0000
0000
0010
0000
0000
0001
0000
0000
0010
0000
0000
0001
0000
0000
0000
0010
0000
0000
0000
1000
0000
0000
0000
0010
0000
0000
0000
0001
0000
0000
0000
0100
0000
0000
0000
1000
0000
0000
0000
000M
0000
0000
0000
1000
0000
0000
0000
,
0010
0001
0010
1000
0100
0010
0001
1000
0001
0100
00M0
0100
,
1000
0001
1000
0001
0100
1000
0100
0001
0010
2000
0000
0000
,
3010
0000
0001
0000
0100
0000
0020
0000
0000
0000
0000
0000
1030
0000
0000
0000
0010
0000
0210
0000
0000
0000
0000
0300
,
0001
0000
1000
0000
0000
0000
1100
0000
0000
0000
0100
0000
1000
0000
0001
0100
0001
0100
0020
0000
0000
0000
0030
0000
,
0000
0000
1100
0000
0000
0000
0011
0000
0000
0000
0001
0000
0100
0000
0001
1000
0001
0000
0010
0000
0000
0000
0000
0000
,
0100
0000
0100
0000
0000
0000
1001
0000
0000
1000
0000
0000
0001
0000
0010
0000
0001
0000
0100
0000
0000
0000
0010
0000
,
2000
0100
0000
0M02
0000
3000
0000
10M3
0001
0020
0000
0000
,
1030
0000
0010
0000
0001
0000
0100
0000
0000
0000
0220
0000
0000
0000
0000
0330
0000
0000
2MM1
0000
0000
0000
0000
0000
,
0000
0000
0000
0000
0000
0000
3001
0000
0000
0000
1000
0000
0001
1000
0001
1000
0001
1000
0001
0000
0000
0000
1000
0000
,
0100
0001
0100
1000
0000
0000
0001
0020
0030
0100
2000
3000
,
0001
0000
0000
0000
0020
0000
0000
0000
0030
0000
0000
0000
1001
0000
0000
0000
0000
0000
0000
0000
0010
0000
0000
0000
0002
0000
0000
0003
0200
0000
0000
0000
0000
0000
0300
0000
0001
0000
0000
0000
0000
0000
0100
0000
0000
0000
0000
0000
,
0010
0000
1000
0000
0001
0000
1000
0100
1000
0100
1000
0100
1000
0000
0100
0000
0010
0000
0001
0100
0001
0100
0001
0100
,
0001
0000
0010
0000
0100
0000
1000
0000
0000
0001
0000
0000
1000
0000
0010
0000
0100
0000
0001
0000
0000
0000
0000
0000
,
0010
0000
0100
0000
0000
0000
1000
0010
1000
0010
1000
0010
1000
0000
0010
0000
0100
0000
0001
0000
0000
1000
0000
0000
,
0001
0000
0010
0000
0100
0000
1000
0000
0000
0010
0000
0000
1000
0000
0001
0000
0100
0000
0110
0000
0000
0010
0000
0000
,
1000
0000
0100
0000
0010
0000
0001
0010
0001
0010
0001
0010
0001
0000
0100
0000
0010
0000
1000
0100
1000
0100
1000
0100
,
1000
0000
0010
0000
0100
0000
0001
0000
0000
1000
0000
0000
0001
0000
0100
0000
0000
0000
0110
0000
0000
0000
0000
0000
,
2000
0000
0000
0000
0000
0000
0000
0000
0000
0000
0000
0000
0000
0000
0000
0000
0000
0000
3000
0000
0000
0000
0000
0000
0002
0000
0000
0000
0000
0000
0000
0000
0000
0000
0000
0000
0000
0000
0000
0000
0000
0000
0003
0000
0000
0000
0000
0000
1000
0000
0000
0000
0000
0000
0000
0000
0001
0000
0000
0000
0000
0000
0000
0000
1000
0000
0000
0000
0000
0000
0000
0000
0001
0000
0000
0000
0000
0000
0000
0000
1000
0000
0000
0000
0000
0000
0000
0000
0001
0000
0000
0000
0000
0000
0000
0000
1000
0000
0000
0000
0000
0000
0000
0000
0001
0000
0000
0000
0000
0000
0000
0000
1000
0000
0000
0000
0000
0000
0000
0000
0001
0000
0000
0000
0000
0000
0000
0000
1000
0000
0000
0000
0000
0000
0000
0000
0001
0000
0000
0000
0000
0000
0000
0000
1000
0000
0000
0000
0000
0000
0000
0000
0000
0000
0000
0000
0000
0000
0000
0000
0000
0000
0000
0000
0000
0000
0000
0000
0001
0000
0000
0000
0000
0000
0000
0000
0000
0000
0000
0000
0000
0000
0000
0000
0000
0000
0000
0000
0000
0000
0000
0000
,
1000
0000
0010
0000
0100
0000
0001
0000
0000
0000
0010
0000
0100
1000
0100
1000
0100
1000
0001
0000
0100
0000
1000
0000
,
0001
0010
1000
0100
00M0
0100
0001
0010
0001
1000
0100
0001
,
1000
0010
0001
0100
00M0
0100
1000
0100
0010
0001
0010
1000
,
0001
0100
1000
0010
0M00
0010
0001
0100
0001
2001
0000
0000
,
3010
0000
0000
0000
0010
0000
0120
0000
0000
0030
1000
0000
0001
0000
0010
0000
0000
0000
0110
0000
0000
0000
0000
0000
;

//---------------dance-single - ----------------
#NOTEDATA:;
#CHARTNAME:;
#STEPSTYPE:dance-single;
#DESCRIPTION:;
#CHARTSTYLE:;
#DIFFICULTY:Hard;
#METER:13;
#RADARVALUES:0.597163,0.630413,0.227341,0.234675,0.913031,570.000000,539.000000,31.000000,32.000000,4.000000,0.000000,0.000000,0.000000,0.000000,0.597163,0.630413,0.227341,0.234675,0.913031,570.000000,539.000000,31.000000,32.000000,4.000000,0.000000,0.000000,0.000000,0.000000;
#CREDIT:;
#NOTES:
0000
0000
0000
0000
,
0000
0000
0000
0000
,
0000
0000
0000
0000
,
0000
0000
0000
0000
,
1001
0000
1000
0010
0000
0000
1000
0000
,
1100
0000
0000
0001
0100
0000
0001
0010
,
0100
0000
0000
1000
0020
0000
0100
0000
,
0100
0000
0000
0130
0001
1000
0010
0000
,
1001
0000
0000
0000
1000
0000
0010
0M00
0010
0000
0001
0000
0100
0000
0000
0000
,
0001
0100
1001
0010
,
1000
0000
0000
0000
0001
0000
0010
0M00
0010
0000
1000
0000
0100
0000
0000
0000
,
2001
0000
0000
0000
0000
0000
0001
0000
0000
0000
0000
0000
0001
0000
0000
0000
0000
0000
0002
0000
0000
0000
0000
0000
3003
0000
0000
0100
0000
0000
0010
0000
0000
0100
0000
0000
1001
0000
0000
0000
0000
0000
0000
0000
1000
0000
0000
0000
,
0100
0000
0100
0010
0000
0010
0001
0100
0000
0010
0000
0010
,
1000
0000
1000
0100
0000
0100
0010
0001
0000
0100
0000
0100
,
0001
0000
0001
0010
0000
0010
0100
1000
0000
0001
0000
0001
,
0100
0000
0000
1010
0000
0100
0000
0011
0000
0001
1000
0001
,
1000
0001
1000
0010
0000
0100
0010
1000
0001
0010
0000
0010
,
0100
0000
0100
1000
0000
1000
0001
0010
0001
1000
0010
1000
,
0010
1000
0010
0200
0000
0000
0002
0000
0000
0300
0000
0000
,
0013
0000
0100
1000
0000
0000
0010
0100
0000
1001
0000
0010
,
0001
0100
0010
2000
0000
3000
0000
0110
0000
1001
0000
1000
,
0100
0000
1000
0000
0100
0000
0010
0000
0000
0000
0000
0000
0001
0000
0001
0000
0000
0000
0100
0000
0000
1000
0000
0000
,
0100
0010
0100
0001
0000
0100
0002
0010
0000
2000
0000
0000
,
0003
3001
1000
0100
0000
0000
0011
0000
0000
1100
0000
0000
,
0001
1000
0002
2000
0000
0000
3003
0000
0000
1001
0000
0001
,
0100
1000
0100
0001
0000
0001
0010
0100
1000
0002
0000
0000
,
0100
0010
0103
1010
,
0001
0100
0000
0001
0000
0000
1000
0100
0000
0010
0000
0000
,
0100
1000
0000
0001
0000
0000
0100
0010
0100
0001
0000
0001
,
1000
0000
0000
0100
0000
0100
1000
0000
1000
0010
0000
0000
,
0100
0001
0000
0010
0000
0000
0001
1000
0000
2020
0000
0000
,
3030
0000
0000
1000
0000
0100
0010
0000
0100
1000
0000
0010
,
1000
0100
0000
0010
0000
0001
0100
0000
0001
0010
0000
0001
,
0100
0010
0000
1000
0000
0001
0010
0000
0001
0100
0000
0010
,
1000
0000
0100
0000
0000
0000
0010
0000
0000
0000
0100
0000
1000
0000
0000
0000
0001
0000
1000
0000
0000
0100
0000
0000
,
1000
0000
0100
00M0
0100
0000
0001
0000
0000
0000
0010
0000
0100
0000
0000
0000
0010
0000
0001
0000
0000
0000
0100
0000
,
0010
1000
0000
0100
0000
1000
0010
0000
1000
0100
0000
0010
,
0001
0100
0000
0010
0000
1000
0001
0000
1000
0200
0000
0000
,
0302
0000
0000
0000
0000
0000
0023
0000
0000
0000
0000
0000
2030
0000
0000
3000
0000
0000
1010
0000
0000
0000
0001
0000
,
0000
1100
0000
0001
0100
0001
0100
0001
0100
0010
0000
1000
,
0100
0010
0000
0010
0001
0010
0001
0010
0001
0100
0000
1000
,
0100
0001
0000
0010
0100
0010
0100
0010
0100
1000
0000
0010
,
0100
0001
0000
1000
0100
1000
0100
0000
0000
2002
0000
0000
,
3003
0000
0000
0001
1000
0001
1000
0001
1000
0010
0000
1000
,
0100
0000
0010
0000
0000
0000
0100
0000
1000
0000
0100
0000
1000
0000
0100
0000
1000
0000
0001
0000
0000
1000
0000
0000
,
0001
0000
0010
0M00
0010
0000
1000
0000
0100
0000
1000
0000
0100
0000
1000
0000
0100
0000
0010
0000
0000
0000
0001
0000
,
0100
0000
0010
0000
1000
0000
0001
0000
0000
0000
1000
0000
0010
0000
1000
0000
0100
0000
0010
0000
0000
0001
0000
0000
,
1000
0001
1001
0000
0001
0000
0011
0000
,
0001
0010
0100
1000
0000
0000
1000
0000
0000
1010
0000
0000
,
0001
0000
1000
0001
0000
0000
0001
0000
0000
0101
0000
0000
,
0001
0000
0000
1001
0000
0000
0000
1000
0100
0020
0000
0000
,
0000
0000
0000
0031
0010
0001
0010
0001
0010
0100
0000
1000
,
0010
0100
0000
0001
1000
0001
1000
0001
1000
0100
0000
1000
,
0001
0000
0000
0100
0010
0100
0010
0100
0010
1000
0000
0100
,
0010
0100
1000
0002
0000
0000
0103
0000
0100
0010
0000
0000
,
1000
0001
0000
1001
0000
0010
1000
0100
0010
0002
0000
0003
,
0000
0110
0000
1001
0000
0010
0100
0001
1000
0100
0000
0000
,
1000
0000
1000
0000
0000
0000
0100
0000
0000
0001
0000
0000
0100
0000
0010
0000
0100
0000
1000
0000
0000
0000
0001
0000
,
2000
0010
0000
0002
0000
0000
3000
1003
0001
0200
0000
0000
,
1300
0100
0001
0100
0000
0020
0000
0030
0000
2001
0000
0000
,
0000
0000
0000
3001
0000
1000
0100
0001
0100
1000
0000
0010
,
1000
0010
0100
0001
0000
0000
0020
0030
0000
0020
0000
0030
,
0020
0000
0000
0000
0000
0000
0130
0000
0000
0000
0010
0000
0001
0000
1000
0000
0000
0000
0001
0000
0000
1000
0000
0000
,
0001
1000
0001
0100
1000
0100
0001
1000
0001
0100
1000
0100
,
0001
0000
1000
0000
0001
0000
1000
0000
0000
0001
0000
0000
1000
0000
0000
0000
1000
0000
0100
0000
0000
0000
0000
0000
,
0110
0000
0000
0000
0000
0000
0001
0000
0010
0000
1000
0000
0010
0000
0001
0000
1000
0000
0001
0000
0000
1000
0000
0000
,
0001
0000
1000
0000
0001
0000
0100
0000
0000
1000
0000
0000
0100
0000
0000
0000
0010
0000
1000
0000
0000
0001
0000
0000
,
1000
0001
1000
0100
0001
0100
1000
0001
1000
0100
0001
0100
,
1000
0000
0001
0000
1000
0000
0001
0000
0000
1000
0000
0000
0001
0000
1000
0000
0000
0000
0100
0000
0000
0000
0000
0000
,
0010
0000
0000
0010
0000
0000
1000
0000
0010
0000
0001
0000
0010
0000
1000
0000
0010
0000
0001
0000
0000
0010
0000
0000
,
0001
0010
0100
1000
0000
0010
0100
0001
0100
0010
1000
0010
,
1000
0010
1000
0001
0000
0010
0100
1000
0001
1000
0010
1000
,
0010
1000
0010
0100
0000
0001
1000
0100
0000
0010
0001
0010
,
0001
0010
0001
1000
0000
0010
0100
0010
0000
2001
0000
0000
,
3010
0000
0010
0200
0000
0301
1000
0100
0000
0110
0000
0000
;

//---------------dance-single - ----------------
#NOTEDATA:;
#CHARTNAME:;
#STEPSTYPE:dance-single;
#DESCRIPTION:;
#CHARTSTYLE:;
#DIFFICULTY:Medium;
#METER:10;
#RADARVALUES:0.442110,0.550019,0.579353,0.278676,0.260342,422.000000,343.000000,79.000000,38.000000,0.000000,0.000000,0.000000,0.000000,0.000000,0.442110,0.550019,0.579353,0.278676,0.260342,422.000000,343.000000,79.000000,38.000000,0.000000,0.000000,0.000000,0.000000,0.000000;
#CREDIT:;
#OFFSET:-0.102448;
#BPMS:0.000000=140.000000
,98.000000=70.000000
,100.020836=140.000000
,240.000000=70.000000
,242.000000=140.000000
;
#STOPS:;
#DELAYS:;
#WARPS:;
#TIMESIGNATURES:0.000000=4=4
;
#TICKCOUNTS:0.000000=4
;
#COMBOS:0.000000=1
;
#SPEEDS:0.000000=1.000000=0.000000=0
;
#SCROLLS:0.000000=1.000000
;
#FAKES:;
#LABELS:0.000000=Song Start
;
#NOTES:
0000
0000
0000
0000
,
0000
0000
0000
0000
,
0000
0000
0000
0000
,
0000
0000
0000
0000
,
1001
0000
0000
0010
0000
0000
1000
0000
,
0101
0000
0000
1000
0000
0000
0100
0000
,
0010
0000
0000
0001
2000
0000
0001
0000
,
0001
0000
0000
3001
0100
0000
0010
0000
,
1001
0000
1000
0100
0001
0100
1000
0000
,
0010
0010
1001
0100
,
0001
0000
0001
0100
1000
0100
0001
0000
,
0010
0100
0020
0200
0330
0010
0100
0010
,
1001
0000
0000
0001
0000
0000
0100
0000
0010
1000
0010
0000
,
1000
0000
0000
0100
0000
0000
0010
0000
0001
0010
0001
0000
,
1000
0010
1002
0010
,
1000
0000
0000
0013
0000
0000
0011
0000
0100
0000
1010
0000
,
1001
0000
0000
0001
0000
0000
0110
0000
1000
0010
1000
0000
,
1001
0000
0000
1000
0000
0000
0110
0000
0001
0010
0001
0000
,
1001
0001
0201
1000
,
0000
0310
0110
0001
,
1001
0000
0000
1000
0100
1000
0100
0000
0000
0000
0101
0000
,
1000
0001
1001
0010
,
1000
0100
0001
0000
0110
0000
2000
0000
,
0002
3000
0103
0010
,
1001
0000
0000
1000
0100
0010
0002
0000
0000
0000
0000
0000
,
0103
0000
0000
0100
0000
0000
0001
0000
0010
0100
0000
0000
,
1000
0000
0002
0003
2000
3000
0002
0003
,
2001
0000
0000
3000
0000
0000
0010
0000
0000
0000
0000
0000
1000
0000
0000
0000
0000
0000
1000
0000
0100
0000
0000
0000
,
1001
0000
0000
0001
0100
0000
1001
0000
0000
0001
0010
0000
,
1001
0000
1000
0100
0000
0000
1000
0000
0000
0001
0100
0000
,
2010
0001
0010
3001
,
2002
0000
0000
3003
0000
0000
0001
0000
1000
0100
0000
0000
,
0110
0000
0001
0010
0001
0000
1000
0000
0001
0100
0000
0000
,
0110
0000
1000
0010
1000
0000
0001
0000
1000
0100
0000
0000
,
1001
0000
0001
0100
0001
0000
0100
0000
0000
0010
0000
0000
,
2002
0000
0000
3003
0000
0000
0001
0000
0100
0010
0000
0000
,
1010
0000
1000
0001
1000
0000
0100
0000
0100
0010
0000
0000
,
0011
0000
0001
1000
0001
0000
0100
0000
0010
1000
0000
0000
,
0200
0000
0000
0300
,
1100
0000
0010
0000
0101
0000
1001
0000
1000
0010
0000
0000
,
0110
0000
0010
1000
0001
0000
1001
0000
0001
0010
0000
0000
,
0110
0000
0010
0001
1000
0000
1001
0000
1000
0010
0000
0000
,
1002
0100
1000
0103
,
2002
0000
0000
3003
0000
0000
1001
0000
0001
0010
0000
0000
,
1100
0000
0010
0001
0100
0000
1001
0000
1000
0010
0000
0000
,
0101
0000
0010
1000
0100
0000
1001
0000
1000
0001
0000
0000
,
0110
0000
0001
1000
0001
0000
1000
0000
0100
0010
0000
0000
,
0110
0000
1001
0000
,
0101
0000
1100
0000
,
1010
0001
1001
0000
,
0011
0000
1100
0000
,
2002
3003
0001
0100
,
1010
0100
0001
0010
,
1100
0010
0001
0100
,
1001
0010
1000
0001
,
0011
0000
0000
1000
0000
0000
1100
0000
0000
0001
0100
0001
,
0100
0000
0000
0000
1100
0000
0001
0000
0000
1000
0000
0000
,
1001
0000
0010
0000
0001
0100
1000
0000
,
0110
0002
2000
0003
,
3100
0000
0000
0010
0000
0000
0001
0000
2000
0000
0000
0000
,
3020
0000
0130
0001
,
0010
0000
0000
0000
0000
0000
0000
0000
0100
0000
0000
0000
1000
0000
0000
0000
0000
0000
0000
0000
0000
0000
0000
0000
1001
0000
0000
0000
0000
0000
0000
0000
0000
0000
0000
0000
0002
0000
0000
0003
0000
0000
0000
0000
0000
0000
0000
0000
,
0002
0000
0000
0000
0000
0000
0003
0000
0000
0000
0000
0000
0002
0000
0000
0000
0000
0000
0000
0000
0000
0003
0000
0000
1000
0000
0000
0000
0000
0000
0000
0000
0000
0000
0000
0000
0010
0000
0000
0000
0100
0000
0000
0000
0000
0000
0000
0000
,
0001
1000
0001
0000
0021
0000
1030
0000
,
1200
0000
0301
0000
0010
0001
0100
0000
,
1001
0000
0000
0100
0000
0000
2001
0000
0000
3010
0100
0010
,
0100
0001
1001
0100
,
1000
0001
1000
0000
1020
0000
0031
0000
,
0201
0000
1300
0000
0010
1000
0100
0000
,
1100
0000
0010
0001
0200
0000
0000
0000
,
0310
0100
0010
0000
1001
0000
0000
0000
,
1000
0000
0000
0001
0000
0000
0101
0000
1000
0010
0100
0000
,
0001
0000
0000
1000
0000
0000
1100
0000
0001
0010
0100
0000
,
1000
0000
0000
0010
0000
0000
1001
0000
0001
1000
0001
0000
,
1002
0000
0000
0103
0000
0000
2001
0000
0000
3100
0010
0000
,
0100
0000
0000
0000
;

//---------------dance-single - ----------------
#NOTEDATA:;
#CHARTNAME:;
#STEPSTYPE:dance-single;
#DESCRIPTION:;
#CHARTSTYLE:;
#DIFFICULTY:Easy;
#METER:6;
#RADARVALUES:0.310106,0.357512,0.337345,0.271343,0.000000,296.000000,250.000000,46.000000,37.000000,0.000000,0.000000,0.000000,0.000000,0.000000,0.310106,0.357512,0.337345,0.271343,0.000000,296.000000,250.000000,46.000000,37.000000,0.000000,0.000000,0.000000,0.000000,0.000000;
#CREDIT:;
#OFFSET:-0.102448;
#BPMS:0.000000=140.000000
,98.000000=70.000000
,100.020836=140.000000
,240.000000=70.000000
,242.000000=140.000000
;
#STOPS:;
#DELAYS:;
#WARPS:;
#TIMESIGNATURES:0.000000=4=4
;
#TICKCOUNTS:0.000000=4
;
#COMBOS:0.000000=1
;
#SPEEDS:0.000000=1.000000=0.000000=0
;
#SCROLLS:0.000000=1.000000
;
#FAKES:;
#LABELS:0.000000=Song Start
;
#NOTES:
0000
0000
0000
0000
,
0000
0000
0000
0000
,
0000
0000
0000
0000
,
0000
0000
0000
0000
,
1001
0000
0001
1000
,
0110
0000
1000
0001
,
1000
0000
0002
0010
,
0010
0000
1003
0001
,
0100
0010
1010
0100
,
0001
0010
0011
0100
,
1000
0010
1010
0100
,
0002
2000
3003
0110
,
1001
0001
0100
1000
,
0001
1000
0100
0001
,
1000
0001
0020
0000
,
0130
0100
0012
0100
,
1003
0001
0010
1000
,
0001
1000
0010
0001
,
1000
0001
0201
0020
,
0000
0330
0010
1000
,
0001
1000
1100
0000
,
1000
0001
0101
0000
,
1000
0010
0100
0002
,
0023
0000
0130
0010
,
0001
0100
2002
3003
,
1001
0010
1000
0100
,
0020
0100
0100
0130
,
1001
0000
1000
0010
,
1010
0100
0001
0010
,
0011
0100
1000
0010
,
0200
0000
0010
0310
,
1001
0000
1000
0100
,
0001
0010
0001
0100
,
1000
0010
1000
0100
,
0001
0010
0001
0100
,
2000
3000
0001
0100
,
1000
0010
1000
0100
,
0001
0010
0001
0100
,
0020
0000
0000
0030
,
2010
0100
3001
0010
,
1100
0001
1000
0010
,
0101
1000
0001
0010
,
2100
0000
0001
3001
,
0202
0303
1000
0010
,
0011
0001
1000
0100
,
0101
0001
1000
0100
,
0101
0001
1000
0010
,
0011
0000
0002
0000
,
0010
0000
0100
0000
,
0010
1003
2001
0000
,
0010
0000
0100
0000
,
0002
3003
0001
0001
,
1001
0010
1000
1000
,
1001
0100
0001
0001
,
1001
0100
0010
0010
,
0110
0001
1000
0001
,
0101
0000
0001
1000
,
1100
0000
0001
0010
,
0100
2000
3020
0000
,
0130
0010
1000
0100
,
2002
3003
1001
0010
,
0001
0000
0100
0000
0010
0000
2000
3000
,
0002
0003
2000
3000
0001
0000
0110
0000
,
1000
1000
0021
0130
,
1020
0130
0001
0001
,
0010
0110
2001
3010
,
1000
0100
0011
0000
,
1001
0001
1020
0130
,
0021
0130
1000
1000
,
0010
0100
1002
1000
,
1003
0001
1001
0000
,
1000
0010
0001
1000
,
0001
0100
1000
0001
,
1000
0010
0001
0100
,
2000
0010
3002
0010
,
1003
0000
0000
0000
;

//---------------dance-single - ----------------
#NOTEDATA:;
#CHARTNAME:;
#STEPSTYPE:dance-single;
#DESCRIPTION:;
#CHARTSTYLE:;
#DIFFICULTY:Beginner;
#METER:2;
#RADARVALUES:0.151910,0.195073,0.080669,0.102670,0.000000,145.000000,134.000000,11.000000,14.000000,0.000000,0.000000,0.000000,0.000000,0.000000,0.151910,0.195073,0.080669,0.102670,0.000000,145.000000,134.000000,11.000000,14.000000,0.000000,0.000000,0.000000,0.000000,0.000000;
#CREDIT:;
#OFFSET:-0.102448;
#BPMS:0.000000=140.000000
;
#STOPS:;
#DELAYS:;
#WARPS:;
#TIMESIGNATURES:0.000000=4=4
;
#TICKCOUNTS:0.000000=4
;
#COMBOS:0.000000=1
;
#SPEEDS:0.000000=1.000000=0.000000=0
;
#SCROLLS:0.000000=1.000000
;
#FAKES:;
#LABELS:0.000000=Song Start
;
#NOTES:
0000
0000
0000
0000
,
0000
0000
0000
0000
,
0000
0000
0000
0000
,
0000
0000
0000
0000
,
1000
0000
0001
0000
,
0100
0000
0010
0000
,
1000
0000
0002
0000
,
0000
0000
0003
0000
,
0010
0010
0010
0000
,
0001
0000
1000
0000
,
0010
0010
0010
0000
,
0100
0200
0300
0000
,
0001
0000
0001
0000
,
1000
0000
1000
0000
,
0001
0000
0020
0000
,
0000
0030
0110
0000
,
1001
0000
1000
0000
,
0010
0000
0010
0000
,
0100
0000
0220
0000
,
0330
0000
1001
0000
,
0001
0000
1000
0000
,
0100
0000
0100
0000
,
0010
0000
0001
0000
,
0100
0000
0010
0000
,
1000
0000
2002
0000
,
3003
0000
0001
0000
,
1000
0000
0020
0000
,
0000
0000
0030
0000
,
0100
0000
0001
0000
,
1000
0000
0001
0000
,
0100
0000
0002
0000
,
0000
0003
1001
0000
,
1000
0000
1000
0000
,
0100
0000
0100
0000
,
0010
0000
0010
0000
,
0001
0000
1000
0000
,
0001
0000
0001
0000
,
0100
0000
0100
0000
,
0010
0000
0020
0000
,
0000
0030
0110
0000
,
1001
0000
0001
0000
,
1000
0000
0001
0000
,
1000
0000
0020
0000
,
0000
0030
1001
0000
,
1000
0000
0001
0000
,
1000
0000
0100
0000
,
1000
0000
0001
0000
,
0100
0100
0100
0000
,
0000
0000
0010
0000
,
0000
0000
0100
0000
,
0000
0000
0001
0000
,
0000
0000
1000
0000
,
0100
0000
0100
0000
,
1000
0000
1000
0000
,
0010
0000
0010
0000
,
0100
0000
0001
0000
,
1000
0000
0001
0000
,
0100
0000
0100
0000
,
0010
0000
1000
0000
,
0100
0000
0010
0000
,
0100
0000
0220
0000
,
0330
0000
1000
0000
,
0001
0000
0100
0100
,
0100
0100
0100
0000
,
0001
0000
1000
0000
,
1000
0000
0001
0000
,
0100
0000
0020
0000
,
0000
0030
0010
0000
,
1001
0000
0001
0000
,
0001
0000
1000
0000
,
0100
0000
0010
0000
,
0001
0000
0100
0000
,
0001
0000
0001
0000
,
1000
0000
1000
0000
,
0100
0000
0100
0000
,
0010
0000
0001
0000
,
1000
0000
0000
0000
;
