#VERSION:0.83;
#TITLE:Love Again;
#SUBTITLE:;
#ARTIST:Pentatonix;
#TITLETRANSLIT:;
#SUBTITLETRANSLIT:;
#ARTISTTRANSLIT:;
#GENRE:Pop-Capella;
#ORIGIN:;
#CREDIT:;
#BANNER:Love Again.png;
#BACKGROUND:Love Again-bg.png;
#PREVIEWVID:;
#JACKET:Love Again-jacket.png;
#CDIMAGE:;
#DISCIMAGE:;
#LYRICSPATH:;
#CDTITLE:cdtitle.png;
#MUSIC:Love Again.ogg;
#OFFSET:-0.037910;
#SAMPLESTART:50.934864;
#SAMPLELENGTH:14.087715;
#SELECTABLE:YES;
#BPMS:0.000=132.000,
72.000=66.000,
74.250=66.941,
76.000=132.000,
304.000=66.000;
#STOPS:;
#DELAYS:;
#WARPS:139.000=16.000,
171.000=16.000,
256.000=16.000;
#TIMESIGNATURES:0.000=4=4;
#TICKCOUNTS:0.000=4;
#COMBOS:0.000=1;
#SPEEDS:0.000=1.000=0.000=0,
74.250=2.000=1.750=0,
106.000=1.000=2.000=0;
#SCROLLS:0.000=1.000,
47.000=2.000,
47.250=1.000,
47.500=0.500,
48.000=1.000,
74.250=0.986,
76.000=0.500,
108.000=1.000,
139.000=2.000,
139.250=1.000,
139.500=0.500,
140.000=1.000,
155.000=2.000,
155.250=1.000,
155.500=0.500,
156.000=1.000,
171.000=2.000,
171.250=1.000,
171.500=0.500,
172.000=1.000,
187.000=2.000,
187.250=1.000,
187.500=0.500,
188.000=1.000,
202.500=0.250,
207.063=0.300,
207.125=0.350,
207.188=0.400,
207.250=0.450,
207.313=0.500,
207.375=0.550,
207.438=0.600,
207.500=0.650,
207.563=0.700,
207.625=0.750,
207.688=0.800,
207.750=0.850,
207.813=0.900,
207.875=0.950,
207.938=1.000,
256.000=0.000,
259.500=1.000,
272.000=0.000,
275.500=1.000;
#FAKES:;
#LABELS:0.000=Song Start;
#BGCHANGES:;
#KEYSOUNDS:;
#ATTACKS:
;

//---------------dance-single - ----------------
#NOTEDATA:;
#CHARTNAME:;
#STEPSTYPE:dance-single;
#DESCRIPTION:;
#CHARTSTYLE:;
#DIFFICULTY:Challenge;
#METER:12;
#RADARVALUES:0.470461,0.785324,0.164251,1.314006,0.201207,401.000000,381.000000,20.000000,160.000000,33.000000,0.000000,0.000000,0.000000,47.000000,0.470461,0.785324,0.164251,1.314006,0.201207,401.000000,381.000000,20.000000,160.000000,33.000000,0.000000,0.000000,0.000000,47.000000;
#CREDIT:;
#OFFSET:-0.037910;
#BPMS:0.000000=132.000000
,72.000000=66.000000
,74.250000=66.941002
,76.000000=132.000000
,304.000000=66.000000
;
#STOPS:;
#DELAYS:;
#WARPS:139.000000=16.000000
,171.000000=16.000000
,256.000000=16.000000
;
#TIMESIGNATURES:0.000000=4=4
;
#TICKCOUNTS:0.000000=4
;
#COMBOS:0.000000=1
;
#SPEEDS:0.000000=1.000000=0.000000=0
,74.250000=2.000000=1.750000=0
,106.000000=1.000000=2.000000=0
;
#SCROLLS:0.000000=1.000000
,47.000000=2.000000
,47.250000=1.000000
,47.500000=0.500000
,48.000000=1.000000
,76.000000=0.500000
,108.000000=1.000000
,139.000000=2.000000
,139.250000=1.000000
,139.500000=0.500000
,140.000000=1.000000
,155.000000=2.000000
,155.250000=1.000000
,155.500000=0.500000
,156.000000=1.000000
,171.000000=2.000000
,171.250000=1.000000
,171.500000=0.500000
,172.000000=1.000000
,187.000000=2.000000
,187.250000=1.000000
,187.500000=0.500000
,188.000000=1.000000
,202.500000=0.250000
,207.062500=0.300000
,207.125000=0.350000
,207.187500=0.400000
,207.250000=0.450000
,207.312500=0.500000
,207.375000=0.550000
,207.437500=0.600000
,207.500000=0.650000
,207.562500=0.700000
,207.625000=0.750000
,207.687500=0.800000
,207.750000=0.850000
,207.812500=0.900000
,207.875000=0.950000
,207.937500=1.000000
,256.000000=0.000000
,259.500000=1.000000
,272.000000=0.000000
,275.500000=1.000000
;
#FAKES:;
#LABELS:0.000000=Song Start
;
#NOTES:
0000
0000
0000
0000
,
0000
0000
0000
0000
,
0000
0000
0000
0000
,
0000
0000
0000
0000
,
0002
0000
1003
0002
0000
0203
0000
0320
,
0000
2030
0000
3002
0000
0003
000M
0000
,
0002
0000
1003
0002
0000
0023
0000
2030
,
0000
3020
0000
0032
0000
0003
000M
0002
,
0000
0203
0000
2300
0000
3000
M000
2000
,
0000
3200
0000
0302
0000
0003
000M
0002
,
0010
0023
1000
2030
0010
3020
0001
0032
,
0100
0000
0203
0000
2300
0000
3200
0000
0302
0000
0023
0000
0230
0300
0000
0000
,
1000
0010
0001
0010
1000
0000
1000
0200
,
0001
0000
0000
0000
0301
0000
0100
0010
0100
0000
1000
0000
0010
0000
0100
0000
,
0001
0000
0001
1000
0100
1000
0100
0020
,
0001
0000
0001
0000
0031
2000
0001
0000
,
3001
0000
0000
0100
0000
0000
0001
0000
1000
0000
0000
0001
0000
0000
0020
0000
,
1000
0000
0000
0000
1030
0000
0010
0100
0010
0000
0001
0000
0100
0000
0010
0000
,
2000
0000
0000
3020
0000
0000
0032
0000
0000
0000
2003
0000
3200
0000
0302
0000
0000
0000
2000
0000
0000
0000
0000
0000
0003
0000
0000
0000
3100
0000
0010
0000
,
0001
0000
0010
0000
1000
0000
0010
0000
0001
0000
0100
0010
1000
0000
0100
0000
,
0001
0000
0100
0000
1000
0000
0010
0000
0100
0000
0001
1000
0100
0000
0010
0000
,
0001
0011
0000
1100
0000
1000
0010
0002
,
0000
1003
0100
0001
2000
3200
0302
0203
,
1300
0000
0010
1000
0010
0000
0100
0000
0001
0000
1000
0001
1000
0000
0100
0000
,
0010
0000
0001
1000
0010
0000
1000
0000
0100
0000
0010
0001
0100
0000
0010
0000
,
1020
0000
0000
0130
0000
0000
2001
0000
0000
3100
0000
0000
0012
0000
1000
0000
,
1003
0000
0000
0010
0100
0000
0002
0000
2000
0000
0000
0000
0000
0000
3003
0000
,
1001
0000
2000
0200
3000
0002
0300
2000
,
0000
0003
3002
2000
0003
0020
3000
0002
,
0000
0030
0203
2000
0300
0002
3000
2000
,
0000
0003
3002
0023
2030
3200
0310
0001
,
0100
0000
0000
0100
0002
0000
2000
0000
0003
0000
0002
0000
3000
0000
0200
0000
,
0003
2000
0300
0002
3000
2003
0000
3200
,
0001
0000
0320
2030
0100
3200
0010
0310
,
0011
0000
0000
0000
0000
0000
0000
0000
0000
1100
0000
0000
0000
0000
0000
0000
0000
0000
1001
0000
0000
0000
0000
0000
1000
0000
0000
0000
0010
0000
0000
0000
0100
0000
0000
0000
0002
0000
0000
0003
0000
0000
0000
0000
0000
0000
0000
0000
,
M00M
0000
000M
0M00
M000
000M
M000
0M00
,
000M
0000
0000
0000
00MM
00M0
00M0
00M0
M0M0
00M0
00M0
00M0
00MM
0000
0000
0000
,
0000
0000
0000
0000
,
0000
0000
0000
0000
0000
0000
0000
0000
0000
0000
0000
0000
0002
0003
0000
0000
,
1001
0000
0001
0100
1000
0001
1000
0100
,
0001
0021
1000
0001
,
0130
0000
1000
0010
0001
1000
0001
0010
,
1000
0000
0000
0000
1200
0000
0000
0000
0001
0000
0000
0000
2300
3000
0000
0000
,
MM00
0000
00M0
0000
000M
0000
0M00
0000
M000
0000
0M00
0000
000M
00M0
000M
00M0
,
000M
0000
0M00
0000
00M0
0000
M000
0000
0M00
0000
000M
0000
0M00
00M0
0M00
00M0
,
000M
0000
0000
0000
,
0000
0000
0000
0000
0000
0000
0000
0000
0000
0000
0000
0000
2000
3000
0000
0000
,
1200
0000
0310
0000
0002
0000
0203
0000
2300
0000
3200
0000
0301
0010
0001
0010
,
0002
0000
0103
0000
0020
0000
2030
0000
3200
0000
0302
0000
0103
0010
0100
0010
,
0001
1000
0001
1000
0010
0100
0010
0100
0001
0000
0010
0000
1000
0000
0010
0000
,
0001
0001
0100
0100
0010
2002
0000
0000
,
0000
0000
0000
0000
0000
0000
0003
000M
,
3MM2
0000
0203
0320
0000
0230
0000
2300
,
00MM
3200
0302
0023
0000
0230
0000
0302
,
M0M0
0000
0203
0320
0000
0032
0000
2003
,
0MM0
0000
3020
0230
0302
2003
0000
0000
,
3M2M
0000
0230
2300
00MM
3200
0000
0302
,
MM00
0023
0000
2030
0M0M
3020
0000
0032
,
0MM0
0000
2003
3020
M00M
0230
0000
0302
,
MM00
0000
0000
0000
0023
0000
0230
0000
23MM
0000
3002
0000
0003
0000
0200
0300
,
0001
0000
0200
0301
1000
0000
0200
0300
0010
0000
0M01
0000
10M0
0000
0200
0300
,
1000
0000
0200
1300
0001
0000
0200
0300
0010
0000
1M00
0000
00M1
0000
0200
0000
,
0301
0020
0031
0200
1300
0002
0013
2000
,
0100
0000
0100
0000
0100
0000
3100
0000
0010
0100
0010
0100
0010
0000
0100
0000
,
1001
0000
0000
0000
,
0000
0000
0000
0000
,
0000
0000
0000
0000
,
0000
0000
0000
0000
,
1001
0000
0000
0000
,
1001
0000
2010
3002
0103
0002
1003
0002
,
0010
0003
0012
2003
3100
2000
3001
2000
,
0010
3000
1020
0230
0301
0020
0031
0200
,
1000
0000
2300
3200
0302
0023
0130
1000
,
0001
0000
0000
0001
0100
0000
1000
0000
0100
0000
0000
0100
0010
0000
1000
0000
,
0100
0000
0000
0100
0001
0000
1000
0000
0010
0000
0000
0010
0001
0000
1000
0000
,
0010
0001
0010
1000
0100
0001
0100
1000
,
1002
0000
2003
3020
0032
0203
0000
0000
0300
0000
0000
0000
0000
0000
0000
0000
;

//---------------dance-single - ----------------
#NOTEDATA:;
#CHARTNAME:;
#STEPSTYPE:dance-single;
#DESCRIPTION:;
#CHARTSTYLE:;
#DIFFICULTY:Hard;
#METER:10;
#RADARVALUES:0.398895,0.503223,0.073913,0.903379,0.086232,340.000000,331.000000,9.000000,110.000000,0.000000,0.000000,0.000000,0.000000,0.000000,0.398895,0.503223,0.073913,0.903379,0.086232,340.000000,331.000000,9.000000,110.000000,0.000000,0.000000,0.000000,0.000000,0.000000;
#CREDIT:;
#OFFSET:-0.037910;
#BPMS:0.000000=132.000000
,72.000000=66.000000
,74.250000=66.941002
,76.000000=132.000000
,256.000000=66.000000
;
#STOPS:;
#DELAYS:;
#WARPS:;
#TIMESIGNATURES:0.000000=4=4
;
#TICKCOUNTS:0.000000=4
;
#COMBOS:0.000000=1
;
#SPEEDS:0.000000=1.000000=0.000000=0
;
#SCROLLS:0.000000=1.000000
,47.000000=2.000000
,47.250000=1.000000
,47.500000=0.500000
,48.000000=1.000000
,74.250000=1.125000
,74.500000=1.250000
,74.750000=1.375000
,75.000000=1.500000
,75.250000=1.625000
,75.500000=1.750000
,75.750000=1.875000
,76.000000=1.000000
,106.000000=0.500000
,107.000000=0.600000
,107.250000=0.700000
,107.500000=0.800000
,107.750000=0.900000
,108.000000=1.000000
,139.000000=2.000000
,139.250000=1.000000
,139.500000=0.500000
,140.000000=1.000000
,155.000000=2.000000
,155.250000=1.000000
,155.500000=0.500000
,156.000000=1.000000
,170.500000=0.500000
,176.000000=1.000000
,224.000000=0.000000
,227.000000=1.000000
;
#FAKES:;
#LABELS:0.000000=Song Start
;
#NOTES:
0000
0000
0000
0000
,
0000
0000
0000
0000
,
0000
0000
0000
0000
,
0000
0000
0000
0000
,
0002
0000
1003
0002
0000
0203
0000
0320
,
0000
2030
0000
3002
0000
0000
0003
0000
,
0002
0000
1003
0002
0000
0023
0000
2030
,
0000
3020
0000
0032
0000
0000
0003
0002
,
0000
0203
0000
2300
0000
0000
3000
2000
,
0000
3200
0000
0302
0000
0000
0003
0002
,
0000
0023
0000
2030
0000
3020
0000
0032
,
0000
0000
0203
0000
0320
0000
2030
0000
3002
0000
0203
0000
0320
0030
0000
0000
,
1000
0010
1000
0010
0100
0000
0100
0002
,
0000
0000
0000
0000
0013
0000
0001
0010
0001
0000
0100
0000
0010
0000
1000
0000
,
0001
0000
0010
0001
0000
0100
0010
2000
,
0000
0000
0001
0000
3100
0200
0000
0000
,
1300
0000
0000
0010
0000
0000
0100
0000
0001
0000
0000
1000
0000
0000
0200
0000
,
0000
0000
0000
0000
1300
0000
0001
1000
0001
0000
0100
0000
0010
0000
1000
0000
,
0200
0000
0000
0320
0000
0000
0032
0000
0000
0000
0203
0000
0320
0000
2030
0000
0000
0000
0002
0000
0000
0000
0000
0000
3000
0000
0000
0000
0103
0000
0010
0000
,
1000
0010
1000
0010
0100
0001
1000
0001
,
0010
0001
0010
0001
1000
0001
0100
0010
,
0100
0002
0000
0023
0000
2030
0000
3200
,
0000
0301
0002
0000
1003
1000
0010
1000
,
0001
0010
0001
0010
0100
1000
0001
1000
,
0010
1000
0010
1000
0001
1000
0100
0010
,
0001
0000
0000
0100
0000
0000
0010
0000
0000
1000
0000
0000
2001
0000
0000
0000
,
3100
0000
0010
0002
2000
0000
0000
3003
,
1001
0000
1000
0200
0000
0320
0000
0032
,
0000
0000
1003
0020
0000
0230
0000
0302
,
0000
0000
1003
0200
0000
0320
0000
0032
,
0000
0000
0103
0010
1000
0002
1000
1003
,
0001
0000
0020
0032
0000
0203
0000
0302
,
0000
0023
0000
2030
0000
3200
0000
0302
,
0000
0000
1003
0100
0010
0001
1000
0010
,
0100
0000
0000
0000
0000
0000
0000
0000
0000
0100
0000
0000
0000
0000
0000
0000
0000
0000
0100
0000
0000
0000
0000
0000
0001
0000
0000
0000
1000
0000
0000
0000
0001
0000
0000
0000
1000
0000
0000
0000
0000
0000
0000
0000
0000
0000
0000
0000
,
0001
0000
0100
1000
0100
1000
0100
0001
,
0100
0000
0010
1000
0100
0000
1001
0000
,
1000
0000
0100
0001
0100
0001
0100
1000
,
0100
0000
0010
0001
0100
0000
0010
0000
,
2000
0000
3100
0010
0001
0200
0000
0000
,
0320
0000
0031
0010
1000
0200
0000
0000
,
0320
0000
1030
0010
0001
0100
0001
0100
,
1000
0100
1000
0100
0001
0020
0000
0000
,
0000
0000
0000
0000
,
0032
0000
0013
0002
0000
2003
0000
3020
,
0000
0230
0000
0302
0000
2003
0000
3100
,
0020
0000
0130
2000
0000
3002
0000
0203
,
0000
0000
0310
1000
0001
0020
0000
0000
,
0230
0000
1300
0020
0000
0230
0000
0302
,
0000
0023
0000
0032
0000
0203
0000
0310
,
2000
0000
3100
0020
0000
0032
0000
2003
,
0000
0000
3001
0100
0010
2000
0000
3002
,
0000
0023
0000
0230
1000
1300
0000
2000
,
0000
3020
0000
0230
0001
0301
0000
0002
,
0010
0013
0000
2000
0010
3010
0000
0002
,
0100
0100
0100
0103
0001
0100
1000
0100
,
0110
0000
0000
0000
,
1001
0000
0001
0010
0100
0010
0001
1000
,
1010
0000
1000
0010
0100
0010
1000
0001
,
0011
0000
0001
0010
0100
1000
0001
0100
,
0110
0000
0100
1000
0100
0001
1000
0100
,
0110
0000
0000
0001
0000
0000
0100
0000
0010
0000
0000
1000
0000
0000
0100
0000
,
0001
0000
0000
0100
0000
0000
1000
0000
0010
0000
0000
1000
0000
0000
0001
0000
,
0010
0001
0100
1000
0100
0001
0010
0001
,
0200
0000
2300
3200
0302
0023
0000
0000
0030
0000
0000
0000
0000
0000
0000
0000
;

//---------------dance-single - ----------------
#NOTEDATA:;
#CHARTNAME:;
#STEPSTYPE:dance-single;
#DESCRIPTION:;
#CHARTSTYLE:;
#DIFFICULTY:Medium;
#METER:8;
#RADARVALUES:0.346100,0.423767,0.147826,0.640578,0.016425,295.000000,277.000000,18.000000,78.000000,0.000000,0.000000,0.000000,0.000000,0.000000,0.346100,0.423767,0.147826,0.640578,0.016425,295.000000,277.000000,18.000000,78.000000,0.000000,0.000000,0.000000,0.000000,0.000000;
#CREDIT:;
#OFFSET:-0.037910;
#BPMS:0.000000=132.000000
,72.000000=66.000000
,74.250000=66.941002
,76.000000=132.000000
,256.000000=66.000000
;
#STOPS:;
#DELAYS:;
#WARPS:;
#TIMESIGNATURES:0.000000=4=4
;
#TICKCOUNTS:0.000000=4
;
#COMBOS:0.000000=1
;
#SPEEDS:0.000000=1.000000=0.000000=0
;
#SCROLLS:0.000000=1.000000
,170.500000=0.500000
,176.000000=1.000000
,224.000000=0.000000
,227.000000=1.000000
;
#FAKES:;
#LABELS:0.000000=Song Start
;
#NOTES:
0000
0000
0000
0000
,
0000
0000
0000
0000
,
0000
0000
0000
0000
,
0000
0000
0000
0000
,
0002
0000
0003
2000
0000
3200
0000
0320
,
0000
0032
0000
2003
0000
0000
3000
0000
,
0002
0000
0003
2000
0000
3020
0000
0230
,
0000
0302
0000
0023
0000
0000
0030
0200
,
0000
2300
0000
3020
0000
0000
0030
0200
,
0000
0302
0000
0023
0000
0000
0030
0200
,
0000
2300
0000
3020
0000
0230
0000
0302
,
0000
0013
0100
1000
0001
0010
0100
0000
,
1000
0000
1000
0000
0001
0000
0100
0020
,
0000
0000
0130
0001
1000
0001
0010
0000
,
0100
0000
0100
0000
1000
0000
0001
2000
,
0000
0000
3001
0000
1000
0001
1000
0000
,
0010
0000
0010
0000
0100
0000
0001
2000
,
0000
0000
3001
0010
0100
0010
0001
0000
,
0200
0000
0000
0320
0000
0000
0000
2030
0000
0002
0000
0000
3003
0000
0000
0000
,
1000
0000
1000
0000
0010
0100
0001
1000
,
0001
0000
0001
0000
0010
0100
1000
0001
,
0100
0010
0000
0110
0000
1001
0000
1002
,
0000
1003
0100
0000
0010
0001
0100
0001
,
1000
0000
1000
0000
0010
1000
0001
0010
,
0100
0000
0100
0000
1000
0010
0100
0001
,
1000
0000
0010
1000
0001
0000
0010
0001
,
1000
0000
0010
1000
0002
0000
0000
0000
,
1003
0000
0010
1000
0000
0100
0000
1002
,
0000
0000
0013
0001
0000
0100
0000
2001
,
0000
0000
3010
1000
0000
0100
0000
0021
,
0000
0000
0031
0100
0010
2000
0000
0000
,
3001
0000
0010
0001
0000
0100
0000
2001
,
0000
3010
0000
1020
0000
0130
0000
0100
,
0001
0000
0010
0001
0000
0100
0000
0010
,
1000
0000
0000
0001
0000
0000
1000
0000
0001
0000
0000
0000
1001
0000
0000
0000
,
0001
0000
0010
0001
0010
0001
1000
0001
,
0100
0101
1010
0101
,
1000
0000
0010
1000
0010
1000
0001
1000
,
0100
1100
0011
1001
,
1000
0000
0010
1000
0010
0200
0000
0000
,
0301
0000
0010
0001
0010
0200
0000
0000
,
1300
0000
0001
0100
0010
2000
0000
3001
,
0010
0200
0000
1300
0010
0200
0000
0000
,
0000
0000
0000
0000
,
0301
0000
1000
0200
0000
0320
0000
0032
,
0000
0203
0000
0320
0000
2030
0000
3002
,
0000
0000
1003
0200
0000
0320
0000
0032
,
0000
0000
1003
0010
0100
0002
0000
0000
,
1003
0000
0001
0020
0000
0230
0000
2300
,
0000
3020
0000
0032
0000
0023
0000
2030
,
0000
0000
3100
0020
0000
0032
0000
0203
,
0000
0000
0310
1000
0001
0020
0000
0000
,
0030
0000
0000
0001
1000
0020
0000
0000
,
0030
0000
0000
1000
0001
0020
0000
0031
,
1000
0020
0000
1030
0001
0020
0000
0230
,
0000
0010
0010
0310
,
0110
0000
0000
0000
,
1001
0000
1000
0010
0000
0100
0001
2000
,
0000
0000
3001
0010
0000
0100
1000
0002
,
0000
0000
1003
0010
0000
0100
0001
0020
,
0000
0000
0130
1000
0010
0100
0001
0000
,
1000
0000
0010
0100
0000
0010
1000
0200
,
0000
0310
0001
2000
0000
3001
0100
0020
,
0000
0000
1030
0010
0100
0001
1000
0001
,
2002
0000
3003
0000
;

//---------------dance-single - ----------------
#NOTEDATA:;
#CHARTNAME:;
#STEPSTYPE:dance-single;
#DESCRIPTION:;
#CHARTSTYLE:;
#DIFFICULTY:Easy;
#METER:4;
#RADARVALUES:0.193581,0.264854,0.098550,0.336714,0.000000,165.000000,153.000000,12.000000,41.000000,0.000000,0.000000,0.000000,0.000000,0.000000,0.193581,0.264854,0.098550,0.336714,0.000000,165.000000,153.000000,12.000000,41.000000,0.000000,0.000000,0.000000,0.000000,0.000000;
#CREDIT:;
#OFFSET:-0.037910;
#BPMS:0.000000=132.000000
,72.000000=66.000000
,74.250000=66.941002
,76.000000=132.000000
,256.000000=66.000000
;
#STOPS:;
#DELAYS:;
#WARPS:;
#TIMESIGNATURES:0.000000=4=4
;
#TICKCOUNTS:0.000000=4
;
#COMBOS:0.000000=1
;
#SPEEDS:0.000000=1.000000=0.000000=0
;
#SCROLLS:0.000000=1.000000
,170.500000=0.500000
,176.000000=1.000000
,224.000000=0.000000
,227.000000=1.000000
;
#FAKES:;
#LABELS:0.000000=Song Start
;
#NOTES:
0000
0000
0000
0000
,
0000
0000
0000
0000
,
0000
0000
0000
0000
,
0000
0000
0000
0000
,
0002
0000
0003
0200
0000
0300
0000
0020
,
0000
0030
0000
2000
0000
0000
3000
0000
,
2000
0000
3000
0200
0000
0300
0000
2000
,
0000
3000
0000
0002
0000
0000
0003
2000
,
0000
3000
0000
0002
0000
0000
0003
2000
,
0000
3000
0000
0002
0000
0000
0003
2000
,
0000
3000
0000
2000
0000
3000
0000
2000
,
0000
3000
0002
0003
2000
3000
0002
0003
,
1000
0000
1000
0000
,
0100
0000
0010
0001
,
0100
0000
0001
0000
,
2000
0000
3001
1000
,
0001
0000
0001
0000
,
0100
0000
0010
1000
,
0200
0000
0020
0300
,
0031
0001
0100
0100
,
0010
1000
0001
1000
,
0000
0100
0100
0100
,
0020
0000
0030
0001
,
1000
1000
0001
0001
,
0100
0010
1000
0001
,
0000
1001
0000
0110
,
0000
1001
0000
0000
,
0001
0000
0001
0000
,
1000
0000
1000
0000
,
0001
0000
0010
0000
,
0100
0000
1000
0001
,
1000
0000
0010
0000
,
0001
0000
0100
0000
,
1000
0000
0010
0000
,
2002
0000
3003
0110
,
1001
0001
0100
0100
,
0000
0001
0100
0010
,
0000
1000
1000
0100
,
0000
1000
0100
0110
,
1001
1000
0010
0000
,
1000
0001
0010
0000
,
0001
0000
0100
0000
0010
0000
0000
0010
,
0000
0000
0000
0010
0000
0020
0000
0000
,
0000
0000
0000
0000
,
2030
3000
1000
0000
,
0002
0003
0001
0000
,
2000
3000
1000
0000
,
0002
0003
0001
0000
,
2000
3000
0200
0300
,
0020
0030
0002
0003
,
0200
0300
0020
0030
,
2000
3000
0002
0003
,
1000
0000
0001
0000
,
1000
0000
0001
0000
,
1000
0001
1000
0001
,
0220
0000
0000
0330
,
1001
0000
0000
0000
,
1001
0001
0100
0000
,
0001
1000
0100
0000
,
1000
0001
0100
0010
,
1000
0001
1000
0000
,
0001
0010
0001
0010
,
0100
1000
0100
1000
,
0010
0100
0001
1000
,
2002
0000
3003
0000
;

//---------------dance-single - ----------------
#NOTEDATA:;
#CHARTNAME:;
#STEPSTYPE:dance-single;
#DESCRIPTION:;
#CHARTSTYLE:;
#DIFFICULTY:Beginner;
#METER:2;
#RADARVALUES:0.104417,0.135507,0.008213,0.090338,0.000000,89.000000,88.000000,1.000000,11.000000,0.000000,0.000000,0.000000,0.000000,0.000000,0.104417,0.135507,0.008213,0.090338,0.000000,89.000000,88.000000,1.000000,11.000000,0.000000,0.000000,0.000000,0.000000,0.000000;
#CREDIT:;
#OFFSET:-0.037910;
#BPMS:0.000000=132.000000
,76.500000=133.882004
,80.000000=132.000000
;
#STOPS:;
#DELAYS:;
#WARPS:;
#TIMESIGNATURES:0.000000=4=4
;
#TICKCOUNTS:0.000000=4
;
#COMBOS:0.000000=1
;
#SPEEDS:0.000000=1.000000=0.000000=0
;
#SCROLLS:0.000000=1.000000
,76.500000=0.985942
,80.000000=1.000000
;
#FAKES:;
#LABELS:0.000000=Song Start
;
#NOTES:
0000
0000
0000
0000
,
0000
0000
0000
0000
,
0000
0000
0000
0000
,
0000
0000
0000
0000
,
0002
0000
0000
0000
,
0000
0000
0000
0003
,
2000
0000
0000
0000
,
0000
0000
0000
3000
,
0100
0000
0000
0000
,
0100
0000
0000
0000
,
0100
0000
0100
0000
,
0100
0000
0100
0000
,
1000
0000
1000
0000
,
0020
0000
0030
0000
,
0100
0000
0100
0000
,
0002
0000
0003
0000
,
1000
0000
0001
0000
,
2000
0000
3000
0000
,
2002
0000
0000
0000
,
3003
0000
0000
0000
,
0001
0000
0001
0000
,
1000
0000
1000
0000
,
0100
0000
0100
0000
,
0200
0000
0300
0000
,
1000
0000
1000
0000
,
0001
0000
0001
0000
,
0000
0100
0000
0100
,
0000
0100
0000
0000
,
0001
0000
0000
0000
,
0010
0000
0000
0000
,
0100
0000
0000
0000
,
1000
0000
0000
0000
,
0001
0000
0001
0000
,
1000
0000
1000
0000
,
0001
0000
0001
0000
,
0100
0000
0100
0000
,
0001
0000
0000
0000
,
1000
0000
0000
0000
,
0001
0000
0000
0000
,
1000
0000
0000
0000
,
0100
0000
0100
0000
,
0010
0000
0010
0000
,
0100
0000
0010
0000
,
0100
0000
0020
0000
,
0000
0000
0000
0030
,
0001
0000
0000
0000
,
0001
0000
0000
0000
,
1000
0000
0000
0000
,
1000
0000
0000
0000
,
0001
0000
0001
0000
,
1000
0000
1000
0000
,
0001
0000
0001
0000
,
1000
0000
1000
0000
,
0000
0000
0010
0000
,
0000
0000
0010
0000
,
0010
0000
0010
0000
,
0020
0000
0000
0000
,
0030
0000
0000
0000
,
1000
0000
1000
0000
,
0010
0000
0010
0000
,
0100
0000
0100
0000
,
0001
0000
0001
0000
,
1000
0000
0001
0000
,
1000
0000
0001
0000
,
0010
0000
0010
0000
,
0020
0000
0000
0000
,
0030
0000
0000
0000
;

//---------------dance-single - [B-SIDE] Sick Dubstep Breakdown----------------
#NOTEDATA:;
#CHARTNAME:[B-SIDE] Sick Dubstep Breakdown;
#STEPSTYPE:dance-single;
#DESCRIPTION:[B-SIDE] Sick Dubstep Breakdown;
#CHARTSTYLE:;
#DIFFICULTY:Edit;
#METER:13;
#RADARVALUES:0.512697,0.973802,0.131401,1.215456,0.431158,437.000000,421.000000,16.000000,148.000000,33.000000,0.000000,0.000000,0.000000,60.000000,0.512697,0.973802,0.131401,1.215456,0.431158,437.000000,421.000000,16.000000,148.000000,33.000000,0.000000,0.000000,0.000000,60.000000;
#CREDIT:[B-SIDE] Sick Dubstep Breakdown;
#OFFSET:-0.037910;
#BPMS:0.000000=132.000000
,72.000000=66.000000
,74.250000=66.941002
,76.000000=132.000000
,304.000000=66.000000
;
#STOPS:;
#DELAYS:;
#WARPS:139.000000=16.000000
,171.000000=16.000000
,256.000000=16.000000
;
#TIMESIGNATURES:0.000000=4=4
;
#TICKCOUNTS:0.000000=4
;
#COMBOS:0.000000=1
;
#SPEEDS:0.000000=1.000000=0.000000=0
,74.250000=2.000000=1.750000=0
,106.000000=1.000000=2.000000=0
;
#SCROLLS:0.000000=1.000000
,47.000000=2.000000
,47.250000=1.000000
,47.500000=0.500000
,48.000000=1.000000
,76.000000=0.500000
,108.000000=1.000000
,139.000000=2.000000
,139.250000=1.000000
,139.500000=0.500000
,140.000000=1.000000
,155.000000=2.000000
,155.250000=1.000000
,155.500000=0.500000
,156.000000=1.000000
,171.000000=2.000000
,171.250000=1.000000
,171.500000=0.500000
,172.000000=1.000000
,187.000000=2.000000
,187.250000=1.000000
,187.500000=0.500000
,188.000000=1.000000
,202.500000=0.250000
,207.062500=0.300000
,207.125000=0.350000
,207.187500=0.400000
,207.250000=0.450000
,207.312500=0.500000
,207.375000=0.550000
,207.437500=0.600000
,207.500000=0.650000
,207.562500=0.700000
,207.625000=0.750000
,207.687500=0.800000
,207.750000=0.850000
,207.812500=0.900000
,207.875000=0.950000
,207.937500=1.000000
,256.000000=0.000000
,259.500000=1.000000
,272.000000=0.000000
,275.500000=1.000000
;
#FAKES:;
#LABELS:0.000000=Song Start
;
#NOTES:
0000
0000
0000
0000
,
0000
0000
0000
0000
,
0000
0000
0000
0000
,
0000
0000
0000
0000
,
0002
0000
1003
0002
0000
0203
0000
0320
,
0000
2030
0000
3002
0000
0003
000M
0000
,
0002
0000
1003
0002
0000
0023
0000
2030
,
0000
3020
0000
0032
0000
0003
000M
0002
,
0000
0203
0000
2300
0000
3000
M000
2000
,
0000
3200
0000
0302
0000
0003
000M
0002
,
0010
0023
1000
2030
0010
3020
0001
0032
,
0100
0000
0203
0000
2300
0000
3200
0000
0302
0000
0023
0000
0230
0300
0000
0000
,
1000
0010
0001
0010
1000
0000
1000
0200
,
0001
0000
0000
0000
0301
0000
0100
0010
0100
0000
1000
0000
0010
0000
0100
0000
,
0001
0000
0001
1000
0100
1000
0100
0020
,
0001
0000
0001
0000
0031
2000
0001
0000
,
3001
0000
0000
0100
0000
0000
0001
0000
1000
0000
0000
0001
0000
0000
0020
0000
,
1000
0000
0000
0000
1030
0000
0010
0100
0010
0000
0001
0000
0100
0000
0010
0000
,
2000
0000
0000
3020
0000
0000
0032
0000
0000
0000
2003
0000
3200
0000
0302
0000
0000
0000
2000
0000
0000
0000
0000
0000
0003
0000
0000
0000
3100
0000
0010
0000
,
0001
0000
0010
0000
1000
0000
0010
0000
0001
0000
0100
0010
1000
0000
0100
0000
,
0001
0000
0100
0000
1000
0000
0010
0000
0100
0000
0001
1000
0100
0000
0010
0000
,
0001
0011
0000
1100
0000
1000
0010
0002
,
0000
1003
0100
0001
2000
3200
0302
0203
,
1300
0000
0010
1000
0010
0000
0100
0000
0001
0000
1000
0001
1000
0000
0100
0000
,
0010
0000
0001
1000
0010
0000
1000
0000
0100
0000
0010
0001
0100
0000
0010
0000
,
1020
0000
0000
0130
0000
0000
2001
0000
0000
3100
0000
0000
0012
0000
1000
0000
,
1003
0000
0000
0010
0100
0000
0002
0000
2000
0000
0000
0000
0000
0000
3003
0000
,
1001
0000
2000
0200
3000
0002
0300
2000
,
0000
0003
3002
2000
0003
0020
3000
0002
,
0000
0030
0203
2000
0300
0002
3000
2000
,
0000
0003
3002
0023
2030
3200
0310
0001
,
0100
0000
0000
0100
0002
0000
2000
0000
0003
0000
0002
0000
3000
0000
0200
0000
,
0003
2000
0300
0002
3000
2003
0000
3200
,
0001
0000
0320
2030
0100
3200
0010
0310
,
0011
0000
0000
0000
0000
0000
0000
0000
0000
1100
0000
0000
0000
0000
0000
0000
0000
0000
1001
0000
0000
0000
0000
0000
1000
0000
0000
0000
0010
0000
0000
0000
0100
0000
0000
0000
0002
0000
0000
0003
0000
0000
0000
0000
0000
0000
0000
0000
,
M000
0000
0000
0000
0000
0000
00M0
0000
0000
0000
0000
0000
0M00
0000
00M0
0000
0M00
0000
00M0
0000
0000
0000
0000
0000
M000
0000
0000
0000
0000
0000
000M
0000
0000
00M0
0000
0000
0M00
0000
0000
M000
0000
0000
000M
0000
00M0
0000
000M
0000
,
00M0
0000
0000
0000
0M00
0000
0000
0000
00M0
0000
0000
0000
000M
0000
0000
0000
M000
0000
0000
0000
000M
0000
0000
0000
M000
0000
0000
00M0
0000
0000
M000
0000
0000
00M0
0000
0000
0M00
0000
0000
000M
0000
0000
0M00
0000
0000
000M
0000
0000
,
0000
0000
0000
0000
,
0000
0000
0000
0000
0000
0000
0000
0000
0000
0000
0000
0000
0002
0003
0000
0000
,
1000
0000
0000
0000
0000
0000
0010
0000
0000
0000
0000
0000
0100
0000
0010
0000
0100
0000
0010
0000
0000
0000
0000
0000
1000
0000
0000
0000
0000
0000
0001
0000
0000
0010
0000
0000
0100
0000
0000
1000
0000
0000
0001
0000
0010
0000
0001
0000
,
0010
0000
0000
0000
0100
0000
0000
0000
0010
0000
0000
0000
0001
0000
0000
0000
1000
0000
0000
0000
0001
0000
0000
0000
1000
0000
0000
0010
0000
0000
1000
0000
0000
0010
0000
0000
0100
0000
0000
0001
0000
0000
0100
0000
0000
0001
0000
0000
,
1000
0000
0000
0000
0000
0000
0100
0000
0000
0000
0000
0000
0010
0000
0100
0000
0010
0000
0100
0000
0000
0000
0000
0000
0010
0000
0000
0000
0000
0000
0100
0000
0000
1000
0000
0000
0001
0000
0000
0100
0000
0000
0010
0000
0100
0000
0010
0000
,
0100
0000
0000
0000
0001
0000
0000
0000
1000
0000
0000
0000
0100
0000
0000
0010
0000
0000
0100
0000
0000
0010
0000
0000
0001
0000
0000
1000
0000
0000
0100
0000
0000
0010
0000
0000
0002
0000
0000
0003
0000
0000
0000
0000
0000
0000
0000
0000
,
000M
0000
0000
0000
0000
0000
00M0
0000
0000
0000
0000
0000
0M00
0000
00M0
0000
0M00
0000
00M0
0000
0000
0000
0000
0000
000M
0000
0000
0000
0000
0000
M000
0000
0000
00M0
0000
0000
0M00
0000
0000
000M
0000
0000
M000
0000
00M0
0000
M000
0000
,
00M0
0000
0000
0000
0M00
0000
0000
0000
00M0
0000
0000
0000
M000
0000
0000
0000
000M
0000
0000
0000
M000
0000
0000
0000
000M
0000
0000
00M0
0000
0000
000M
0000
0000
00M0
0000
0000
0M00
0000
0000
M000
0000
0000
0M00
0000
0000
M000
0000
0000
,
0000
0000
0000
0000
,
0000
0000
0000
0000
0000
0000
0000
0000
0000
0000
0000
0000
0002
0003
0000
0000
,
0001
0000
0000
0000
0000
0000
0010
0000
0000
0000
0000
0000
0100
0000
0010
0000
0100
0000
0010
0000
0000
0000
0000
0000
0001
0000
0000
0000
0000
0000
1000
0000
0000
0010
0000
0000
0100
0000
0000
0001
0000
0000
1000
0000
0010
0000
1000
0000
,
0010
0000
0000
0000
0100
0000
0000
0000
0010
0000
0000
0000
1000
0000
0000
0000
0001
0000
0000
0000
1000
0000
0000
0000
0001
0000
0000
0010
0000
0000
0001
0000
0000
0010
0000
0000
0100
0000
0000
1000
0000
0000
0100
0000
0000
1000
0000
0000
,
0001
0100
0010
1000
0001
0100
0010
1000
0001
0000
0010
0000
1000
0000
0010
0000
,
0001
0001
0100
0100
0010
2002
0000
0000
,
0000
0000
0000
0000
0000
0000
0003
000M
,
3MM2
0000
0203
0320
0000
0230
0000
2300
,
00MM
3200
0302
0023
0000
0230
0000
0302
,
M0M0
0000
0203
0320
0000
0032
0000
2003
,
0MM0
0000
3020
0230
0302
2003
0000
0000
,
3M2M
0000
0230
2300
00MM
3200
0000
0302
,
MM00
0023
0000
2030
0M0M
3020
0000
0032
,
0MM0
0000
2003
3020
M00M
0230
0000
0302
,
MM00
0000
0000
0000
0023
0000
0230
0000
23MM
0000
3002
0000
0003
0000
0200
0300
,
0001
0000
0200
0301
1000
0000
0200
0300
0010
0000
0M01
0000
10M0
0000
0200
0300
,
1000
0000
0200
1300
0001
0000
0200
0300
0010
0000
1M00
0000
00M1
0000
0200
0000
,
0301
0020
0031
0200
1300
0002
0013
2000
,
0100
0000
0100
0000
0100
0000
3100
0000
0010
0100
0010
0100
0010
0000
0100
0000
,
1001
0000
0000
0000
,
0000
0000
0000
0000
,
0000
0000
0000
0000
,
0000
0000
0000
0000
,
1001
0000
0000
0000
,
1001
0000
2010
3002
0103
0002
1003
0002
,
0010
0003
0012
2003
3100
2000
3001
2000
,
0010
3000
1020
0230
0301
0020
0031
0200
,
1000
0000
2300
3200
0302
0023
0130
1000
,
0001
0000
0000
0001
0100
0000
1000
0000
0100
0000
0000
0100
0010
0000
1000
0000
,
0100
0000
0000
0100
0001
0000
1000
0000
0010
0000
0000
0010
0001
0000
1000
0000
,
0010
0001
0010
1000
0100
0001
0100
1000
,
1002
0000
2003
3020
0032
0203
0000
0000
0300
0000
0000
0000
0000
0000
0000
0000
;
