#TITLE:Limelight (feat. Cryaotic);
#SUBTITLE:;
#ARTIST:Boyinaband;
#TITLETRANSLIT:;
#SUBTITLETRANSLIT:;
#ARTISTTRANSLIT:;
#GENRE:Emo Drum & Bass;
#CREDIT:;
#BANNER:Limelight (feat. Cryaotic).png;
#BACKGROUND:Limelight (feat. Cryaotic)-bg.png;
#LYRICSPATH:;
#CDTITLE:cdtitle.png;
#MUSIC:Limelight (feat. Cryaotic).ogg;
#OFFSET:-0.588098;
#SAMPLESTART:96.590096;
#SAMPLELENGTH:10.666664;
#SELECTABLE:YES;
#BPMS:0.000000=180.000000
;
#STOPS:
;
#BGCHANGES:;
#KEYSOUNDS:;
#ATTACKS:;

//---------------dance-single - ----------------
#NOTES:
     dance-single:
     :
     Challenge:
     13:
     0.636454,0.763906,0.690028,0.172507,0.056252,594.000000,502.000000,92.000000,23.000000,8.000000,0.000000,0.636454,0.763906,0.690028,0.172507,0.056252,594.000000,502.000000,92.000000,23.000000,8.000000,0.000000:
0000
0000
0000
0000
,
0000
0000
0000
0000
,
0000
0000
0000
0000
,
0000
0000
0000
0000
,
2000
0000
0000
3000
,
0020
0000
0000
0030
,
0200
0000
0000
0300
,
0002
0000
0000
0003
,
1001
0000
1000
0100
0000
0100
0000
0000
,
1001
0000
0001
0100
0000
0010
0000
0000
,
1001
0000
1000
0100
0000
0010
0001
0100
,
2000
0000
3000
0100
0002
0000
0003
0000
,
1100
0000
0010
0001
0000
0001
0000
0001
,
0100
0000
0010
1000
0000
1000
0000
1000
,
0100
0000
0000
0000
0010
0000
0001
0000
0000
0000
1000
0000
0010
0000
1000
0001
,
1000
0100
0100
0000
1000
0100
0001
0100
,
1000
0000
0001
0100
0010
1000
0000
0000
,
1001
0000
1000
0100
0000
0010
0000
0000
,
1001
0000
0001
0100
0000
0010
1000
0100
,
0002
0000
0003
0100
2000
0000
3000
0000
,
1010
0000
0010
0100
0000
0001
0000
0001
,
0010
0000
0100
1000
0000
0010
0000
0010
,
1000
0000
0000
0000
0100
0000
0010
0000
0000
0000
0100
0000
1000
0000
0001
0100
,
0001
0100
0100
0000
0001
0100
1000
0100
,
0001
0000
1000
0100
0010
0100
1000
0000
,
1001
0000
0001
0100
0010
0100
0001
0000
,
1001
0000
1000
0100
0010
0001
0100
0010
,
2000
0000
3100
0010
0002
0000
0103
0010
,
1000
1000
0100
0100
,
0001
0001
0010
0010
,
1000
0000
0100
0000
0010
0000
0001
0000
0100
0000
0010
0000
1000
0000
0001
1000
,
0001
1000
0001
0000
1000
0001
1000
0000
0100
0000
0010
0000
0001
0000
1000
0000
,
1010
0101
1100
0011
,
1010
0000
1001
0000
1000
0010
0100
0001
,
0000
0100
0001
0000
1000
0010
0100
0001
,
0000
0011
0000
1100
0000
0100
1000
0010
,
0000
0101
0000
0011
0000
1100
0000
1010
,
0000
0101
0000
01MM
1000
0010
0000
0101
,
0000
0000
1100
0000
0000
0000
0011
0000
0000
0000
1010
0000
0000
0000
1000
0001
,
1000
0010
0010
1000
0100
0100
0010
0001
,
1002
0000
0103
0010
0000
1000
0000
0001
,
1001
0110
1002
0100
,
1003
0000
0001
0100
1000
0000
0100
0000
,
0001
0010
0100
1000
1002
0000
0103
0120
,
0000
1030
0010
0100
0001
0010
0000
0010
,
0000
0100
1000
0010
0000
0100
0001
0000
,
1000
0000
1000
0000
0100
1000
0010
1000
,
0001
0010
1000
0010
0000
0010
0001
0100
,
0010
1000
0100
0010
0100
1000
0000
0001
,
1000
0001
0100
0020
0000
1030
0100
0020
,
0000
0031
0100
0020
0000
1030
0100
0010
,
0001
0100
0010
1000
0001
0000
0100
0001
,
0010
0000
0000
0000
0100
0010
0100
0000
0000
0000
0010
0000
0100
0000
1000
0000
,
0001
0000
0001
0000
1000
0000
1000
0001
,
0100
1000
0001
0020
0000
1030
0100
0002
,
0000
1003
0010
0001
0100
0000
0110
0000
,
1001
0000
0001
0100
0000
0001
0100
0001
,
1000
0000
0100
1000
0000
0100
1000
0100
,
0010
0100
0001
0100
0010
0100
1000
0001
,
0100
0000
0010
1000
0000
0001
1000
0000
,
0001
0000
1000
0100
0000
0010
0001
0000
,
1010
0000
0011
0000
1010
0000
0001
1000
,
0010
0001
0010
1000
0000
1000
0100
0000
,
0001
0000
0100
0001
0100
1000
0010
1010
,
0000
0101
0000
0001
0010
0001
0100
0001
,
1000
0001
1000
0000
0100
0000
1000
0010
1000
0000
0001
1000
0001
1000
0001
0000
,
1000
0000
0001
0010
0000
0100
0010
0001
,
1000
0001
0100
0010
0000
0100
0010
1000
,
0001
0010
0100
0000
0010
0000
0100
0000
,
1000
0000
0010
0000
0100
0000
0001
0000
0000
0000
1000
0000
0100
0000
0010
0001
,
0010
0000
0000
0000
0100
0000
1000
0000
0010
0000
0000
0000
1000
0000
0001
2000
,
0002
0000
0000
0000
0000
3000
0003
0000
,
1001
0101
1100
0011
,
1010
0000
0101
0000
0100
0001
0100
1000
,
0000
0100
1000
0000
0100
0001
0100
1000
,
0000
1100
0000
0101
0000
0100
0001
0010
,
0000
1100
0000
1010
0000
0101
0000
0011
,
0000
1100
0000
M1M0
0001
0010
0000
1100
,
0000
0101
0000
1010
0000
0011
0000
1100
,
0000
1001
0000
0101
0000
0100
0010
1000
,
1001
1100
0101
1010
,
0011
0000
1100
0000
0100
1000
0100
0001
,
0000
0100
0001
0000
0100
1000
0100
0001
,
0000
0101
0000
1100
0000
0100
1000
0010
,
0000
0101
0000
0011
0000
1100
0000
1010
,
0000
0101
0000
01MM
1000
0010
0000
0101
,
0000
0000
1010
0000
0000
0000
0011
0000
0000
0000
1100
0000
0000
0000
1000
0001
,
1000
0010
0010
0100
0001
0001
1000
0000
,
0101
1010
0011
1100
,
0101
0000
1001
0000
1000
0010
1000
0100
,
0000
0100
0000
0100
0010
0001
0100
0010
,
0000
1000
0000
1000
0000
0010
0100
0001
,
0000
0011
0000
1100
0000
1001
0000
1010
,
0000
0101
0000
01MM
1000
0010
0000
1010
,
0000
0000
0101
0000
0000
0000
0011
0000
0000
0000
1100
0000
0000
0000
1000
0001
,
1000
0010
0010
0100
0001
0001
0010
0000
,
2200
0000
0000
0000
,
3300
0000
0000
0000
;

//---------------dance-single - ----------------
#NOTES:
     dance-single:
     :
     Beginner:
     3:
     0.184293,0.288011,0.060002,0.015001,0.000000,172.000000,164.000000,8.000000,2.000000,0.000000,0.000000,0.184293,0.288011,0.060002,0.015001,0.000000,172.000000,164.000000,8.000000,2.000000,0.000000,0.000000:
0000
0000
0000
0000
,
0000
0000
0000
0000
,
0000
0000
0000
0000
,
0000
0000
0000
0000
,
1000
0000
0000
0000
,
0010
0000
0000
0000
,
0100
0000
0000
0000
,
0001
0000
0000
0000
,
1000
0000
0000
0000
,
1001
0000
0000
0000
,
0001
0000
0000
0000
,
0100
0000
0100
0000
,
0010
0000
0000
0000
,
0110
0000
0000
0000
,
0100
0000
0000
0000
,
0001
0000
1000
0000
,
0001
0000
0000
0000
,
1001
0000
0000
0000
,
1000
0000
0000
0000
,
0100
0000
0100
0000
,
0010
0000
0000
0000
,
0110
0000
0000
0000
,
0100
0000
0000
0000
,
1000
0000
0001
0000
,
1000
0000
0000
0000
,
1001
0000
0000
0000
,
0001
0000
0000
0000
,
1000
0000
0001
0000
,
0010
0000
0010
0000
,
0010
0000
0010
0000
,
0010
0010
0010
0010
,
0010
0010
0010
0000
,
0001
0000
1000
0000
,
0001
0000
0100
0100
,
0100
0000
0100
0100
,
0100
0000
0010
0000
,
1000
0000
0100
0000
,
0010
0000
0001
0000
,
0100
0000
0010
0000
,
1000
0000
0001
0000
,
2002
0000
3003
0000
,
0100
0000
1001
0000
,
0000
0000
1000
0000
,
0100
0000
0010
0000
,
0001
0000
0000
0000
,
0100
0000
0010
0000
,
1000
0000
0000
0000
,
0100
0000
0010
0000
,
0001
0000
0000
0000
,
1000
0000
1000
0000
,
1000
0000
1000
0000
,
1000
1000
1000
0000
,
0001
0000
1000
0000
,
0100
0000
0000
0000
,
1000
0000
0100
0000
,
0010
0000
0001
0000
,
1000
0000
0000
0000
,
0001
0000
0000
0000
,
0100
0100
0100
0000
,
0010
0000
1000
0000
,
0001
0000
0000
0000
,
1000
1000
1000
0000
,
0001
0000
0010
0000
,
0100
0000
0000
0000
,
1001
0000
0001
0000
,
0001
0001
0001
0000
,
1000
0000
0000
0000
,
0010
0000
1000
0000
,
0001
0000
1000
0000
,
0100
0000
0100
0000
,
0010
0000
0001
0000
,
1000
0000
0000
0000
,
0001
0000
1000
0000
,
0001
0000
0010
0010
,
0010
0000
0010
0010
,
0010
0000
0001
0000
,
1000
0000
0010
0000
,
0100
0000
0001
0000
,
0010
0000
0100
0000
,
1000
0000
0001
0000
,
1000
0000
0001
0000
,
1000
0000
0010
0010
,
0010
0000
0010
0010
,
0010
0000
1000
0000
,
0001
0000
0010
0000
,
0100
0000
1000
0000
,
0010
0000
0100
0000
,
0001
0000
1000
0000
,
0001
0000
0001
0000
,
0001
0000
0000
0000
,
1000
0000
0100
0000
,
0000
0000
0000
0000
,
1000
0000
0100
0000
,
0010
0000
0001
0000
,
1000
0000
0010
0000
,
0100
0000
0001
0000
,
1000
0000
0000
0000
;

//---------------dance-single - ----------------
#NOTES:
     dance-single:
     :
     Hard:
     11:
     0.552879,0.618400,0.660026,0.165007,0.000000,516.000000,428.000000,88.000000,22.000000,0.000000,0.000000,0.552879,0.618400,0.660026,0.165007,0.000000,516.000000,428.000000,88.000000,22.000000,0.000000,0.000000:
0000
0000
0000
0000
,
0000
0000
0000
0000
,
0000
0000
0000
0000
,
0000
0000
0000
0000
,
2000
0000
0000
3000
,
0020
0000
0000
0030
,
0200
0000
0000
0300
,
0002
0000
0000
0003
,
1001
0000
0000
1000
0000
0100
0000
0000
,
1001
0000
0000
1000
0000
0010
0000
0000
,
1001
0000
0000
1000
0000
0000
0001
0010
,
0200
0000
0300
1000
0002
0000
0003
0000
,
1001
0000
0000
0001
0000
0010
0000
0000
,
1001
0000
0000
0001
0000
0100
0000
0000
,
1001
0000
0000
1000
0000
0000
0001
0000
,
0100
0010
0100
0000
0001
0100
0010
1000
,
0001
1000
0100
0000
,
1001
0000
0000
1000
0000
0010
0000
0000
,
1001
0000
0000
0001
0000
0000
0010
0100
,
2000
0000
3000
0001
0200
0000
0300
0000
,
1001
0000
0000
1000
0000
0010
0000
0000
,
1001
0000
0000
0001
0000
0010
0000
0000
,
1001
0000
0000
0001
0000
0000
1000
0000
,
0100
0010
0100
0000
1000
0100
0010
0001
,
1000
0001
0100
0000
,
1001
1000
0100
0000
,
1001
0000
0001
0000
0100
0000
0010
1000
,
0200
0000
0310
0001
0200
0000
0310
0000
,
1000
1000
0001
0001
,
1000
1000
0001
0001
,
1000
0001
1000
0001
,
1001
0000
1001
0000
1000
0010
0100
0001
,
1000
1010
0001
0101
,
1000
0000
1100
0000
0001
0100
0001
0100
,
0000
0100
0010
0000
1000
0100
1000
0100
,
0000
0010
0000
0010
0000
0001
0100
0001
,
0000
0100
0000
1000
0000
0010
0000
0001
,
0000
0010
0000
0001
1000
0001
0000
0010
,
0000
1000
0000
0100
0000
0001
0000
0010
,
0100
0000
0100
1000
0000
1000
0001
0000
,
1001
0000
1000
0010
1000
0010
0100
0000
,
1001
0000
0001
0010
0001
0010
0100
0000
,
1001
0000
1000
0000
0100
0010
0001
0000
,
0100
0010
1000
0000
0100
0010
0001
0000
,
1001
0000
1000
0100
1000
0100
0010
0000
,
1001
0000
0001
0100
0001
0100
0010
0000
,
1001
0000
1000
0000
0010
1000
0100
0000
,
0010
0001
0100
0001
0000
0100
0010
0000
,
1001
0000
1000
0100
0010
0001
0100
0000
,
0010
0000
1000
0002
1000
0003
1000
0002
,
1000
0003
1000
0002
1000
0003
1001
0000
,
0001
1000
0001
1000
0002
0000
1003
0100
,
0010
0000
0001
0100
0000
0100
0010
0000
,
2000
0010
3002
0010
,
1003
0100
0010
0001
0000
0100
0010
1000
,
0000
0100
0010
0001
1000
0000
0110
0000
,
1001
0000
0001
0100
0001
1000
0001
0000
,
1001
0000
1000
0100
1000
0001
1000
0000
,
1001
0000
0001
0000
0100
0001
0010
0000
,
0100
1000
0010
0000
1000
0001
0010
0000
,
0110
0000
1000
0001
0010
0001
0100
0000
,
0110
0000
0001
1000
0010
1000
0100
0000
,
0110
0000
0010
0000
0100
1000
0001
0000
,
0100
0001
1000
0000
0001
0010
1000
0010
,
0000
0110
0000
0010
0001
0000
0010
0000
,
0100
1000
0010
1000
0010
0100
0001
0000
,
0100
0000
0010
1000
0000
1000
0100
0000
,
0110
0000
0010
0001
0000
0001
0100
0000
,
0110
0000
1000
0000
0010
0100
0001
0000
,
0010
0100
1000
0000
0001
0100
0010
0000
,
1000
0100
0010
0001
0100
0000
0010
0000
,
2002
0000
0000
0000
0000
0003
3000
0000
,
1001
0011
1001
1010
,
1001
0000
0101
0000
1000
0100
0001
0100
,
0000
0100
1000
0000
0001
0100
1000
0100
,
0000
0110
0000
0101
0000
0100
0001
0010
,
0000
1100
0000
0011
0000
0101
0000
1010
,
0000
1100
0000
0001
1000
0001
0000
1010
,
0000
0011
0000
0101
0000
1100
0000
0101
,
0000
0011
0000
1010
0000
1000
0001
0000
,
1001
1010
1001
0101
,
1001
0000
1100
0000
0001
0010
1000
0010
,
0000
0010
0001
0000
1000
0010
0001
0010
,
0000
0110
0000
1001
0000
0010
1000
0100
,
0000
0011
0000
1100
0000
1010
0000
0101
,
0000
0011
0000
1000
0001
1000
0000
0011
,
0000
1010
0000
1100
0000
0101
0000
0001
,
0010
0000
0100
1000
0000
0001
0100
0010
,
1000
1001
0010
1001
,
0100
0000
1001
0000
1000
0000
0001
0010
,
0100
0010
0100
0000
0220
0000
0330
0000
,
0001
0000
0001
0000
1000
0010
0100
0001
,
0000
0101
0000
1010
0000
1100
0000
0011
,
0000
0101
0000
0010
1000
0100
0000
0011
,
0000
1010
0000
1100
0000
0101
0000
1000
,
0010
0000
0001
0010
0000
1000
0010
0000
,
0220
0000
0000
0000
,
0330
0000
0000
0000
;

//---------------dance-single - ----------------
#NOTES:
     dance-single:
     :
     Medium:
     7:
     0.340728,0.436517,0.210008,0.202508,0.000000,318.000000,290.000000,28.000000,27.000000,0.000000,0.000000,0.340728,0.436517,0.210008,0.202508,0.000000,318.000000,290.000000,28.000000,27.000000,0.000000,0.000000:
0000
0000
0000
0000
,
0000
0000
0000
0000
,
0000
0000
0000
0000
,
0000
0000
0000
0000
,
2000
0000
0000
3000
,
0020
0000
0000
0030
,
0200
0000
0000
0300
,
0002
0000
0000
0003
,
1000
0000
0000
0000
0000
0100
0000
0000
,
1000
0000
0000
0000
0000
0010
0000
0000
,
1000
0000
1000
0100
,
0012
0003
2100
3000
,
0001
0000
0000
0000
0000
0100
0000
0000
,
0001
0000
0000
0000
0000
0010
0000
0000
,
0001
0000
0001
0100
,
0010
0010
1000
0001
,
1001
0000
0000
0000
0000
1000
0000
0000
,
0100
0000
0000
0000
0000
0001
0000
0000
,
0100
0000
1000
0010
,
0102
0003
2010
3000
,
0001
0000
0000
0000
0000
0100
0000
0000
,
1000
0000
0000
0000
0000
0100
0000
0000
,
0001
0000
0001
0010
,
0100
0100
1000
0001
,
1001
0000
0000
0000
0000
1000
0000
0000
,
0010
0000
0000
0000
0000
0001
0000
0000
,
0010
0000
1000
0100
,
0220
0330
2002
3003
,
0001
0000
1000
0000
,
0001
0000
1000
0000
,
0001
1000
0001
1000
,
0010
0010
0100
0001
,
1000
1000
0100
0010
,
0001
0001
1000
0010
,
0100
0100
0001
0010
,
0100
0100
0010
0001
,
1000
0010
0100
0010
,
1000
0100
0010
0001
,
0100
0010
0100
0001
,
1000
0000
0000
0001
0000
0000
1000
0000
,
1002
0000
0000
0010
0000
0013
0000
0000
,
0001
1000
2002
3003
,
1001
0001
0100
0010
,
1000
0000
0100
0000
0110
0000
0000
0110
,
0000
1000
0001
0100
,
1000
0100
0001
0000
,
1000
0010
1000
0100
,
0001
0100
1000
0000
,
0001
1000
0010
0000
,
0100
0000
0000
0002
0000
0003
0000
2000
,
0000
3000
0000
0002
0000
0003
1000
0000
,
0001
1000
0002
0003
,
1000
0000
0000
0100
0000
0000
0010
0000
,
0200
0300
0200
0300
,
1000
0010
0001
0010
,
1000
0100
0001
0100
,
0110
0000
0000
1000
0000
0000
1000
0000
,
0001
0000
0000
0001
0000
0000
0100
0000
,
0010
1000
0100
0010
,
0001
0000
0000
1000
0000
0000
0001
0000
,
0100
0000
0000
0010
0000
0000
0100
0000
,
1001
1001
1001
0000
,
0001
0100
0010
1000
,
0001
0000
0000
0000
0110
0000
0000
1001
,
0000
1001
0000
0000
0001
0000
0010
0000
,
1000
1000
0010
0001
,
1000
0100
0000
0100
,
0010
0000
0000
0001
0000
1000
0000
0001
,
0000
0100
0100
0010
,
1000
0000
0000
0001
0000
0000
1000
0000
,
0100
0010
0100
0000
,
2002
0000
0000
0000
0000
0003
3000
0000
,
0001
0100
0010
0100
,
1000
0100
0001
0010
,
0100
0100
1000
0010
,
0100
0100
0010
1000
,
0001
0010
1000
0010
,
0001
0001
0100
0010
,
1000
0010
0001
0010
,
1000
0100
0001
0100
,
1000
0100
0010
0100
,
0001
0100
1000
0010
,
0100
0100
0001
0010
,
0100
0100
0010
0001
,
1000
0010
0001
0010
,
1000
1000
0100
0010
,
0001
0010
1000
0010
,
0110
0000
0000
0110
0000
0000
0001
0000
,
1000
1000
0100
0010
,
0001
0001
1000
0000
,
0001
1000
0220
0330
,
0001
1000
0001
0010
,
1000
0010
0001
0100
,
0010
0010
1000
0100
,
0001
0100
1000
0010
,
0110
0000
0000
0110
0000
0000
0110
0000
,
2002
0000
0000
0000
,
3003
0000
0000
0000
;

//---------------dance-single - ----------------
#NOTES:
     dance-single:
     :
     Easy:
     5:
     0.258225,0.327388,0.105004,0.060002,0.000000,241.000000,227.000000,14.000000,8.000000,0.000000,0.000000,0.258225,0.327388,0.105004,0.060002,0.000000,241.000000,227.000000,14.000000,8.000000,0.000000,0.000000:
0000
0000
0000
0000
,
0000
0000
0000
0000
,
0000
0000
0000
0000
,
0000
0000
0000
0000
,
2000
0000
0000
3000
,
0020
0000
0000
0030
,
0200
0000
0000
0300
,
0002
0000
0000
0003
,
1000
0000
0000
0000
,
0110
0000
0000
0000
,
1000
0000
0000
0000
,
0010
0000
1000
0000
,
0001
0000
0000
0000
,
0110
0000
0000
0000
,
1000
0000
0000
0000
,
0010
0000
1000
0000
,
0001
0000
0000
0000
,
0110
0000
0000
0000
,
0001
0000
0000
0000
,
0010
0000
0001
0000
,
1000
0000
0000
0000
,
0110
0000
0000
0000
,
0001
0000
0000
0000
,
0010
0000
0010
0000
,
1001
0000
0000
0000
,
1000
0000
0000
0000
,
0001
0000
0000
0000
,
0100
0000
0010
0000
,
0100
0000
0100
0000
,
0100
0000
0100
0000
,
0100
0100
0100
0100
,
0001
1000
0001
0000
,
1000
0100
0010
0001
,
1000
0000
0010
0100
,
0001
0000
0001
0100
,
0010
0100
0001
0000
,
0010
0100
0010
0100
,
1000
0000
1001
0000
,
0010
0100
0010
0100
,
0001
0000
1001
0000
,
0001
0000
0010
0000
,
0001
0010
0001
0000
,
1000
0000
0010
0000
,
1000
0010
1000
0000
,
0100
0010
0001
0000
,
0010
0100
1000
0000
,
0001
0100
0010
0000
,
1000
0010
0100
0000
,
0001
0000
1000
0000
,
0100
0010
0001
0000
,
0001
0000
0001
0000
,
0001
0001
0001
0000
,
1000
0001
1000
0000
,
0010
0000
0010
0000
,
1000
0010
0100
0001
,
0010
0100
1000
0000
,
0001
0000
0001
0000
,
0001
0100
1000
0000
,
0100
0000
0100
0000
,
1000
0100
0001
0000
,
1000
0000
0001
0000
,
1000
0001
1000
0000
,
0100
0000
0010
0000
,
0100
0000
1000
0100
,
0001
0000
0001
0100
,
1000
1000
0001
0100
,
0010
0000
0010
0000
,
0100
0010
1000
0001
,
0010
0000
0100
0000
,
0010
0100
1000
0000
,
0010
0100
0001
0000
,
2002
0000
0000
0000
0000
0003
3000
0000
,
0001
0100
1000
0100
,
0001
0000
0010
0100
,
1000
0000
0001
0010
,
0100
0010
0001
0000
,
1000
0010
0001
0010
,
1000
0000
0110
0000
,
0001
0010
1000
0010
,
0001
0000
0110
0000
,
1000
0100
0001
0100
,
1000
0000
0010
0100
,
0001
0000
1000
0010
,
0100
0010
1000
0000
,
0001
0010
1000
0010
,
0001
0000
0110
0000
,
1000
0010
0001
0010
,
1000
0000
0110
0000
,
0001
0010
0001
0010
,
0100
0010
0001
0000
,
1000
1000
0010
0000
,
0001
0001
0010
0000
,
1000
0100
0001
0100
,
1000
0000
0110
0000
,
1000
0010
0001
0010
,
1000
0000
0001
0000
,
2002
0000
0000
0000
,
3003
0000
0000
0000
;
