#VERSION:0.83;
#TITLE:Konga Conga Kappa;
#SUBTITLE:;
#ARTIST:Danny Baranowsky;
#TITLETRANSLIT:;
#SUBTITLETRANSLIT:;
#ARTISTTRANSLIT:;
#GENRE:Necroconga;
#ORIGIN:;
#CREDIT:;
#BANNER:Konga Conga Kappa.png;
#BACKGROUND:Konga Conga Kappa-bg.png;
#PREVIEWVID:;
#JACKET:Konga Conga Kappa-jacket.png;
#CDIMAGE:;
#DISCIMAGE:;
#LYRICSPATH:;
#CDTITLE:cdtitle.png;
#MUSIC:Konga Conga Kappa.ogg;
#OFFSET:-0.086850;
#SAMPLESTART:16.087851;
#SAMPLELENGTH:16.000000;
#SELECTABLE:YES;
#BPMS:0.000=120.000;
#STOPS:6.000=0.500,
13.000=0.500,
84.000=0.500,
91.000=0.500,
98.000=0.500,
105.000=0.500,
176.000=0.500,
183.000=0.500,
190.000=0.500,
197.000=0.500;
#DELAYS:;
#WARPS:;
#TIMESIGNATURES:0.000=4=4;
#TICKCOUNTS:0.000=4;
#COMBOS:0.000=1;
#SPEEDS:0.000=1.000=0.000=0;
#SCROLLS:0.000=1.000;
#FAKES:;
#LABELS:0.000=Song Start;
#BGCHANGES:;
#KEYSOUNDS:;
#ATTACKS:
;

//---------------dance-single - ----------------
#NOTEDATA:;
#CHARTNAME:;
#STEPSTYPE:dance-single;
#DESCRIPTION:;
#CHARTSTYLE:;
#DIFFICULTY:Challenge;
#METER:14;
#RADARVALUES:0.632047,0.702850,0.237320,0.228845,0.894189,522.000000,494.000000,28.000000,27.000000,0.000000,0.000000,8.000000,0.000000,0.000000,0.632047,0.702850,0.237320,0.228845,0.894189,522.000000,494.000000,28.000000,27.000000,0.000000,0.000000,8.000000,0.000000,0.000000;
#CREDIT:;
#NOTES:
0000
0000
0000
0000
,
0000
0000
0000
0000
,
0000
0000
0000
0000
,
0000
0000
0000
0000
0000
0000
0000
0000
1001
0000
0000
1000
0000
0001
1000
0000
,
2010
0000
0000
3001
0100
0000
0001
0000
0010
0000
0000
0001
0000
0100
0010
0000
,
0110
0000
0000
0000
2001
0000
0000
0000
3001
0000
1000
0100
0000
1000
0010
0000
,
0100
0000
0001
1000
0000
1000
0100
1000
0010
0000
0010
0100
0000
0100
0001
0000
,
1000
0010
0100
0001
1000
0001
2000
0000
3001
0000
0010
0100
0000
0010
0000
0001
,
0000
0100
0000
1000
0000
0100
0001
0010
0100
0000
1000
0010
0000
0001
0000
0010
,
0000
1000
0100
0000
0010
0000
0001
0000
1000
0000
0010
0100
0000
0010
0000
1000
,
0000
0100
0000
0001
0000
0100
1000
0010
0100
0000
1000
0100
0000
0001
0000
0010
,
0000
0100
0010
0000
0001
0000
1000
0000
1001
0000
0001
0200
0000
0000
0310
0000
,
1000
0001
0100
0010
0000
0010
1000
0000
0001
0000
1000
0002
0000
0000
1003
0000
,
0100
0010
0001
0010
0000
0100
1000
0000
1001
0000
1000
0100
0010
0100
1000
0001
,
0010
0001
1000
0001
0100
0001
1000
0010
0100
0010
1000
0001
1000
0100
0010
0001
,
0100
0010
0100
0020
0000
0000
0130
0010
2000
0000
0000
0000
3010
0000
0100
0001
,
0020
0000
0000
0000
0130
0000
0010
0001
2000
0000
0000
0000
3020
0000
0000
0000
,
0031
0000
0010
1000
0000
0200
0000
0000
1300
0000
0001
0100
0010
0100
0001
1000
,
0100
1000
0001
1000
0010
1000
0001
0010
0100
0010
0001
1000
0001
0010
0100
1000
,
0010
0100
0010
0200
0000
0000
0301
0000
1001
0000
0000
1000
0001
0000
1000
0100
,
1000
0000
0000
0001
1000
0000
0001
0100
0001
0000
0000
1000
0001
0000
0100
0010
,
0100
0000
0000
0000
1001
0000
0000
0001
1000
0000
0001
0010
0001
0000
0000
1000
,
0001
0000
0000
0000
1000
0000
0010
0000
1000
0000
0000
0000
0000
0000
0001
0000
1000
0000
0000
0000
0100
0000
0000
0000
0440
0330
0000
0000
0000
0000
0000
0000
,
1001
0000
0000
0001
0100
0000
0010
1000
0010
0000
0000
1000
0100
0000
0010
0001
,
0010
0000
0000
0001
0100
0000
0010
1000
0001
0000
0000
0000
1001
0000
0000
1000
,
0100
0000
1000
0010
1000
0000
0000
0001
0100
0000
0001
0010
0001
0000
0000
1000
,
0100
0000
0000
0000
1000
0000
0000
0000
4004
3003
0000
0000
0000
0000
0000
0000
1001
0000
0000
0000
0000
0000
0001
0000
0000
0000
1000
0000
0001
0000
0000
0000
,
0012
0000
0000
1003
0100
0000
1000
0000
0010
0000
0000
1000
0000
0100
0010
0000
,
0110
0000
0000
0000
1002
0000
0000
0000
1003
0000
0001
0100
0000
0001
0010
0000
,
0100
0000
1000
0001
0000
0001
0100
0001
0010
0000
0010
0100
0000
0100
1000
0000
,
0001
0010
0100
1000
0001
1000
0002
0000
1003
0000
0010
0100
0000
0010
0000
1000
,
0000
0100
0000
0001
0000
0100
1000
0010
0100
0000
0001
0010
0000
1000
0000
0010
,
0000
0001
0100
0000
0010
0000
1000
0000
0001
0000
0010
0100
0000
0010
0000
0001
,
0000
0100
0000
1000
0000
0100
0001
0010
0100
0000
0001
0100
0000
1000
0000
0010
,
0000
0100
0010
0000
1000
0000
0001
0000
1001
0000
1000
0200
0000
0000
0310
0000
,
0001
1000
0100
0010
0000
0010
0001
0000
1000
0000
0001
2000
0000
0000
3001
0000
,
0100
0010
1000
0010
0000
0100
0001
0000
1001
0000
0001
0100
0010
0100
0001
1000
,
0010
1000
0001
1000
0100
1000
0001
0010
0100
0010
0001
1000
0001
0100
0010
1000
,
0100
0010
0100
0020
0000
0000
0130
0010
0002
0000
0000
0000
0013
0000
0100
1000
,
0020
0000
0000
0000
0130
0000
0010
1000
0002
0000
0000
0000
0023
0000
0000
0000
,
1030
0000
0010
0001
0000
0200
0000
0000
0301
0000
1000
0100
0010
0100
1000
0001
,
0100
0001
1000
0001
0010
0001
1000
0010
0100
0010
1000
0001
1000
0010
0100
0001
,
0010
0100
0010
0200
0000
0000
1300
0000
1001
0000
0000
0001
1000
0000
0001
0100
,
0001
0000
0000
1000
0001
0000
1000
0100
1000
0000
0000
0001
1000
0000
0100
0010
,
0100
0000
0000
0000
1001
0000
0000
1000
0001
0000
1000
0010
1000
0000
0000
0001
,
1000
0000
0000
0000
0001
0000
0010
0000
0001
0000
0000
0000
0000
0000
1000
0000
0001
0000
0000
0000
0100
0000
0000
0000
0440
0330
0000
0000
0000
0000
0000
0000
,
1001
0000
0000
1000
0100
0000
0010
0001
0010
0000
0000
0001
0100
0000
0010
1000
,
0010
0000
0000
1000
0100
0000
0010
0001
1000
0000
0000
0000
1001
0000
0000
0001
,
0100
0000
0001
0010
0001
0000
0000
1000
0100
0000
1000
0010
1000
0000
0000
0001
,
0100
0000
0000
0000
0001
0000
0000
0000
4004
3003
0000
0000
0000
0000
0000
0000
1001
0000
0000
0000
0000
0000
1000
0000
0000
0000
0001
0000
1000
0000
0000
0000
,
2010
0000
0000
3001
0100
0000
0001
0000
0010
0000
0000
0001
0000
0100
0010
0000
,
0110
0000
0000
0000
2001
0000
0000
0000
3001
0000
1000
0100
0000
1000
0010
0000
,
0100
0000
0001
1000
0000
1000
0100
1000
0010
0000
0010
0100
0000
0100
0001
0000
,
1000
0010
0100
0001
1000
0001
2000
0000
3001
0000
0000
0000
0000
0000
0000
0000
;

//---------------dance-single - ----------------
#NOTEDATA:;
#CHARTNAME:;
#STEPSTYPE:dance-single;
#DESCRIPTION:;
#CHARTSTYLE:;
#DIFFICULTY:Hard;
#METER:11;
#RADARVALUES:0.432262,0.430779,0.118660,0.194942,0.432262,357.000000,343.000000,14.000000,23.000000,0.000000,0.000000,4.000000,0.000000,0.000000,0.432262,0.430779,0.118660,0.194942,0.432262,357.000000,343.000000,14.000000,23.000000,0.000000,0.000000,4.000000,0.000000,0.000000;
#CREDIT:;
#NOTES:
0000
0000
0000
0000
,
0000
0000
0000
0000
,
0000
0000
0000
0000
,
0000
0000
0000
0000
0000
0000
0000
0000
1001
0000
0000
0000
0001
0100
0000
0000
,
0120
0000
0000
0000
1030
0000
0000
0000
1001
0000
0000
1000
0000
0001
0010
0000
,
0011
0000
0000
0000
2000
0000
0000
0000
3001
0000
0100
0000
0000
0100
0001
0000
,
1000
0000
0200
0000
0000
0000
0310
0001
0010
0000
0000
0001
0000
0000
1000
0000
,
0010
0000
0001
0000
0010
0000
1000
0000
0001
0000
0000
1000
0000
0100
0000
0010
,
0000
0001
0000
0100
0000
0000
0001
0000
1000
0000
0000
0001
0000
0010
0000
0100
,
0000
0000
0010
0000
0001
0000
1000
0000
0001
0000
0000
1000
0000
0010
0000
0100
,
0000
0001
0000
0010
0000
0000
0001
0000
1000
0000
0000
0010
0000
0100
0000
0001
,
0000
0000
0001
0000
1000
0000
1000
0000
0001
0000
0010
0200
0000
0000
0310
0000
,
0001
0000
0100
0010
0000
0100
0010
0000
1000
0000
0100
0020
0000
0000
0130
0000
,
1000
0000
0010
0100
0000
0100
0001
0000
1000
0000
0001
0000
0100
0000
0010
0000
,
0100
1000
0100
0010
0100
0001
0010
0100
,
1000
0000
0000
0001
0000
0000
1000
0000
0200
0000
0000
0000
0310
0000
0001
1000
,
0002
0000
0000
0000
0103
0000
0010
1000
0020
0000
0000
0000
0230
0000
0000
0000
,
0301
0000
1000
0100
0000
0200
0000
0000
1300
0000
0001
0000
0010
0000
0100
0000
,
0010
1000
0010
0100
0010
0001
0100
0010
,
1000
0000
0000
0001
0000
0000
1000
0000
1001
0000
0000
0001
0000
0000
0100
0000
,
0010
0000
0000
0010
0000
0000
1000
0000
0001
0000
0000
0001
0000
0000
1000
0001
,
1000
0000
0000
0000
1000
0000
0000
1000
0000
0000
0001
0000
0010
0000
0000
0010
,
0000
0000
0000
0000
0100
0000
0000
0000
1000
0000
0000
0000
0000
0000
1000
0000
0000
0000
0000
0000
0010
0000
0000
0000
0400
0300
0000
0000
0000
0000
0000
0000
,
0001
0000
0000
0010
0000
0000
0001
0000
1000
0000
0000
0100
0000
0000
1000
0000
,
0010
0000
0000
0100
0000
0000
0001
1000
0001
0000
0000
0000
1000
0000
0000
0010
,
0000
0000
1000
0000
0001
0000
0000
0100
0000
0000
0001
0000
0010
0000
0000
0100
,
0000
0000
0000
0000
1000
0000
0000
0000
0004
0003
0000
0000
0000
0000
0000
0000
1001
0000
0000
0000
0000
0000
0000
0000
1000
0000
0100
0000
0000
0000
0000
0000
,
0120
0000
0000
0000
0031
0000
0000
0000
1001
0000
0000
0001
0000
1000
0010
0000
,
1010
0000
0000
0000
0002
0000
0000
0000
1003
0000
0100
0000
0000
0100
1000
0000
,
0001
0000
0200
0000
0000
0000
0310
1000
0010
0000
0000
1000
0000
0000
0001
0000
,
0010
0000
1000
0000
0010
0000
0001
0000
1000
0000
0000
0001
0000
0100
0000
0010
,
0000
1000
0000
0100
0000
0000
1000
0000
0001
0000
0000
1000
0000
0010
0000
0100
,
0000
0000
0010
0000
1000
0000
0001
0000
1000
0000
0000
0001
0000
0010
0000
0100
,
0000
1000
0000
0010
0000
0000
1000
0000
0001
0000
0000
0010
0000
0100
0000
1000
,
0000
0000
1000
0000
0001
0000
0001
0000
1000
0000
0010
0200
0000
0000
0310
0000
,
1000
0000
0100
0010
0000
0100
0010
0000
0001
0000
0100
0020
0000
0000
0130
0000
,
0001
0000
0010
0100
0000
0100
1000
0000
0001
0000
1000
0000
0100
0000
0010
0000
,
0100
0001
0100
0010
0100
1000
0010
0100
,
0001
0000
0000
1000
0000
0000
0001
0000
0200
0000
0000
0000
0310
0000
1000
0001
,
2000
0000
0000
0000
3100
0000
0010
0001
0020
0000
0000
0000
0230
0000
0000
0000
,
1300
0000
0001
0100
0000
0200
0000
0000
0301
0000
1000
0000
0010
0000
0100
0000
,
0010
0001
0010
0100
0010
1000
0100
0010
,
0001
0000
0000
1000
0000
0000
0001
0000
1001
0000
0000
1000
0000
0000
0100
0000
,
0010
0000
0000
0010
0000
0000
0001
0000
1000
0000
0000
1000
0000
0000
0001
1000
,
0001
0000
0000
0000
0001
0000
0000
0001
0000
0000
1000
0000
0010
0000
0000
0010
,
0000
0000
0000
0000
0100
0000
0000
0000
0001
0000
0000
0000
0000
0000
0001
0000
0000
0000
0000
0000
0010
0000
0000
0000
0400
0300
0000
0000
0000
0000
0000
0000
,
1000
0000
0000
0010
0000
0000
1000
0000
0001
0000
0000
0100
0000
0000
0001
0000
,
0010
0000
0000
0100
0000
0000
1000
0001
1000
0000
0000
0000
0001
0000
0000
0010
,
0000
0000
0001
0000
1000
0000
0000
0100
0000
0000
1000
0000
0010
0000
0000
0100
,
0000
0000
0000
0000
0001
0000
0000
0000
4000
3000
0000
0000
0000
0000
0000
0000
1001
0000
0000
0000
0000
0000
0000
0000
0001
0000
0100
0000
0000
0000
0000
0000
,
0120
0000
0000
0000
1030
0000
0000
0000
1001
0000
0000
1000
0000
0001
0010
0000
,
0011
0000
0000
0000
2000
0000
0000
0000
3001
0000
0100
0000
0000
0100
0001
0000
,
1000
0000
0200
0000
0000
0000
0310
0001
0010
0000
0000
0001
0000
0000
1000
0000
,
0010
0001
0010
1000
0100
0000
0000
0000
;

//---------------dance-single - ----------------
#NOTEDATA:;
#CHARTNAME:;
#STEPSTYPE:dance-single;
#DESCRIPTION:;
#CHARTSTYLE:;
#DIFFICULTY:Medium;
#METER:7;
#RADARVALUES:0.336607,0.340088,0.245796,0.237320,0.000000,278.000000,249.000000,29.000000,28.000000,0.000000,0.000000,0.000000,0.000000,0.000000,0.336607,0.340088,0.245796,0.237320,0.000000,278.000000,249.000000,29.000000,28.000000,0.000000,0.000000,0.000000,0.000000,0.000000;
#CREDIT:;
#NOTES:
0000
0000
0000
0000
,
0000
0000
0000
0000
,
0000
0000
0000
0000
,
0000
0000
1001
0100
,
2002
3003
0110
1000
,
0110
0000
0002
0000
1003
0100
0000
0010
,
0001
0200
0000
0310
0010
0000
1000
0000
,
0010
0100
0001
0000
1001
0000
1000
0000
,
0010
1000
0100
0000
0010
0000
0001
0100
,
1000
0100
0001
0001
,
0010
0001
0100
0000
0010
0000
1000
0100
,
0001
0010
1000
1001
,
1000
0001
0010
0000
0001
0000
1001
0000
,
0100
0000
0000
0000
1001
0000
1000
0010
,
0100
0001
1000
0000
0001
0010
0100
1000
,
0001
0000
0000
0000
0200
0000
0000
0310
,
0020
0000
0000
1030
2000
0000
3002
0000
,
1003
0000
0000
0000
1000
0000
0001
0010
,
0100
0010
0001
0000
0100
0010
1000
0010
,
0100
0000
0000
0000
1001
0000
0001
0100
,
0001
0000
1000
0100
1000
0000
0001
0100
,
0001
0000
1001
0000
1000
0100
1000
0000
,
0001
0000
0000
0000
0100
0000
0000
0000
0001
0000
0000
0000
0000
0000
0000
0000
1000
0000
0000
0000
0100
0000
0000
0000
0220
0330
0000
0000
0000
0000
0000
0000
,
1000
0000
0100
1000
0001
0000
0100
0001
,
1000
0000
0100
1000
0001
0000
0001
0000
,
0100
0001
1000
0000
0100
1000
0001
0000
,
0100
0000
0000
0000
0001
0000
0000
0000
2002
3003
0000
0000
0000
0000
0000
0000
1001
0000
0000
0000
0000
0000
0000
0000
0100
0000
0000
0000
0000
0000
0000
0000
,
2002
3003
0110
0001
,
0110
0000
2000
0000
3001
0100
0000
0010
,
1000
0200
0000
0310
0010
0000
0001
0000
,
0010
0100
1000
0000
1001
0000
0001
0000
,
0010
0001
0100
0000
0010
0000
1000
0100
,
0001
0100
1000
1000
,
0010
1000
0100
0000
0010
0000
0001
0100
,
1000
0010
0001
1001
,
0001
1000
0010
0000
1000
0000
1001
0000
,
0100
0000
0000
0000
1001
0000
0001
0010
,
0100
1000
0001
0000
1000
0010
0100
0001
,
1000
0000
0000
0000
0200
0000
0000
0310
,
0020
0000
0000
0031
0002
0000
2003
0000
,
3001
0000
0000
0000
0001
0000
1000
0010
,
0100
0010
1000
0000
0100
0010
0001
0010
,
0100
0000
0000
0000
1001
0000
1000
0100
,
1000
0000
0001
0100
0001
0000
1000
0100
,
1000
0000
1001
0000
0001
0100
0001
0000
,
1000
0000
0000
0000
0100
0000
0000
0000
1000
0000
0000
0000
0000
0000
0000
0000
0001
0000
0000
0000
0100
0000
0000
0000
0220
0330
0000
0000
0000
0000
0000
0000
,
0001
0000
0100
0001
1000
0000
0100
1000
,
0001
0000
0100
0001
1000
0000
1000
0000
,
0100
1000
0001
0000
0100
0001
1000
0000
,
0100
0000
0000
0000
1000
0000
0000
0000
2002
3003
0000
0000
0000
0000
0000
0000
1001
0000
0000
0000
0000
0000
0000
0000
0010
0000
0000
0000
0000
0000
0000
0000
,
2002
3003
0110
1000
,
0110
0000
0002
0000
1003
0001
0000
0100
,
0010
2000
0000
3001
0001
0000
1000
0000
,
0100
0010
0001
0000
1001
0000
0000
0000
;

//---------------dance-single - ----------------
#NOTEDATA:;
#CHARTNAME:;
#STEPSTYPE:dance-single;
#DESCRIPTION:;
#CHARTSTYLE:;
#DIFFICULTY:Easy;
#METER:3;
#RADARVALUES:0.164671,0.204053,0.059330,0.186466,0.000000,136.000000,129.000000,7.000000,22.000000,0.000000,0.000000,0.000000,0.000000,0.000000,0.164671,0.204053,0.059330,0.186466,0.000000,136.000000,129.000000,7.000000,22.000000,0.000000,0.000000,0.000000,0.000000,0.000000;
#CREDIT:;
#NOTES:
0000
0000
0000
0000
,
0000
0000
0000
0000
,
0000
0000
0000
0000
,
0000
0000
1000
0001
,
0002
0003
0001
1000
,
1000
0020
0030
1000
,
0000
1000
0100
0000
,
0100
0010
0001
0000
,
0100
0000
0010
0000
,
1000
0000
0001
0000
,
0010
0000
0100
0000
,
1000
0000
0001
0001
,
1000
1000
0010
0010
,
0100
0000
1001
0000
,
0100
0000
0010
0001
,
0100
0000
0002
0000
,
2003
0000
3200
0320
,
0031
0000
1000
0000
,
0001
0000
0100
0010
,
1000
0000
0001
0000
,
0001
0000
0001
0000
,
0100
0001
0000
0001
,
0000
0000
0000
0000
0000
0000
0000
0000
0001
0000
0000
0000
0000
0000
0000
0000
0000
0000
0000
0000
0000
0000
0000
0000
0220
0330
0000
0000
0000
0000
0000
0000
,
1000
0000
0001
0000
,
1000
0000
0100
1000
,
0000
0001
0000
1000
,
0000
0000
0000
0000
0000
0000
0000
0000
0220
0330
0000
0000
0000
0000
0000
0000
0001
0000
0000
0000
0000
0000
0000
0000
1000
0000
0000
0000
0000
0000
0000
0000
,
2000
3000
1000
0001
,
0001
0020
0030
0100
,
0000
0100
1000
0000
,
0001
1000
0010
0000
,
0100
0000
0001
0000
,
0010
0000
0100
0000
,
1000
0000
0010
0000
,
0100
0000
0001
0001
,
1000
1000
0100
0100
,
0010
0000
1001
0000
,
0100
0000
0010
1000
,
0100
0000
2000
0000
,
3002
0000
0203
0320
,
1030
0000
0001
0000
,
1000
0000
0100
0010
,
0001
0000
1000
0000
,
1000
0000
1000
0000
,
0100
1000
0000
1000
,
0000
0000
0000
0000
0000
0000
0000
0000
1000
0000
0000
0000
0000
0000
0000
0000
0000
0000
0000
0000
0000
0000
0000
0000
0220
0330
0000
0000
0000
0000
0000
0000
,
0001
0000
1000
0000
,
0001
0000
0100
0001
,
0000
1000
0000
0001
,
0000
0000
0000
0000
0000
0000
0000
0000
0220
0330
0000
0000
0000
0000
0000
0000
1000
0000
0000
0000
0000
0000
0000
0000
0001
0000
0000
0000
0000
0000
0000
0000
,
0002
0003
0001
1000
,
1000
0200
0300
0010
,
0000
0010
0001
0000
,
1000
0001
1001
0000
;

//---------------dance-single - ----------------
#NOTEDATA:;
#CHARTNAME:;
#STEPSTYPE:dance-single;
#DESCRIPTION:;
#CHARTSTYLE:;
#DIFFICULTY:Beginner;
#METER:1;
#RADARVALUES:0.083546,0.118660,0.000000,0.000000,0.000000,69.000000,69.000000,0.000000,0.000000,0.000000,0.000000,0.000000,0.000000,0.000000,0.083546,0.118660,0.000000,0.000000,0.000000,69.000000,69.000000,0.000000,0.000000,0.000000,0.000000,0.000000,0.000000,0.000000;
#CREDIT:;
#OFFSET:-0.086850;
#BPMS:0.000000=120.000000
;
#STOPS:;
#DELAYS:;
#WARPS:;
#TIMESIGNATURES:0.000000=4=4
;
#TICKCOUNTS:0.000000=4
;
#COMBOS:0.000000=1
;
#SPEEDS:0.000000=1.000000=0.000000=0
;
#SCROLLS:0.000000=1.000000
;
#FAKES:;
#LABELS:0.000000=Song Start
;
#NOTES:
0000
0000
0000
0000
,
0000
0000
0000
0000
,
0000
0000
0000
0000
,
0000
0000
0000
0000
,
1000
0000
0000
0000
,
0001
0000
0000
0000
,
0100
0000
0000
0000
,
0010
0000
0010
0000
,
1000
0000
0000
0000
,
0100
0000
0000
0000
,
0001
0000
0000
0000
,
0010
0000
0000
0000
,
1000
0000
1000
0000
,
0001
0000
0001
0000
,
1000
0000
0000
0000
,
0100
0000
0000
0000
,
0010
0000
0000
0000
,
0001
0000
1000
0000
,
0001
0000
0000
0000
,
0100
0000
0000
0000
,
0010
0000
0010
0000
,
0010
0000
0000
0000
,
0100
0000
0100
0000
,
0100
0000
0000
0000
,
0001
0000
0001
0000
,
0001
0000
0000
0000
,
1000
0000
1000
0000
,
1000
0000
0000
0000
,
0001
0000
0000
0000
,
1000
0000
0000
0000
,
0100
0000
0000
0000
,
0010
0000
0010
0000
,
0001
0000
0000
0000
,
0100
0000
0000
0000
,
1000
0000
0000
0000
,
0010
0000
0000
0000
,
0001
0000
0001
0000
,
1000
0000
1000
0000
,
0001
0000
0000
0000
,
0100
0000
0000
0000
,
0010
0000
0000
0000
,
1000
0000
0001
0000
,
1000
0000
0000
0000
,
0100
0000
0000
0000
,
0010
0000
0010
0000
,
0010
0000
0000
0000
,
0100
0000
0100
0000
,
0100
0000
0000
0000
,
1000
0000
1000
0000
,
1000
0000
0000
0000
,
0001
0000
0001
0000
,
0001
0000
0000
0000
,
1000
0000
0000
0000
,
0001
0000
0000
0000
,
0100
0000
0000
0000
,
0010
0000
0000
0000
,
1000
0000
0000
0000
;

//---------------dance-single - Another----------------
#NOTEDATA:;
#CHARTNAME:;
#STEPSTYPE:dance-single;
#DESCRIPTION:Another;
#CHARTSTYLE:;
#DIFFICULTY:Edit;
#METER:15;
#RADARVALUES:0.734966,0.759425,0.525495,0.228845,1.029801,607.000000,545.000000,62.000000,27.000000,26.000000,0.000000,0.000000,0.000000,0.000000,0.734966,0.759425,0.525495,0.228845,1.029801,607.000000,545.000000,62.000000,27.000000,26.000000,0.000000,0.000000,0.000000,0.000000;
#CREDIT:Another;
#OFFSET:-0.086850;
#BPMS:0.000000=120.000000
;
#STOPS:;
#DELAYS:;
#WARPS:;
#TIMESIGNATURES:0.000000=4=4
;
#TICKCOUNTS:0.000000=4
;
#COMBOS:0.000000=1
;
#SPEEDS:0.000000=1.000000=0.000000=0
;
#SCROLLS:0.000000=1.000000
;
#FAKES:;
#LABELS:0.000000=Song Start
;
#NOTES:
0000
0000
0000
0000
,
0000
0000
0000
0000
,
0000
0000
0000
0000
,
0000
0000
0000
0000
,
0011
0000
0000
001M
0000
1000
0100
0000
M102
0000
0000
0000
1003
0000
0000
0000
,
1010
0000
0000
M010
0000
0001
0100
0000
110M
0000
0000
0000
0012
0000
0000
0000
,
1003
0000
0000
0000
0010
0000
0000
M00M
0000
0000
0010
0000
0001
0000
0000
0000
1000
0000
0000
0000
0020
0000
0000
0000
0000
0000
0000
0000
0130
0000
0001
0000
,
0010
0000
0000
0110
0000
0000
1100
0000
0001
0010
0100
1000
0010
0100
0001
0000
,
0101
0000
0010
1000
0000
1001
0000
1100
0000
1001
0000
0101
0000
0100
0001
1000
,
0100
0000
0000
0000
0010
0000
0001
0000
0000
0000
0101
0000
0000
0000
21MM
0000
0000
0000
0000
0000
3010
0000
0000
0000
0100
0000
0000
0000
0001
0000
1000
0001
,
1000
0000
1000
0100
0000
0110
0000
0011
0000
1001
0000
1010
0000
0010
1000
0001
,
0010
0000
0100
1000
0000
1100
0000
M1M2
0000
0000
0103
0000
0010
0000
1000
0000
,
1001
0000
0001
0020
0000
0000
1030
0000
0001
0100
0010
0100
0000
0100
1000
0000
,
0001
0000
0100
2000
0000
0000
3001
0000
0010
1000
0100
0010
0000
0010
0001
0000
,
1001
0000
1000
0010
0100
0001
0010
0001
0100
0010
1000
0100
1000
0010
0100
0001
,
0010
0100
0001
0100
1000
0010
0100
1000
0100
0010
0100
0002
0000
0000
1003
0100
,
0020
0000
0000
0000
0001
0000
0130
1000
0020
0000
0000
0000
1000
0000
0130
0001
,
0010
0000
0000
0000
1001
0000
0000
0000
1000
0000
0010
0001
0000
0020
0000
0000
,
1030
0000
0001
0100
0010
1000
0100
1000
0010
0100
0001
0010
0100
1000
0010
0100
,
0010
0001
0010
1000
0100
0010
1000
0010
0100
1000
0100
2000
0000
0000
3001
0000
,
0101
0000
0000
0100
0001
0000
1000
1000
0100
0000
0000
0100
1000
0000
0001
0001
,
0100
0000
0000
0000
0000
0000
0100
0000
0001
0000
0000
0000
1000
0001
1000
0001
1000
0000
0000
0000
0000
0000
0000
0000
0010
0000
0000
0000
1000
0000
0010
0000
,
1010
0000
0000
0010
1000
0000
0001
0001
0010
0000
0000
0010
0001
0000
1000
1000
,
0010
0000
0000
0000
0000
0000
0000
0000
0000
0000
0000
0000
0000
0000
0000
0000
0000
0000
0000
0000
0000
0000
0000
0000
0000
0000
0000
0000
0000
0000
0000
0000
0000
0000
0000
0000
0010
0000
0000
0000
0000
0000
0000
0000
0000
0000
0000
0000
1000
0000
0000
0000
0000
0000
0000
0000
0000
0000
0000
0000
0000
0000
0000
0000
0000
0000
0000
0000
0000
0000
0000
0000
0001
0000
0000
0000
0000
0000
0000
0000
0000
0000
0000
0000
0001
0000
0000
0000
0000
0000
0000
0000
0000
0000
0000
0000
0010
0000
0000
0000
0000
0000
0000
0100
0000
0000
0000
0000
0000
0000
0010
0000
0000
0000
0000
0000
0000
0100
0000
0000
0000
0000
0000
0010
0000
0000
0000
0000
0000
0000
0100
0000
0000
0000
0000
0000
0000
0010
0000
0000
0000
0000
0000
0000
0100
0000
0000
0000
0000
0000
0000
0000
0000
0000
0000
0000
0000
0000
0000
0000
0000
0000
0000
0000
0000
0000
0000
0000
0010
0000
0000
0000
0000
0000
0000
0000
0000
0000
0000
0000
0100
0000
0000
0000
0000
0000
0000
0000
0000
0000
0000
0000
,
1001
0000
1000
0001
0100
0000
0010
0010
1000
0000
0001
1000
0100
0000
0010
0010
,
0001
0000
0000
0000
1000
0000
0001
0000
0100
0000
0000
0000
0010
1000
0010
1000
0010
0000
0000
0000
0000
0000
0000
0000
1000
0000
0000
0000
0001
0000
1000
0000
,
1001
0000
0001
1000
0100
0000
0010
0010
0100
0000
1000
0001
0100
0000
0010
0010
,
0100
0000
0000
0000
0000
0000
0000
0000
0000
0000
0000
0000
0000
0000
0000
0000
0000
0000
0000
0000
0000
0000
0000
0000
0001
0000
0000
0000
0000
0000
0000
0000
0000
0000
0000
0000
1000
0000
0000
0000
0000
0000
0000
0000
0000
0000
0000
0000
0100
0000
0000
0000
0000
0000
0000
0000
0000
0000
0000
0000
0000
0000
0000
0000
0000
0000
0000
0000
0000
0000
0000
0000
0010
0000
0000
0000
0000
0000
0000
0000
0000
0000
0000
0000
0010
0000
0000
0000
0000
0000
0000
0000
0000
0000
0000
0000
0001
0000
0000
0000
0000
0000
0000
1000
0000
0000
0000
0000
0000
0000
0001
0000
0000
0000
0000
0000
0000
1000
0000
0000
0000
0000
0000
0001
0000
0000
0000
0000
0000
0000
1000
0000
0000
0000
0000
0000
0000
0001
0000
0000
0000
0000
0000
0000
1000
0000
0000
0000
0000
0000
0000
0000
0000
0000
0000
0000
0000
0000
0000
0000
0000
0000
0000
0000
0000
0000
0000
0000
0001
0000
0000
0000
0000
0000
0000
0000
0000
0000
0000
0000
0100
0000
0000
0000
0000
0000
0000
0000
0000
0000
0000
0000
,
1010
0000
0000
M010
0000
0001
0100
0000
210M
0000
0000
0000
3001
0000
0000
0000
,
0011
0000
0000
001M
0000
1000
0100
0000
M101
0000
0000
0000
2010
0000
0000
0000
,
3001
0000
0000
0000
0010
0000
0000
M00M
0000
0000
0010
0000
1000
0000
0000
0000
0001
0000
0000
0000
0020
0000
0000
0000
0000
0000
0000
0000
0130
0000
1000
0000
,
0010
0000
0000
0110
0000
0000
0101
0000
1000
0010
0100
0001
0010
0100
1000
0000
,
1100
0000
0010
0001
0000
1001
0000
0101
0000
1001
0000
1100
0000
0100
1000
0001
,
0100
0000
0000
0000
0010
0000
1000
0000
0000
0000
1100
0000
0000
0000
M1M2
0000
0000
0000
0000
0000
0013
0000
0000
0000
0100
0000
0000
0000
1000
0000
0001
1000
,
0001
0000
0001
0100
0000
0110
0000
1010
0000
1001
0000
0011
0000
0010
0001
1000
,
0010
0000
0100
0001
0000
0101
0000
21MM
0000
0000
3100
0000
0010
0000
0001
0000
,
1001
0000
1000
0020
0000
0000
0031
0000
1000
0100
0010
0100
0000
0100
0001
0000
,
1000
0000
0100
0002
0000
0000
1003
0000
0010
0001
0100
0010
0000
0010
1000
0000
,
1001
0000
0001
0010
0100
1000
0010
1000
0100
0010
0001
0100
0001
0010
0100
1000
,
0010
0100
1000
0100
0001
0010
0100
0001
0100
0010
0100
2000
0000
0000
3001
0100
,
0020
0000
0000
0000
1000
0000
0130
0001
0020
0000
0000
0000
0001
0000
0130
1000
,
0010
0000
0000
0000
1001
0000
0000
0000
0001
0000
0010
1000
0000
0020
0000
0000
,
0031
0000
1000
0100
0010
0001
0100
0001
0010
0100
1000
0010
0100
0001
0010
0100
,
0010
1000
0010
0001
0100
0010
0001
0010
0100
0001
0100
0002
0000
0000
1003
0000
,
1100
0000
0000
0100
1000
0000
0001
0001
0100
0000
0000
0100
0001
0000
1000
1000
,
0100
0000
0000
0000
0000
0000
0100
0000
1000
0000
0000
0000
0001
1000
0001
1000
0001
0000
0000
0000
0000
0000
0000
0000
0010
0000
0000
0000
0001
0000
0010
0000
,
0011
0000
0000
0010
0001
0000
1000
1000
0010
0000
0000
0010
1000
0000
0001
0001
,
0010
0000
0000
0000
0000
0000
0000
0000
0000
0000
0000
0000
0000
0000
0000
0000
0000
0000
0000
0000
0000
0000
0000
0000
0000
0000
0000
0000
0000
0000
0000
0000
0000
0000
0000
0000
0010
0000
0000
0000
0000
0000
0000
0000
0000
0000
0000
0000
0001
0000
0000
0000
0000
0000
0000
0000
0000
0000
0000
0000
0000
0000
0000
0000
0000
0000
0000
0000
0000
0000
0000
0000
1000
0000
0000
0000
0000
0000
0000
0000
0000
0000
0000
0000
1000
0000
0000
0000
0000
0000
0000
0000
0000
0000
0000
0000
0010
0000
0000
0000
0000
0000
0000
0100
0000
0000
0000
0000
0000
0000
0010
0000
0000
0000
0000
0000
0000
0100
0000
0000
0000
0000
0000
0010
0000
0000
0000
0000
0000
0000
0100
0000
0000
0000
0000
0000
0000
0010
0000
0000
0000
0000
0000
0000
0100
0000
0000
0000
0000
0000
0000
0000
0000
0000
0000
0000
0000
0000
0000
0000
0000
0000
0000
0000
0000
0000
0000
0000
0010
0000
0000
0000
0000
0000
0000
0000
0000
0000
0000
0000
0100
0000
0000
0000
0000
0000
0000
0000
0000
0000
0000
0000
,
1001
0000
0001
1000
0100
0000
0010
0010
0001
0000
1000
0001
0100
0000
0010
0010
,
1000
0000
0000
0000
0001
0000
1000
0000
0100
0000
0000
0000
0010
0001
0010
0001
0010
0000
0000
0000
0000
0000
0000
0000
0001
0000
0000
0000
1000
0000
0001
0000
,
1001
0000
1000
0001
0100
0000
0010
0010
0100
0000
0001
1000
0100
0000
0010
0010
,
0100
0000
0000
0000
0000
0000
0000
0000
0000
0000
0000
0000
0000
0000
0000
0000
0000
0000
0000
0000
0000
0000
0000
0000
1000
0000
0000
0000
0000
0000
0000
0000
0000
0000
0000
0000
0001
0000
0000
0000
0000
0000
0000
0000
0000
0000
0000
0000
0100
0000
0000
0000
0000
0000
0000
0000
0000
0000
0000
0000
0000
0000
0000
0000
0000
0000
0000
0000
0000
0000
0000
0000
0010
0000
0000
0000
0000
0000
0000
0000
0000
0000
0000
0000
0010
0000
0000
0000
0000
0000
0000
0000
0000
0000
0000
0000
1000
0000
0000
0000
0000
0000
0000
0001
0000
0000
0000
0000
0000
0000
1000
0000
0000
0000
0000
0000
0000
0001
0000
0000
0000
0000
0000
1000
0000
0000
0000
0000
0000
0000
0001
0000
0000
0000
0000
0000
0000
1000
0000
0000
0000
0000
0000
0000
0001
0000
0000
0000
0000
0000
0000
0000
0000
0000
0000
0000
0000
0000
0000
0000
0000
0000
0000
0000
0000
0000
0000
0000
1000
0000
0000
0000
0000
0000
0000
0000
0000
0000
0000
0000
0100
0000
0000
0000
0000
0000
0000
0000
0000
0000
0000
0000
,
0011
0000
0000
001M
0000
1000
0100
0000
M102
0000
0000
0000
1003
0000
0000
0000
,
1010
0000
0000
M010
0000
0001
0100
0000
110M
0000
0000
0000
0012
0000
0000
0000
,
1003
0000
0000
0000
0010
0000
0000
M00M
0000
0000
0010
0000
0001
0000
0000
0000
1000
0000
0000
0000
0020
0000
0000
0000
0000
0000
0000
0000
0130
0000
0001
0000
,
0010
0000
0000
0110
0000
0000
1100
0000
0001
0010
0100
1000
0010
0100
0001
0000
,
1001
0000
0000
0000
;
