#VERSION:0.83;
#TITLE:Jumper;
#SUBTITLE:;
#ARTIST:Capsule;
#TITLETRANSLIT:;
#SUBTITLETRANSLIT:;
#ARTISTTRANSLIT:;
#GENRE:J-Tech;
#ORIGIN:;
#CREDIT:;
#BANNER:Jumper.png;
#BACKGROUND:Jumper-bg.png;
#PREVIEWVID:;
#JACKET:Jumper-jacket.png;
#CDIMAGE:;
#DISCIMAGE:;
#LYRICSPATH:;
#CDTITLE:cdtitle.png;
#MUSIC:Jumper.ogg;
#OFFSET:-0.006469;
#SAMPLESTART:73.854881;
#SAMPLELENGTH:14.769226;
#SELECTABLE:YES;
#DISPLAYBPM:130.000000;
#BPMS:0.000=130.000;
#STOPS:156.000=1.385;
#DELAYS:;
#WARPS:;
#TIMESIGNATURES:0.000=4=4;
#TICKCOUNTS:0.000=2;
#COMBOS:0.000=1;
#SPEEDS:0.000=1.000=0.000=0;
#SCROLLS:0.000=1.000,
24.000=2.000,
31.000=0.000,
32.000=1.000;
#FAKES:;
#LABELS:0.000=Song Start;
#BGCHANGES:;
#KEYSOUNDS:;
#ATTACKS:
;

//---------------dance-single - ----------------
#NOTEDATA:;
#CHARTNAME:;
#STEPSTYPE:dance-single;
#DESCRIPTION:;
#CHARTSTYLE:;
#DIFFICULTY:Hard;
#METER:11;
#RADARVALUES:0.462703,0.478693,0.136089,0.090726,0.009073,357.000000,342.000000,15.000000,10.000000,0.000000,0.000000,0.000000,0.000000,0.000000,0.462703,0.478693,0.136089,0.090726,0.009073,357.000000,342.000000,15.000000,10.000000,0.000000,0.000000,0.000000,0.000000,0.000000;
#CREDIT:;
#OFFSET:-0.006469;
#BPMS:0.000000=130.000000
;
#STOPS:156.000000=1.384613
;
#DELAYS:;
#WARPS:;
#TIMESIGNATURES:0.000000=4=4
;
#TICKCOUNTS:0.000000=2
;
#COMBOS:0.000000=1
;
#SPEEDS:0.000000=1.000000=0.000000=0
;
#SCROLLS:0.000000=1.000000
,24.000000=2.000000
,31.000000=1.000000
;
#FAKES:;
#LABELS:0.000000=Song Start
;
#DISPLAYBPM:130.000000;
#NOTES:
// measure 0
0000
0000
0000
0000
,  // measure 1
0000
0000
0000
0000
,  // measure 2
0000
0000
0000
0000
,  // measure 3
0000
0000
0000
0000
,  // measure 4
1000
0010
0100
0000
0001
0000
1000
0000
,  // measure 5
0001
0010
0100
0010
0001
0000
1000
0000
,  // measure 6
2002
0000
0000
0000
,  // measure 7
0000
0000
0000
3003
,  // measure 8
0000
0001
0100
0010
0000
1000
0100
0010
,  // measure 9
0000
0001
0100
0010
0000
1000
0001
1001
,  // measure 10
0000
1000
0100
0010
0000
0001
0100
0010
,  // measure 11
0000
1000
0100
0010
0000
0001
0100
0110
,  // measure 12
0000
0010
1000
0100
0000
0010
0001
0100
,  // measure 13
0000
0010
1000
0100
0000
0010
0001
1001
,  // measure 14
0000
0100
0001
0010
0000
0100
1000
0010
,  // measure 15
0000
0100
0001
0010
0000
0001
1000
1010
,  // measure 16
0000
1000
0100
0010
0000
0001
0100
1000
,  // measure 17
0000
1000
0100
0001
0000
0010
0001
1001
,  // measure 18
0000
0001
0100
0010
0000
1000
0100
0001
,  // measure 19
0000
0001
0100
1000
0000
0001
0100
0110
,  // measure 20
0000
0010
1000
0100
0000
1000
0010
0001
,  // measure 21
0000
0001
0010
1000
0000
0001
1000
1001
,  // measure 22
0000
0010
0001
0100
0000
0010
1000
0100
,  // measure 23
0020
0000
0000
0032
0000
0000
0203
0000
0000
0320
0000
0000
2030
0000
3002
0000
,  // measure 24
1003
1000
0001
0001
,  // measure 25
1000
1000
0001
0100
,  // measure 26
0001
0001
1000
1000
,  // measure 27
0200
0300
0200
0300
1000
0000
0001
0000
,  // measure 28
1000
0100
1000
0000
0001
0100
0001
0000
,  // measure 29
1000
0100
1000
0000
0010
0100
0001
0000
,  // measure 30
1000
0010
1000
0000
0001
0010
0001
0000
,  // measure 31
1000
0010
1000
0000
0001
0010
0100
1000
,  // measure 32
0001
0100
0001
0100
1000
0100
1000
0100
,  // measure 33
1000
0010
1000
0010
0001
0010
0100
0010
,  // measure 34
0001
0010
0001
0010
1000
0010
1000
0010
,  // measure 35
1000
0100
1000
0100
0001
0100
0001
0000
,  // measure 36
1000
0010
1000
0010
0001
0010
0001
0010
,  // measure 37
0001
0100
0001
0100
1000
0100
0010
0100
,  // measure 38
1000
0010
0100
0001
0010
0100
1000
0010
,  // measure 39
0110
0000
1000
0010
1000
0010
1000
0001
,  // measure 40
1000
0100
0010
0001
0010
0001
1000
0001
,  // measure 41
0100
0001
1000
0100
1000
0100
0010
0001
,  // measure 42
0100
0010
1000
0100
0001
0100
1000
0100
,  // measure 43
0110
0000
0001
0010
0001
0010
0001
1000
,  // measure 44
0001
0100
0010
1000
0010
1000
0001
1000
,  // measure 45
0100
1000
0001
0100
0001
0100
0010
1000
,  // measure 46
0100
0010
0001
0100
0010
0100
1010
0000
,  // measure 47
0101
0000
1000
0010
1000
0010
0100
0010
,  // measure 48
0001
0010
1000
0100
1000
0100
0010
0100
,  // measure 49
0001
0100
1000
0001
1000
0001
0100
0010
,  // measure 50
1000
0100
0001
0100
1000
0010
0100
0001
,  // measure 51
1001
0000
0001
0010
0001
0010
1000
0010
,  // measure 52
0001
1000
0001
0100
0001
0100
1000
0100
,  // measure 53
0001
1000
0001
0010
0100
1000
0001
0100
,  // measure 54
1000
0100
0001
0010
0100
0010
1100
0000
,  // measure 55
0011
1000
1000
1000
,  // measure 56
0001
1000
1000
1000
,  // measure 57
0001
1000
1000
1000
,  // measure 58
0001
0000
0100
0010
0000
0010
0000
0000
;

//---------------dance-single - ----------------
#NOTEDATA:;
#CHARTNAME:;
#STEPSTYPE:dance-single;
#DESCRIPTION:;
#CHARTSTYLE:;
#DIFFICULTY:Medium;
#METER:7;
#RADARVALUES:0.339574,0.398911,0.208670,0.145162,0.009073,262.000000,239.000000,23.000000,16.000000,0.000000,0.000000,0.000000,0.000000,0.000000,0.339574,0.398911,0.208670,0.145162,0.009073,262.000000,239.000000,23.000000,16.000000,0.000000,0.000000,0.000000,0.000000,0.000000;
#CREDIT:;
#OFFSET:-0.006469;
#BPMS:0.000000=130.000000
;
#STOPS:156.000000=1.384613
;
#DELAYS:;
#WARPS:;
#TIMESIGNATURES:0.000000=4=4
;
#TICKCOUNTS:0.000000=2
;
#COMBOS:0.000000=1
;
#SPEEDS:0.000000=1.000000=0.000000=0
;
#SCROLLS:0.000000=1.000000
,24.000000=2.000000
,31.000000=1.000000
;
#FAKES:;
#LABELS:0.000000=Song Start
;
#DISPLAYBPM:130.000000;
#NOTES:
// measure 0
0000
0000
0000
0000
,  // measure 1
0000
0000
0000
0000
,  // measure 2
0000
0000
0000
0000
,  // measure 3
0000
0000
0000
0000
,  // measure 4
0001
0010
0001
1000
,  // measure 5
0010
1000
0100
0010
,  // measure 6
2002
0000
0000
0000
,  // measure 7
0000
0000
0000
3003
,  // measure 8
0000
0001
0000
0100
0000
0010
0000
0100
,  // measure 9
0000
0001
0000
0100
0000
0010
0000
1001
,  // measure 10
0000
1000
0000
0100
0000
0010
0000
0100
,  // measure 11
0000
1000
0000
0100
0000
0010
0000
1001
,  // measure 12
0000
1000
0000
0010
0000
0100
0000
0010
,  // measure 13
0000
1000
0000
0010
0000
0100
0000
1001
,  // measure 14
0000
0001
0000
0010
0000
0100
0000
0010
,  // measure 15
0000
0001
0000
0010
0000
1100
0000
0011
,  // measure 16
0000
0001
0000
0100
0000
1000
0000
0100
,  // measure 17
0000
0001
0000
0100
0000
0010
0000
1001
,  // measure 18
0000
1000
0000
0100
0000
0001
0000
0100
,  // measure 19
0000
1000
0000
0100
0000
0010
0000
1001
,  // measure 20
0000
1000
0000
0010
0000
0001
0000
0010
,  // measure 21
0000
1000
0000
0010
0000
0100
0000
1001
,  // measure 22
0000
0001
0000
0010
0000
0100
0000
1000
,  // measure 23
0020
0000
0000
0230
0000
0000
0320
0000
0000
0230
0000
0000
0302
0000
0000
0000
,  // measure 24
1003
1000
0001
0001
,  // measure 25
1000
1000
0001
1000
,  // measure 26
0001
0001
1000
1000
,  // measure 27
0200
0320
0031
1000
,  // measure 28
0002
0100
1000
0010
,  // measure 29
2003
0100
0001
0010
,  // measure 30
3200
1000
0010
0301
,  // measure 31
0200
0001
0010
1300
,  // measure 32
0001
0000
0100
0010
0100
0000
0010
0100
,  // measure 33
0010
0000
0100
0010
0100
0000
0001
0000
,  // measure 34
1000
0000
0100
0010
0100
0000
0010
0100
,  // measure 35
0010
0000
0100
0010
0100
0010
0001
0000
,  // measure 36
1000
0000
0001
0100
0001
0000
1000
0100
,  // measure 37
1000
0000
0001
0100
0001
0000
1000
0000
,  // measure 38
1100
0011
0101
1010
,  // measure 39
1001
0000
1000
0000
0100
0000
1000
0001
,  // measure 40
1000
0000
0001
0000
0100
0000
0001
1000
,  // measure 41
0001
0000
1000
0000
0010
0000
1000
0001
,  // measure 42
1000
0000
0100
0010
0100
0010
0100
0000
,  // measure 43
1001
0000
0001
0000
1000
0000
0010
0100
,  // measure 44
0010
0000
1000
0000
0001
0000
0010
0100
,  // measure 45
0010
0000
0001
0000
1000
0000
0001
0100
,  // measure 46
0001
1010
0011
2002
,  // measure 47
3003
0000
1000
0000
0100
0000
0010
0001
,  // measure 48
1000
0000
0001
0000
0100
0000
0010
1000
,  // measure 49
0001
0000
1000
0000
0100
0000
0010
0001
,  // measure 50
1000
0000
0001
0100
0010
1000
0001
0000
,  // measure 51
1001
0000
0001
0000
0010
0000
0100
1000
,  // measure 52
0001
0000
1000
0000
0010
0000
0100
0001
,  // measure 53
1000
0000
0100
0000
0010
0000
0001
1000
,  // measure 54
0010
1010
0101
0011
,  // measure 55
2100
3001
0001
0001
,  // measure 56
1000
0001
0001
0001
,  // measure 57
1000
0001
0001
0001
,  // measure 58
1000
0000
0010
0100
0000
0100
0000
0000
;

//---------------dance-single - ----------------
#NOTEDATA:;
#CHARTNAME:;
#STEPSTYPE:dance-single;
#DESCRIPTION:;
#CHARTSTYLE:;
#DIFFICULTY:Easy;
#METER:3;
#RADARVALUES:0.193117,0.372317,0.154234,0.072581,0.000000,149.000000,132.000000,17.000000,8.000000,0.000000,0.000000,0.000000,0.000000,0.000000,0.193117,0.372317,0.154234,0.072581,0.000000,149.000000,132.000000,17.000000,8.000000,0.000000,0.000000,0.000000,0.000000,0.000000;
#CREDIT:;
#OFFSET:-0.006469;
#BPMS:0.000000=130.000000
;
#STOPS:156.000000=1.384613
;
#DELAYS:;
#WARPS:;
#TIMESIGNATURES:0.000000=4=4
;
#TICKCOUNTS:0.000000=2
;
#COMBOS:0.000000=1
;
#SPEEDS:0.000000=1.000000=0.000000=0
;
#SCROLLS:0.000000=1.000000
,24.000000=2.000000
,31.000000=1.000000
;
#FAKES:;
#LABELS:0.000000=Song Start
;
#DISPLAYBPM:130.000000;
#NOTES:
// measure 0
0000
0000
0000
0000
,  // measure 1
0000
0000
0000
0000
,  // measure 2
0000
0000
0000
0000
,  // measure 3
0000
0000
0000
0000
,  // measure 4
0001
0000
0100
0000
,  // measure 5
0010
0000
1000
0000
,  // measure 6
2002
0000
0000
0000
,  // measure 7
0000
0000
0000
3003
,  // measure 8
0000
1000
0000
0000
0000
0100
0000
0000
,  // measure 9
0000
1000
0000
0000
0000
1001
0000
0000
,  // measure 10
0000
0001
0000
0000
0000
0100
0000
0000
,  // measure 11
0000
0001
0000
0000
0000
1001
0000
0000
,  // measure 12
0000
1000
0000
0000
0000
0010
0000
0000
,  // measure 13
0000
1000
0000
0000
0000
1001
0000
0000
,  // measure 14
0000
0001
0000
0000
0000
0010
0000
0000
,  // measure 15
0000
0001
0000
0000
0000
0110
0000
0000
,  // measure 16
0000
1000
0000
0000
0000
0010
0000
0000
,  // measure 17
0000
0100
0000
0000
0000
0101
0000
0000
,  // measure 18
0000
0001
0000
0000
0000
0010
0000
0000
,  // measure 19
0000
0100
0000
0000
0000
1100
0000
0000
,  // measure 20
0000
1000
0000
0000
0000
0010
0000
0000
,  // measure 21
0000
0100
0000
0000
0000
0101
0000
0000
,  // measure 22
0000
0001
0000
0000
0000
1000
0000
0000
,  // measure 23
0002
0000
0000
0003
,  // measure 24
0100
0000
0100
0000
,  // measure 25
0100
0000
0010
0000
,  // measure 26
0100
0000
0100
0000
,  // measure 27
0002
0003
0100
0000
,  // measure 28
0010
0010
0010
0010
,  // measure 29
0010
0010
0010
0100
,  // measure 30
0010
0010
0010
0010
,  // measure 31
0010
0010
0010
0100
,  // measure 32
0001
0000
0100
0000
,  // measure 33
0010
0000
1000
0001
,  // measure 34
1000
0000
0100
0000
,  // measure 35
0010
0000
0001
1000
,  // measure 36
0001
0000
0100
0000
,  // measure 37
0010
0000
1000
0001
,  // measure 38
1001
1001
1001
1001
,  // measure 39
1001
1000
0100
1000
,  // measure 40
0000
0010
1000
0010
,  // measure 41
0000
0100
0001
0100
,  // measure 42
0000
0001
1000
1001
,  // measure 43
0000
0001
0100
0001
,  // measure 44
0000
0010
0001
0010
,  // measure 45
0000
0100
1000
0100
,  // measure 46
0000
1000
0001
1001
,  // measure 47
0000
1000
0010
0100
,  // measure 48
0000
0001
0100
0010
,  // measure 49
0000
1000
0010
0100
,  // measure 50
0000
0001
1000
1001
,  // measure 51
0000
0001
0010
0100
,  // measure 52
0000
1000
0100
0010
,  // measure 53
0000
0001
0010
0100
,  // measure 54
0000
1000
0001
1001
,  // measure 55
0000
0002
0000
0000
,  // measure 56
0003
2000
0000
0000
,  // measure 57
3000
0002
0000
0000
,  // measure 58
0003
0000
0020
0000
0000
0030
0000
0000
;

//---------------dance-single - ----------------
#NOTEDATA:;
#CHARTNAME:;
#STEPSTYPE:dance-single;
#DESCRIPTION:;
#CHARTSTYLE:;
#DIFFICULTY:Beginner;
#METER:2;
#RADARVALUES:0.137385,0.214113,0.090726,0.036290,0.000000,106.000000,96.000000,10.000000,4.000000,0.000000,0.000000,0.000000,0.000000,0.000000,0.137385,0.214113,0.090726,0.036290,0.000000,106.000000,96.000000,10.000000,4.000000,0.000000,0.000000,0.000000,0.000000,0.000000;
#CREDIT:;
#OFFSET:-0.006469;
#BPMS:0.000000=130.000000
;
#STOPS:;
#DELAYS:;
#WARPS:;
#TIMESIGNATURES:0.000000=4=4
;
#TICKCOUNTS:0.000000=2
;
#COMBOS:0.000000=1
;
#SPEEDS:0.000000=1.000000=0.000000=0
;
#SCROLLS:0.000000=1.000000
;
#FAKES:;
#LABELS:0.000000=Song Start
;
#DISPLAYBPM:130.000000;
#NOTES:
// measure 0
0000
0000
0000
0000
,  // measure 1
0000
0000
0000
0000
,  // measure 2
0000
0000
0000
0000
,  // measure 3
0000
0000
0000
0000
,  // measure 4
0001
0000
0000
0000
,  // measure 5
1000
0000
0000
0000
,  // measure 6
2002
0000
0000
0000
,  // measure 7
0000
0000
0000
3003
,  // measure 8
0000
1000
0000
1000
,  // measure 9
0000
1000
0000
1000
,  // measure 10
0000
0001
0000
0001
,  // measure 11
0000
0001
0000
0001
,  // measure 12
0000
1000
0000
1000
,  // measure 13
0000
1000
0000
1000
,  // measure 14
0000
0001
0000
0001
,  // measure 15
0000
0001
0000
0010
,  // measure 16
0000
0001
0000
0001
,  // measure 17
0000
0001
0000
0001
,  // measure 18
0000
0100
0000
0100
,  // measure 19
0000
0100
0000
0100
,  // measure 20
0000
0010
0000
0010
,  // measure 21
0000
0010
0000
0010
,  // measure 22
0000
1000
0000
1000
,  // measure 23
2000
0000
3000
0000
,  // measure 24
0100
0000
0000
0000
,  // measure 25
0000
0000
0000
0000
,  // measure 26
0100
0000
0000
0000
,  // measure 27
0020
0000
0000
0030
0000
0000
0000
0000
,  // measure 28
0100
0000
0100
0000
,  // measure 29
0100
0000
0010
0000
,  // measure 30
0100
0000
0100
0000
,  // measure 31
0100
0000
0100
0000
,  // measure 32
1000
0000
1000
0000
,  // measure 33
0001
0000
0001
0000
,  // measure 34
1000
0000
1000
0000
,  // measure 35
0100
0000
0100
0000
,  // measure 36
0010
0000
0010
0000
,  // measure 37
0001
0000
0001
0000
,  // measure 38
1001
0000
1001
0000
,  // measure 39
1001
0000
0000
0000
,  // measure 40
1000
0000
1000
0000
,  // measure 41
0100
0000
0100
0000
,  // measure 42
0010
0000
0010
0000
,  // measure 43
0001
0000
1001
0000
,  // measure 44
0001
0000
0001
0000
,  // measure 45
0100
0000
0100
0000
,  // measure 46
0010
0000
0010
0000
,  // measure 47
1000
0000
1001
0000
,  // measure 48
0001
0000
0001
0000
,  // measure 49
0010
0000
0010
0000
,  // measure 50
0001
0000
0001
0000
,  // measure 51
1000
0000
1001
0000
,  // measure 52
1000
0000
1000
0000
,  // measure 53
0010
0000
0010
0000
,  // measure 54
1000
0000
1000
0000
,  // measure 55
1001
0000
0110
0000
,  // measure 56
1001
0000
0000
0000
,  // measure 57
1000
0000
0000
0000
,  // measure 58
1000
0000
0000
0000
,  // measure 59
0001
0000
0000
0000
;

//---------------dance-single - ----------------
#NOTEDATA:;
#CHARTNAME:;
#STEPSTYPE:dance-single;
#DESCRIPTION:;
#CHARTSTYLE:;
#DIFFICULTY:Challenge;
#METER:14;
#RADARVALUES:0.715439,0.824416,1.034276,0.181452,0.290323,552.000000,438.000000,114.000000,20.000000,30.000000,0.000000,0.000000,0.000000,0.000000,0.715439,0.824416,1.034276,0.181452,0.290323,552.000000,438.000000,114.000000,20.000000,30.000000,0.000000,0.000000,0.000000,0.000000;
#CREDIT:;
#OFFSET:-0.006469;
#BPMS:0.000000=130.000000
;
#STOPS:156.000000=1.384613
;
#DELAYS:;
#WARPS:;
#TIMESIGNATURES:0.000000=4=4
;
#TICKCOUNTS:0.000000=2
;
#COMBOS:0.000000=1
;
#SPEEDS:0.000000=1.000000=0.000000=0
;
#SCROLLS:0.000000=1.000000
,24.000000=2.000000
,31.000000=1.000000
;
#FAKES:;
#LABELS:0.000000=Song Start
;
#DISPLAYBPM:130.000000;
#NOTES:
// measure 0
0000
0000
0000
0000
,  // measure 1
0000
0000
0000
0000
,  // measure 2
0000
0000
0000
0000
,  // measure 3
0000
0000
0000
0000
,  // measure 4
1000
0000
0001
0000
0100
0000
0101
0000
0000
1100
0000
0000
0101
0000
0000
0000
,  // measure 5
0010
0000
1000
0000
0100
0000
1100
0000
0000
0011
0000
0000
0101
0000
0000
0000
,  // measure 6
2002
0000
0000
0000
,  // measure 7
0000
0000
0000
3MM3
,  // measure 8
1000
0000
1010
0000
0000
0000
0101
0000
0000
0001
0010
0000
0100
0000
1100
0000
,  // measure 9
0000
1000
0010
0000
0100
0000
0101
0000
0000
0001
0010
0000
0001
0000
1001
0000
,  // measure 10
0000
1000
0100
0000
0010
0000
0011
0000
0000
0001
0100
0000
0010
0000
1010
0000
,  // measure 11
0000
1000
0100
0000
0010
0000
0011
0000
0000
0001
0100
0000
0010
0000
1001
0000
,  // measure 12
0000
0010
1000
0000
0100
0000
1100
0000
0000
0010
0001
0000
0100
0000
0101
0000
,  // measure 13
0000
0010
1000
0000
0100
0000
1100
0000
0000
0010
0001
0000
1000
0000
1001
0000
,  // measure 14
0000
0100
0001
0000
0010
0000
0011
0000
0000
0100
1000
0000
0010
0000
1010
0000
,  // measure 15
0000
0100
0001
0000
0010
0000
0011
0000
0000
1000
0001
0000
0100
0000
1001
0000
,  // measure 16
0000
0001
0100
0000
0010
0000
1100
0000
0000
1000
0100
0000
0010
0000
0101
0000
,  // measure 17
0000
0001
0100
0000
0010
0000
1100
0000
0000
1000
0100
0000
0010
0000
0110
0000
,  // measure 18
0000
0001
0010
0000
0100
0000
1010
0000
0000
1000
0010
0000
0100
0000
0011
0000
,  // measure 19
0000
0001
0010
0000
0100
0000
1010
0000
0000
1000
0010
0000
0100
0000
1001
0000
,  // measure 20
0000
1000
0010
0000
0001
0000
0011
0000
0000
0001
0010
0000
1000
0000
1010
0000
,  // measure 21
0000
1000
0100
0000
0001
0000
0101
0000
0000
0001
0100
0000
1000
0000
1100
0000
,  // measure 22
0000
0010
0001
0000
0100
0000
0101
0000
0000
0010
1000
0000
0100
0000
1100
0000
,  // measure 23
1001
0000
0000
0011
0000
0000
0110
0000
0000
1100
0000
0000
1001
0000
0101
0000
,  // measure 24
0110
0010
0100
0100
0010
0010
0100
0100
,  // measure 25
0010
0010
0100
0100
0010
0010
1000
0001
,  // measure 26
0010
0010
0100
0100
0010
0010
0100
0100
,  // measure 27
0002
0203
0302
0203
0310
0100
1000
0000
,  // measure 28
1001
1000
1010
1000
1001
1000
1100
1000
,  // measure 29
1001
1000
1010
0010
0101
0101
1010
1100
,  // measure 30
1001
0001
0011
0001
1001
0001
0101
0001
,  // measure 31
1001
0001
0011
0010
1100
1100
0011
0101
,  // measure 32
1001
0000
0001
0000
0001
0100
0001
0000
1001
0000
1000
0000
1000
0100
1000
0000
,  // measure 33
1001
0000
0001
0000
0100
0010
0100
0010
1000
0000
0100
0010
0100
0010
0001
0000
,  // measure 34
1001
0000
1000
0000
1000
0010
1000
0000
1001
0000
0001
0000
0001
0010
0001
0000
,  // measure 35
1001
0000
1000
0000
0010
0100
0010
0100
0001
0000
0010
0100
1000
0000
0010
0000
,  // measure 36
1010
0000
1000
0000
0010
0100
0001
0000
0011
0000
0001
0000
0010
0100
1000
0000
,  // measure 37
1010
0000
1000
0000
0010
0100
0010
0100
0001
0000
0010
0100
0010
0100
1000
0000
,  // measure 38
1001
1010
1001
0011
1001
1100
1001
0101
,  // measure 39
2002
3003
0000
0000
0000
0000
0000
0000
MMMM
0000
0000
0000
0000
0000
0000
0000
2001
0000
0000
0000
0000
0000
0000
0000
0001
0000
0000
0000
0000
0000
0000
0000
0010
0000
0000
0000
0000
0000
0000
0000
0010
0000
0000
0000
0000
0000
0000
0000
0001
0000
0000
0000
0000
0000
0000
0000
3100
0000
0000
0000
0000
0000
0000
0000
,  // measure 40
1100
0000
0100
1000
0002
0000
1000
0000
0010
0000
0010
0000
1000
0000
0103
0000
,  // measure 41
0101
0000
0100
0001
2000
0000
0100
0000
0001
0000
0001
0000
0010
0000
3001
0000
,  // measure 42
1001
0000
0001
0100
0010
0000
0100
0000
1000
0000
0100
0000
0101
0000
1010
0000
,  // measure 43
1001
MMMM
1002
1000
0100
0100
1000
0013
,  // measure 44
0011
0000
0010
0100
2000
0000
0001
0000
0100
0000
0100
0000
0001
0000
3010
0000
,  // measure 45
1010
0000
0010
0100
0002
0000
0100
0000
1000
0000
1000
0000
0010
0000
1003
0000
,  // measure 46
1001
0000
0010
0000
1001
0000
0001
0100
0010
1000
0001
0000
0011
0000
MMMM
0000
,  // measure 47
1100
MMMM
0201
0010
1000
1000
0010
0301
,  // measure 48
0101
0000
0001
1000
0200
0000
0010
0000
0001
0000
0001
0000
0010
0000
1300
0000
,  // measure 49
1100
0000
1000
0001
0200
0000
0010
0000
1000
0000
1000
0000
0010
0000
0301
0000
,  // measure 50
1001
0000
1000
0100
0010
0000
0100
0000
0001
0000
0100
0000
1100
0000
0011
0000
,  // measure 51
1001
MMMM
1020
0100
0001
0001
0100
1030
,  // measure 52
1010
0000
1000
0001
0020
0000
0100
0000
1000
0000
1000
0000
0100
0000
0031
0000
,  // measure 53
0011
0000
0001
1000
0020
0000
0100
0000
0001
0000
0001
0000
0100
0000
1030
0000
,  // measure 54
1001
0000
0010
0000
1001
0000
1000
0100
0001
0100
1000
0000
1001
0000
MMMM
0000
,  // measure 55
0110
MMMM
1000
0001
1000
0001
1000
0001
,  // measure 56
0010
0001
1000
0001
1000
0001
1000
0001
,  // measure 57
0010
0001
1000
0001
1000
0001
1000
0001
,  // measure 58
0010
0001
0101
1010
0000
1010
0000
0000
;
