#TITLE:Joyride;
#SUBTITLE:;
#ARTIST:Chuck E. Meyers;
#TITLETRANSLIT:;
#SUBTITLETRANSLIT:;
#ARTISTTRANSLIT:;
#GENRE:Surf Rock;
#CREDIT:;
#BANNER:Joyride.png;
#BACKGROUND:Joyride-bg.png;
#LYRICSPATH:;
#CDTITLE:cdtitle.png;
#MUSIC:Joyride.ogg;
#OFFSET:-0.047562;
#SAMPLESTART:6.910625;
#SAMPLELENGTH:13.722128;
#SELECTABLE:YES;
#BPMS:0.000000=174.906998
;
#STOPS:
;
#BGCHANGES:;
#KEYSOUNDS:;
#ATTACKS:;

//---------------dance-single - ----------------
#NOTES:
     dance-single:
     :
     Challenge:
     13:
     0.571689,0.724800,0.208187,0.624561,0.084817,519.000000,492.000000,27.000000,81.000000,61.000000,0.000000,0.571689,0.724800,0.208187,0.624561,0.084817,519.000000,492.000000,27.000000,81.000000,61.000000,0.000000:
0000
0000
0000
0000
,
0000
0000
0000
0000
,
0000
0000
0000
0000
,
0000
0000
0000
0000
,
0000
0000
0000
0000
,
1001
0000
0001
0100
0010
2000
0000
3001
,
0100
0000
0100
1000
0000
1000
0100
0000
,
0001
0000
1000
0100
0010
0002
0000
1003
,
0100
0000
0100
0001
0000
0001
0100
0000
,
1000
0000
0010
1000
0001
0200
0000
1300
,
0100
0000
0100
0001
0000
0001
0010
0000
,
0100
0000
0010
0001
1000
0200
0000
0310
,
0002
0000
0100
0203
0000
0000
0310
1000
,
2002
0000
0000
0000
3MM3
M00M
0000
0000
,
4000
0004
0000
0000
0000
0000
0000
0000
0000
0000
0000
0000
3003
0000
0000
0000
,
2000
0000
3010
0100
0001
0020
0000
1030
,
0010
0000
0010
MM12
00M0
1000
1003
0000
,
0001
0000
0010
0100
1000
0020
0000
0031
,
0010
0000
0010
1000
0000
1000
2MM1
000M
,
3010
0000
0100
0001
0010
0200
0000
0301
,
0100
0000
0100
21MM
0M00
0001
3001
0000
,
0100
0000
0010
1000
0100
0002
0000
0103
,
0020
0000
0031
0100
0000
0100
0001
1000
,
0001
0000
1000
0010
0100
2000
0000
3100
,
0010
0000
0010
1000
0000
1000
0001
0000
,
1000
0000
0001
0010
0100
0002
0000
0103
,
0010
0000
0010
0001
0000
0001
1000
0000
,
0001
0000
0010
0000
1000
0010
0100
0010
,
0001
0000
0100
0000
1000
0100
0010
0100
,
0001
0000
1000
0010
0100
2000
0000
3100
,
0001
0000
0001
0010
0000
0010
0100
0000
,
1000
0000
0001
0010
0100
0002
0000
0103
,
1000
0000
1000
0010
0000
0010
0100
0000
,
0002
0010
2003
0010
,
3001
0100
0010
1000
0100
0000
1001
MMMM
,
2000
0100
3002
0100
,
1003
0100
0010
0001
0100
0000
1001
MMMM
,
2000
0000
3001
1000
0200
0000
0302
0000
,
0103
2000
0001
3001
0100
0000
0010
1000
,
0200
0000
0310
0001
0200
0000
0301
0100
,
2000
0000
3100
0010
1000
0000
0100
0010
,
0002
0000
1003
0001
0200
0000
2300
0000
,
3100
0002
1000
1003
0100
0000
0110
MMMM
,
2001
0000
3001
0100
2000
0000
3100
0001
,
1000
0100
1000
0100
0001
0100
0001
0100
,
1000
0010
1000
0010
0001
0010
0001
0010
,
1000
0100
0001
0100
1000
0010
0100
0001
,
1001
0000
0001
0000
0010
0100
0000
1000
,
0000
0100
0000
0010
0000
0001
0100
0000
,
0010
0000
1000
0000
0010
0100
0100
0001
,
0000
1000
0000
0001
0000
0010
0100
0100
,
1000
0000
0001
0000
0100
0010
0000
1000
,
0100
0000
0000
0010
0000
0000
0000
0000
0000
0001
0000
0000
0000
0000
0000
0001
0000
0000
1000
0000
0001
0000
1000
0000
,
0010
0000
0210
0000
0010
0010
0000
1000
,
0000
0010
0000
0301
0000
0001
0100
0010
,
2020
0000
0000
3030
,
0000
0000
0004
4000
0000
0000
0000
0000
0000
0000
0000
0000
3003
0000
0000
0000
,
0012
0000
1000
2003
0000
0001
3002
0000
,
0203
0000
0320
0230
0000
1000
1000
0000
,
1300
0000
0000
0000
0000
0000
0200
0000
0000
0000
0000
0000
0000
0000
0000
0000
0000
0000
0002
0000
0300
0000
0000
0000
0000
0000
0000
0020
0000
0000
0003
0000
0000
0000
0000
0000
0230
0000
0000
0000
0000
0000
0000
0000
0000
0000
0000
0000
,
2300
0000
0000
0000
0001
0000
3001
0000
0000
0000
1000
0001
1000
0001
1000
0001
,
1000
0000
0001
0010
0100
2000
0000
3001
,
0010
0000
0010
1000
0000
1000
0100
0000
,
0001
0000
1000
0100
0010
0002
0000
1003
,
0100
0000
0100
0001
0000
0001
0010
0000
,
1000
0000
0001
0100
0010
2000
0000
3100
,
0001
0000
0001
0010
0000
0010
1000
0000
,
0001
0000
1000
0010
0100
0002
0000
1003
,
0100
0000
0000
0000
1001
0000
1001
0000
0000
MMMM
0000
0000
1001
0000
0000
0000
,
0001
0000
0010
0001
0100
2000
0000
3001
,
0010
0000
0010
2M1M
0MM0
0001
3001
0000
,
1000
0000
0010
1000
0100
0002
0000
1003
,
0010
0000
0010
0001
0000
0001
1MM2
M0M0
,
0103
0000
1000
0100
0001
0020
0000
1030
,
0010
0000
0010
MM12
0MM0
1000
1003
0000
,
0001
0000
0010
0001
0100
2000
0000
3100
,
0001
0000
0001
0010
0000
0001
0010
0100
,
1000
0001
1000
0001
1000
0001
0100
0010
0100
0010
0100
0010
,
1000
0001
0100
1000
0000
1000
0100
0001
,
0002
0000
1000
1000
0000
1000
1003
0000
,
1000
0000
0001
0010
0001
0000
2000
0000
0010
0000
3010
0000
0100
0000
0001
0000
,
1001
0000
1000
2001
0000
0000
0001
3001
,
0000
1000
0100
0001
0000
0001
0100
1000
,
2000
0000
0001
0001
0000
0001
3001
0000
,
1000
0010
1000
0010
1000
0000
0000
0000
MM22
0000
0000
0000
0033
0000
0000
0000
,
21MM
0000
0001
0001
0000
0000
3001
0000
,
1002
0000
1000
1000
0000
0000
1003
0000
,
2M10
0000
3001
02M1
0000
0300
M21M
0000
,
0301
0000
0010
0000
0100
0000
0010
0000
0002
0000
0000
0000
1003
0001
1000
0001
,
1000
0000
1000
0100
0000
0010
0001
1000
,
0001
0100
0001
MM20
0030
0001
0010
2M0M
,
3000
0010
1000
02MM
0300
1000
0100
M0M2
,
0003
0100
0001
MM20
0030
0001
0010
1000
,
02MM
0000
0000
0000
,
0300
0000
0000
0000
;

//---------------dance-single - ----------------
#NOTES:
     dance-single:
     :
     Medium:
     7:
     0.354689,0.398640,0.239030,0.655404,0.000000,322.000000,291.000000,31.000000,85.000000,0.000000,0.000000,0.354689,0.398640,0.239030,0.655404,0.000000,322.000000,291.000000,31.000000,85.000000,0.000000,0.000000:
// measure 0
0000
0000
0000
0000
,  // measure 1
0000
0000
0000
0000
,  // measure 2
0000
0000
0000
0000
,  // measure 3
0000
0000
0000
0000
,  // measure 4
0000
0000
0000
0000
,  // measure 5
1002
0000
0000
1003
0100
0020
0000
0000
,  // measure 6
0031
0000
0000
1000
0000
0000
0001
0000
,  // measure 7
2000
0000
0000
3010
0100
0002
0000
0000
,  // measure 8
1003
0000
0000
0001
0000
0000
1000
0000
,  // measure 9
0200
0000
0000
0310
0100
2000
0000
0000
,  // measure 10
3001
0000
0000
1000
0000
0000
0001
0000
,  // measure 11
0200
0000
0000
0310
0100
0002
0000
0000
,  // measure 12
2003
0000
0000
3200
0000
0000
0310
0000
,  // measure 13
0022
0000
0033
0000
,  // measure 14
0001
0100
0010
1000
,  // measure 15
0001
0000
0010
0000
0100
2000
0000
0000
,  // measure 16
3010
0000
0000
0201
0000
0000
0310
0000
,  // measure 17
2000
0000
0000
3100
0010
0002
0000
0000
,  // measure 18
0103
0000
0000
0010
0000
0000
2010
0000
,  // measure 19
3002
0000
0000
0103
0010
2000
0000
0000
,  // measure 20
3100
0000
0000
0021
0000
0000
0130
0000
,  // measure 21
2000
0000
0000
3010
0100
0002
0000
0000
,  // measure 22
1003
0000
0000
0100
0000
0000
0100
0000
,  // measure 23
1000
0000
1000
0000
0010
0200
0000
0000
,  // measure 24
0301
0000
0000
1000
0000
0000
1000
0000
,  // measure 25
0001
0000
0001
0000
0010
0200
0000
0000
,  // measure 26
1300
0000
0000
0001
0000
0000
0001
0000
,  // measure 27
1000
0010
0100
0000
,  // measure 28
0001
0010
0100
0000
,  // measure 29
1000
0000
0001
0000
0100
0020
0000
0000
,  // measure 30
1030
0000
0000
0100
0000
0000
1000
0000
,  // measure 31
0001
0000
1000
0000
0010
0200
0000
0000
,  // measure 32
0301
0000
0000
0010
0000
0000
0001
0000
,  // measure 33
2000
0000
3002
0000
,  // measure 34
0013
0002
0000
0000
1003
0000
1001
0000
,  // measure 35
0002
0000
1003
1000
,  // measure 36
0010
2000
0000
0000
3001
0000
1001
0000
,  // measure 37
2000
0000
3100
0001
,  // measure 38
0100
2000
0000
0000
3010
0000
1000
0000
,  // measure 39
0002
0000
0023
0000
,  // measure 40
0230
0000
1300
1000
,  // measure 41
0002
0000
0103
1000
,  // measure 42
0100
0002
0000
0000
0013
0000
1001
0000
,  // measure 43
2000
0000
3020
0000
,  // measure 44
0130
0001
0010
0100
,  // measure 45
1000
0010
0100
0001
,  // measure 46
0010
1000
0100
0001
,  // measure 47
0010
0000
0100
0000
0010
0000
0000
0100
,  // measure 48
0000
0010
0000
0100
0000
0000
1000
0000
,  // measure 49
0010
0000
0100
0000
0010
0000
0000
0100
,  // measure 50
0000
0010
0000
0100
0000
0000
0001
0000
,  // measure 51
1000
0000
0100
0000
0010
0000
0000
0001
,  // measure 52
0000
0100
0000
0010
0000
0000
0110
0000
,  // measure 53
2002
0000
0000
0000
,  // measure 54
0000
3003
0000
1001
,  // measure 55
0220
0000
0330
0000
,  // measure 56
0000
2002
0000
0000
0000
0000
3003
0000
,  // measure 57
2010
0000
0000
3002
0000
0000
2003
0000
,  // measure 58
3200
0000
0000
0302
0000
0000
0203
0000
,  // measure 59
2300
0000
0000
3020
0000
0000
0230
0000
,  // measure 60
0301
0010
0100
1000
,  // measure 61
0001
0000
0100
0000
0001
0020
0000
0000
,  // measure 62
0130
0000
0000
1000
0000
0000
0001
0000
,  // measure 63
2000
0000
0000
3100
1000
0020
0000
0000
,  // measure 64
0130
0000
0000
0001
0000
0000
1000
0000
,  // measure 65
0002
0000
0000
0013
0001
0200
0000
0000
,  // measure 66
0310
0000
0000
1000
0000
0000
0001
0000
,  // measure 67
2000
0000
0000
3010
1000
0200
0000
0000
,  // measure 68
0310
0000
0001
1000
0000
0000
1001
0000
,  // measure 69
0002
0000
0000
1003
0010
0200
0000
0000
,  // measure 70
0301
0000
0000
2010
0000
0000
3001
0000
,  // measure 71
2000
0000
0000
3001
0010
0200
0000
0000
,  // measure 72
1300
0000
0000
0100
0000
0000
1002
0000
,  // measure 73
2003
0000
0000
3010
0100
0002
0000
0000
,  // measure 74
0013
0000
0000
2100
0000
0000
3001
0000
,  // measure 75
0200
0000
0000
0310
1000
0200
0000
0000
,  // measure 76
0310
0000
0000
0100
0000
0000
0010
0000
,  // measure 77
1001
0000
0000
2002
0000
0000
3003
0000
,  // measure 78
0000
1000
0010
1000
0000
0001
0010
0001
,  // measure 79
0010
0000
0000
0010
0000
0000
0010
0000
,  // measure 80
0001
0000
0000
0200
0000
0000
0310
0000
,  // measure 81
1001
0000
0000
2002
0000
0000
3003
0000
,  // measure 82
0000
0001
0010
0001
0000
1000
0010
1000
,  // measure 83
0010
0000
0000
0010
0000
0000
0010
0000
,  // measure 84
1000
0100
0022
0033
,  // measure 85
2100
0000
0000
0001
0000
0000
3001
0000
,  // measure 86
0102
0000
0000
1000
0000
0000
1003
0000
,  // measure 87
1001
0000
0000
1100
0000
0000
0012
0000
,  // measure 88
0000
1000
0000
0000
1003
0000
0001
0000
,  // measure 89
1001
0000
0000
0100
0000
0000
0100
0000
,  // measure 90
1001
0000
0000
1000
0000
0010
0000
0010
,  // measure 91
0000
0001
0000
0001
0000
0100
0000
0100
,  // measure 92
0000
1000
0000
1000
0000
0010
0000
2002
,  // measure 93
0000
0000
0000
0000
,  // measure 94
3003
0000
0000
0000
;

//---------------dance-single - ----------------
#NOTES:
     dance-single:
     :
     Hard:
     11:
     0.505597,0.616080,0.177345,0.670825,0.026987,459.000000,436.000000,23.000000,87.000000,32.000000,0.000000,0.505597,0.616080,0.177345,0.670825,0.026987,459.000000,436.000000,23.000000,87.000000,32.000000,0.000000:
0000
0000
0000
0000
,
0000
0000
0000
0000
,
0000
0000
0000
0000
,
0000
0000
0000
0000
,
0000
0000
0000
0000
,
1002
0000
1003
0100
0010
0002
0000
0013
,
0100
0000
0100
1000
0000
1000
0001
0000
,
2000
0000
3001
0100
0010
2000
0000
3010
,
0100
0000
0100
0001
0000
0001
1000
0000
,
0002
0000
0013
0100
0010
0002
0000
1003
,
0010
0000
0010
1000
0000
1000
0001
0000
,
2000
0000
3010
0100
0010
2000
0000
3100
,
0020
0000
0000
0032
0000
0000
0103
0000
,
2002
0000
0000
0000
3MM3
M00M
0000
0000
,
4000
0004
0000
0000
0000
0000
0000
0000
0000
0000
0000
0000
3003
0000
0000
0000
,
2000
0000
3001
0100
0001
0020
0000
0130
,
1000
0000
1000
0002
MMM0
0000
1003
0000
,
0002
0000
1003
0100
1000
0020
0000
0130
,
0001
0000
0001
0010
0000
0000
M11M
0000
,
2000
0000
3010
1000
0100
0020
0000
0031
,
0100
0000
0100
0020
MM0M
0000
1030
0000
,
0002
0000
0103
0001
0010
0200
0000
1300
,
0001
0000
0001
1000
0000
0000
0001
1000
,
0200
0000
1300
0100
0010
0002
0000
0100
,
0103
0000
0001
0001
0000
1000
0001
0000
,
0200
0000
0301
0100
0010
2000
0000
3100
,
0010
0000
0100
0010
0000
0001
1000
0000
,
0020
0000
0230
0000
0301
1000
0001
1000
,
0200
0000
0320
0000
0031
1000
0001
1000
,
0020
0000
1030
0001
0010
0200
0000
0310
,
0001
0000
0001
1000
0000
1000
0010
0000
,
0200
0000
0301
1000
0100
0020
0000
0130
,
1000
0000
1000
0001
0000
0001
0100
0000
,
0002
0000
0013
0100
0020
0000
0031
1000
,
0010
0200
0010
0000
0310
0000
1MM1
0000
,
2000
0000
3010
0100
0020
0000
1030
0001
,
0010
0200
0010
0000
0310
0000
1MM1
0000
,
1000
0000
0001
0100
0001
0000
1000
0100
,
1000
0000
0001
0100
0001
0000
1000
0100
,
0010
0000
0001
0100
0010
0000
1000
0100
,
0010
0000
0001
0100
0010
0000
1000
0001
,
1000
0000
0001
0100
0001
0000
1000
0100
,
1000
0000
0001
0100
0001
0000
M11M
0000
,
1001
0000
0001
0010
0100
0000
1000
0010
,
0100
0001
0100
0001
1000
0001
1000
0001
,
0010
0001
0010
0001
0010
0100
0010
0100
,
1000
0100
0010
0001
1000
0010
0100
0001
,
1000
0000
0010
0000
0100
0010
0000
1000
,
0000
0010
0000
0100
0000
0010
1000
0000
,
0001
0000
0010
0000
0100
0010
0000
0001
,
0000
0010
0000
0100
0000
0010
0001
0000
,
1000
0000
0010
0000
1000
0001
0000
0010
,
0000
0001
0000
1000
0000
0001
0100
0010
,
1000
2002
0000
0000
,
0000
0000
0000
3003
0000
1000
0100
0010
,
0002
0000
0000
0003
,
0000
0000
0004
4000
0000
0000
0000
0000
0000
0000
0000
0000
3003
0000
0000
0000
,
0012
0000
0000
2003
0000
0000
3002
0000
,
0203
0000
0320
2030
0000
0000
0001
0000
,
3001
0000
2000
0000
0000
0000
3200
0000
0000
0320
0000
0000
0032
0000
0000
0000
,
2000
0000
0000
3003
0000
0001
1000
0001
,
2000
0000
3010
1000
0001
0020
0000
0130
,
1000
0000
0001
1000
0000
0010
1000
0000
,
0002
0000
0013
0001
1000
0020
0000
0130
,
0001
0000
1000
0001
0000
0010
0001
0000
,
0200
0000
0310
1000
0100
0020
0000
0031
,
0100
0000
0001
1000
0000
0001
0010
0000
,
0200
0000
0310
0100
1000
0020
0000
0130
,
0002
0000
1000
1003
0000
0000
1001
0000
,
0002
0000
1003
0010
0100
0020
0000
0031
,
0010
0000
0010
2000
0MMM
0000
3001
0000
,
2000
0000
3001
0010
0100
0020
0000
1030
,
0010
0000
0010
0001
0000
0000
MM11
0000
,
0020
0000
0031
1000
0001
0200
0000
1300
,
0100
0000
0100
0002
MMM0
0000
1003
0000
,
0200
0000
0310
0001
0100
0020
0000
1030
,
0100
0000
0010
0100
0000
0010
0100
0000
,
1001
0000
0000
M00M
0000
0000
2002
0000
0000
0000
0000
0000
3003
0000
0000
0000
,
0000
0000
0001
0000
0100
0000
0010
0000
0000
00M0
0001
0000
0100
0000
0010
0000
,
1000
0000
0000
1010
0000
0000
1001
0000
,
1000
0100
0010
0002
0000
0000
1003
0000
,
1001
0000
0000
M00M
0000
0000
2002
0000
0000
0000
0000
0000
3003
0000
0000
0000
,
0000
0000
1000
0000
0100
0000
0010
0000
0000
00M0
1000
0000
0100
0000
0010
0000
,
0001
0000
0000
0011
0000
0000
1001
0000
,
0001
0100
0001
0000
2020
0000
3030
0000
,
2001
0000
0100
0100
0000
0000
3100
0000
,
1002
0000
0100
0100
0000
0000
0103
0000
,
0201
0000
0000
0010
0000
0000
2300
0000
,
0000
3200
0000
0000
0302
0000
0013
0100
,
1000
0000
0001
1000
0000
0001
0100
0000
,
0001
1000
0010
1000
0000
0010
0001
0010
,
0000
0001
0100
0001
0000
0100
1000
0100
,
0000
1000
0010
1000
0000
0001
0010
0001
,
2000
0000
0000
0000
,
3000
0000
0000
0000
;

//---------------dance-single - ----------------
#NOTES:
     dance-single:
     :
     Easy:
     4:
     0.251146,0.362400,0.254451,0.524323,0.000000,228.000000,195.000000,33.000000,68.000000,0.000000,0.000000,0.251146,0.362400,0.254451,0.524323,0.000000,228.000000,195.000000,33.000000,68.000000,0.000000,0.000000:
// measure 0
0000
0000
0000
0000
,  // measure 1
0000
0000
0000
0000
,  // measure 2
0000
0000
0000
0000
,  // measure 3
0000
0000
0000
0000
,  // measure 4
0000
0000
0000
0000
,  // measure 5
1000
0100
2000
0000
,  // measure 6
0001
0000
0001
0000
,  // measure 7
3001
0100
0002
0000
,  // measure 8
1000
0000
1000
0000
,  // measure 9
1003
0010
2000
0000
,  // measure 10
0001
0000
0001
0000
,  // measure 11
3001
0010
0002
0000
,  // measure 12
0203
0000
0310
0000
,  // measure 13
2002
0000
3003
0000
,  // measure 14
0220
0000
0330
0000
,  // measure 15
1000
0100
0020
0000
,  // measure 16
0130
0000
1001
0000
,  // measure 17
0001
0100
0020
0000
,  // measure 18
0130
0000
0100
1001
,  // measure 19
1000
0010
0200
0000
,  // measure 20
0310
0000
1001
0000
,  // measure 21
0001
0010
0200
0000
,  // measure 22
0320
0000
0100
0000
,  // measure 23
0031
0100
0020
0000
,  // measure 24
1000
0000
1000
0000
,  // measure 25
1030
0100
0020
0000
,  // measure 26
0001
0000
0001
0000
,  // measure 27
0031
1000
0010
0000
,  // measure 28
1000
0001
0010
0000
,  // measure 29
0100
1000
0020
0000
,  // measure 30
1000
0000
0100
0000
,  // measure 31
1030
0100
0020
0000
,  // measure 32
0001
0000
0100
0000
,  // measure 33
0032
0000
0023
0000
,  // measure 34
0032
0000
0103
1001
,  // measure 35
2000
0000
3020
0000
,  // measure 36
2030
0000
3100
1001
,  // measure 37
0002
0000
0103
0010
,  // measure 38
2000
0000
0001
0000
,  // measure 39
3200
0000
0320
0000
,  // measure 40
0032
0000
1000
0000
,  // measure 41
2003
0000
3010
0100
,  // measure 42
0002
0000
1003
1001
,  // measure 43
0002
0000
0023
0000
,  // measure 44
0230
0000
1000
0000
,  // measure 45
0010
0000
0001
0000
,  // measure 46
0010
0000
1300
0000
,  // measure 47
2002
0000
0000
0000
,  // measure 48
3003
0000
0000
0000
,  // measure 49
0220
0000
0000
0000
,  // measure 50
0330
0000
0000
0000
,  // measure 51
2002
0000
0000
0000
,  // measure 52
3003
0000
0000
1100
,  // measure 53
0022
0000
0000
0000
,  // measure 54
0000
0033
0000
0101
,  // measure 55
2020
0000
0000
3030
,  // measure 56
0000
0000
0000
0000
,  // measure 57
1002
0000
0023
0000
,  // measure 58
0130
0010
0002
0000
,  // measure 59
0103
0010
1000
0001
,  // measure 60
0020
0000
0100
0130
,  // measure 61
1000
0100
0020
0000
,  // measure 62
0100
0000
0100
0000
,  // measure 63
0031
0100
0020
0000
,  // measure 64
0100
0000
0100
0000
,  // measure 65
1030
0001
0020
0000
,  // measure 66
0100
0000
0100
0000
,  // measure 67
0031
1000
0020
0000
,  // measure 68
0130
0010
0100
0000
,  // measure 69
0010
1000
0200
0000
,  // measure 70
0310
0000
1001
0000
,  // measure 71
0010
0001
0200
0000
,  // measure 72
0310
0000
0010
1001
,  // measure 73
0001
0100
0020
0000
,  // measure 74
1030
0000
0110
0000
,  // measure 75
1000
0100
0020
0000
,  // measure 76
0032
0000
1003
0000
,  // measure 77
1001
0000
1001
0000
,  // measure 78
0000
1000
0000
1000
,  // measure 79
0001
0000
0001
0000
,  // measure 80
0001
0010
0200
0300
,  // measure 81
1001
0000
1001
0000
,  // measure 82
0000
0001
0000
0001
,  // measure 83
1000
0000
1000
0000
,  // measure 84
0010
0100
0020
0030
,  // measure 85
2002
0000
3003
0000
,  // measure 86
0220
0000
0330
0000
,  // measure 87
2000
0000
3002
0000
,  // measure 88
0023
0000
0030
0000
,  // measure 89
1001
0000
0001
0000
,  // measure 90
0011
0000
1010
0000
,  // measure 91
1100
0000
0101
0000
,  // measure 92
0011
0000
1100
0000
,  // measure 93
2002
0000
0000
0000
,  // measure 94
3003
0000
0000
0000
;

//---------------dance-single - ----------------
#NOTES:
     dance-single:
     :
     Beginner:
     1:
     0.115660,0.181200,0.061685,0.215898,0.000000,105.000000,97.000000,8.000000,28.000000,0.000000,0.000000,0.115660,0.181200,0.061685,0.215898,0.000000,105.000000,97.000000,8.000000,28.000000,0.000000,0.000000:
// measure 0
0000
0000
0000
0000
,  // measure 1
0000
0000
0000
0000
,  // measure 2
0000
0000
0000
0000
,  // measure 3
0000
0000
0000
0000
,  // measure 4
0000
0000
0000
0000
,  // measure 5
1000
0000
2000
0000
,  // measure 6
0000
0000
3000
0000
,  // measure 7
0010
0000
0020
0000
,  // measure 8
0000
0000
0030
0000
,  // measure 9
0100
0000
0200
0000
,  // measure 10
0000
0000
0300
0000
,  // measure 11
0001
0000
0001
0000
,  // measure 12
0002
0000
0003
0000
,  // measure 13
1001
0000
0000
0000
,  // measure 14
0010
0000
0000
0000
,  // measure 15
0001
0000
0002
0000
,  // measure 16
0000
0000
0003
0000
,  // measure 17
0010
0000
0020
0000
,  // measure 18
0000
0000
0030
0000
,  // measure 19
0100
0000
0200
0000
,  // measure 20
0000
0000
0300
0000
,  // measure 21
1000
0000
1000
0000
,  // measure 22
2000
0000
3000
0000
,  // measure 23
0010
0000
0020
0000
,  // measure 24
0000
0000
0030
0000
,  // measure 25
0100
0000
0200
0000
,  // measure 26
0000
0000
0300
0000
,  // measure 27
0001
0000
0000
0000
,  // measure 28
1000
0000
0000
0000
,  // measure 29
0100
0000
0200
0000
,  // measure 30
0000
0000
0300
0000
,  // measure 31
0010
0000
0020
0000
,  // measure 32
0000
0000
0030
0000
,  // measure 33
0001
0000
0001
0000
,  // measure 34
0002
0000
0003
0000
,  // measure 35
1000
0000
1000
0000
,  // measure 36
2000
0000
3000
0000
,  // measure 37
0010
0000
0010
0000
,  // measure 38
0020
0000
0030
0000
,  // measure 39
0100
0000
0100
0000
,  // measure 40
0200
0000
0300
0000
,  // measure 41
0010
0000
0010
0000
,  // measure 42
0020
0000
0030
0000
,  // measure 43
1000
0000
0001
0000
,  // measure 44
0020
0000
0000
0000
,  // measure 45
0000
0000
0000
0000
,  // measure 46
0000
0000
0030
0000
,  // measure 47
1001
0000
0000
0000
,  // measure 48
0000
0000
0000
0000
,  // measure 49
1001
0000
0000
0000
,  // measure 50
0000
0000
0000
0000
,  // measure 51
1001
0000
0000
0000
,  // measure 52
0000
0000
0000
0000
,  // measure 53
0020
0000
0000
0000
,  // measure 54
0000
0030
0000
0000
,  // measure 55
1001
0000
0000
0000
,  // measure 56
0000
0000
0000
0000
,  // measure 57
1000
0000
0000
0000
,  // measure 58
0100
0000
0000
0000
,  // measure 59
0010
0000
0000
0000
,  // measure 60
0001
0000
0000
0000
,  // measure 61
1000
0000
2000
0000
,  // measure 62
0000
0000
3000
0000
,  // measure 63
0010
0000
0020
0000
,  // measure 64
0000
0000
0030
0000
,  // measure 65
0100
0000
0200
0000
,  // measure 66
0000
0000
0300
0000
,  // measure 67
0001
0000
0001
0000
,  // measure 68
0002
0000
0003
0000
,  // measure 69
0010
0000
0020
0000
,  // measure 70
0000
0000
0030
0000
,  // measure 71
0100
0000
0200
0000
,  // measure 72
0000
0000
0300
0000
,  // measure 73
1000
0000
2000
0000
,  // measure 74
0000
0000
3000
0000
,  // measure 75
0001
0000
0001
0000
,  // measure 76
0002
0000
0003
0000
,  // measure 77
1001
0000
0000
0000
,  // measure 78
0100
0000
0000
0000
,  // measure 79
0100
0000
0100
0000
,  // measure 80
0100
0000
0000
0000
,  // measure 81
1001
0000
0000
0000
,  // measure 82
0010
0000
0000
0000
,  // measure 83
0010
0000
0010
0000
,  // measure 84
0010
0000
0000
0000
,  // measure 85
1001
0000
0000
0000
,  // measure 86
0001
0000
0000
0000
,  // measure 87
1000
0000
0000
0000
,  // measure 88
0100
0000
0000
0000
,  // measure 89
0010
0000
0000
0000
,  // measure 90
0010
0000
0010
0000
,  // measure 91
0010
0000
0010
0000
,  // measure 92
0010
0000
0010
0000
,  // measure 93
0020
0000
0000
0000
,  // measure 94
0030
0000
0000
0000
;

//---------------dance-single - [B-SIDE] Horatio's Joyride----------------
#NOTES:
     dance-single:
     [B-SIDE] Horatio's Joyride:
     Edit:
     17:
     1.086098,1.195920,0.246740,0.346979,1.418757,986.000000,952.000000,32.000000,45.000000,0.000000,9.000000,1.086098,1.195920,0.246740,0.346979,1.418757,986.000000,952.000000,32.000000,45.000000,0.000000,9.000000:
0000
0000
0000
0000
,
0000
0000
0000
0000
,
0000
0000
0000
0000
,
0000
0000
0000
0000
,
0000
0000
0000
0000
,
1000
0001
1000
0001
1000
0001
1000
0000
0010
0000
1000
0000
0100
0010
0100
0010
,
0100
0010
0100
0010
0100
0010
0100
0010
0100
0010
0100
0010
0100
0010
0100
0010
,
0001
1000
0001
1000
0001
1000
0001
0000
0010
0000
0001
0000
0100
0010
0100
0010
,
0100
0010
0100
0010
0100
0010
0100
0010
0100
0010
0100
0010
0100
0010
0100
0010
,
1000
0001
1000
0001
1000
0001
0010
0000
0001
0000
0100
0000
0010
1000
0010
1000
,
0010
1000
0010
1000
0010
1000
0010
1000
0010
1000
0010
1000
0010
1000
0010
1000
,
0001
0010
0001
0010
0001
0010
0100
0000
1000
0000
0001
0000
0100
0010
0100
0010
,
2000
0000
0001
0002
0000
0000
3013
0000
,
2012
0000
3003
0000
,
0001
0010
0100
1000
0001
0010
0100
1000
0001
0010
0100
1000
0001
0010
0100
1000
,
0001
0100
0001
0100
0001
0100
0010
0000
0001
0000
0010
0000
1000
0001
1000
0001
,
1000
0001
1000
0001
1000
0001
1000
0001
1000
0001
1000
0001
1000
0001
1000
0001
,
1000
0100
1000
0100
1000
0100
0010
0000
1000
0000
0010
0000
0001
1000
0001
1000
,
0001
1000
0001
1000
0001
1000
0001
1000
0001
1000
0001
1000
0001
1000
0001
1000
,
0001
0100
0001
0100
0001
0100
0010
0000
0100
0000
1000
0000
0100
0001
0100
0001
,
0100
0001
0100
0001
0100
0001
0100
0001
0100
0001
0100
0001
0100
0001
0100
0001
,
1000
0100
1000
0100
1000
0100
0010
0000
0100
0000
0001
0000
0100
0010
0100
0010
,
0001
1000
0001
1000
0001
1000
0001
1000
0001
1000
0001
1000
0001
1000
0001
1000
,
0020
0000
0000
0000
0031
0000
0010
0000
1000
0000
0100
0000
0010
0001
0010
0001
,
0010
0001
0010
0001
0010
0001
0010
0001
0010
0001
0010
0001
0010
0001
0010
0001
,
0200
0000
0000
0000
1300
0000
0100
0000
0001
0000
0010
0000
0100
1000
0100
1000
,
0100
1000
0100
1000
0100
1000
0100
1000
0100
1000
0100
1000
0100
1000
0100
1000
,
0001
0100
0001
0100
0020
0000
0000
0000
1030
0000
0001
0000
0001
0000
0001
0000
,
1000
0100
1000
0100
0020
0000
0000
0000
0031
0000
1000
0000
1000
0000
1000
0000
,
0002
0000
0000
0000
0103
0000
1000
0000
0001
0000
0010
0000
0100
0001
0100
0001
,
0100
0001
0100
0001
0100
0001
0100
0001
0100
0001
0100
0001
0100
0001
0100
0001
,
2000
0000
0000
0000
3100
0000
0001
0000
1000
0000
0010
0000
0100
1000
0100
1000
,
0100
1000
0100
1000
0100
1000
0100
1000
0100
1000
0100
1000
0100
1000
0100
1000
,
0001
1000
0001
1000
0001
1000
0001
1000
0010
1000
0010
1000
0010
1000
0010
1000
,
0001
1000
0100
1000
0100
1000
0100
1000
0100
1000
0100
1000
0020
0000
0000
0000
,
0130
0001
0100
0001
0100
0001
0100
0001
1000
0001
1000
0001
0010
0001
0010
0001
,
1000
0001
0100
0001
0100
0001
0100
0001
0100
0001
0100
0001
0020
0000
0000
0000
,
0032
0000
0000
0000
1003
0000
0001
0000
1000
0010
1000
0000
0200
0000
0000
0000
,
0310
0000
0001
0000
1000
0010
1000
0010
1000
0010
1000
0010
1000
0010
1000
0010
,
0100
0010
0100
0010
0100
0010
0100
0010
0100
0001
0100
0001
0100
0001
0100
0001
,
1000
0001
1000
0001
1000
0001
1000
0001
1000
0001
1000
0001
1000
0001
1000
0001
,
2000
0000
0000
0000
3001
0000
1000
0000
0001
0010
0001
0000
0200
0000
0000
0000
,
0310
0000
1000
0000
0001
0010
0001
0010
0001
0010
0001
0010
0001
0010
0001
0010
,
0100
1000
0100
1000
0100
1000
0100
1000
0001
1000
0001
1000
0001
1000
0001
1000
,
0001
0100
0001
0100
0010
0100
0010
0100
0010
1000
0010
1000
0001
1000
0001
1000
,
0100
1000
0100
1000
0100
0010
0100
0010
0001
0010
0001
0010
0001
1000
0001
1000
,
0001
0100
0010
1000
0001
0010
0100
1000
0001
0100
0010
1000
0001
0010
0100
1000
,
0002
0000
0010
0000
0100
0010
0000
1000
,
0000
0010
0000
0100
0000
0010
1003
0000
,
2001
0000
0010
0000
0100
0010
0000
0001
,
0000
0010
0000
0100
0000
0010
3001
0000
,
1002
0000
0010
0000
0100
0010
0000
1000
,
0000
0000
0000
0010
0000
0000
0000
0000
0000
0103
0000
0000
0000
0000
0000
0001
0000
0000
0010
0000
0001
0000
1000
0000
,
0010
0000
0210
0000
0010
0010
0000
1000
,
0000
0010
0000
0301
0000
1000
0100
0010
,
2002
0000
0000
3003
,
0000
0000
0001
1000
0001
1000
0001
1000
0001
0010
0100
1000
0001
0010
0100
1000
,
0002
0000
0000
0203
0000
0000
0320
0000
,
2030
0000
3002
2003
0000
0000
0100
0000
,
3100
0000
0020
0000
0000
0000
0032
0000
0000
0200
0003
0000
0320
0000
0000
0000
,
1030
0100
0010
0001
1000
0100
0010
0001
0100
0010
1000
0001
1000
0001
1000
0001
,
1000
0100
1000
0100
1000
0100
0010
0000
0001
0000
1000
0000
0010
0100
0010
0100
,
0010
0100
0010
0100
0010
0100
0010
0100
0010
0100
0010
0100
0010
0100
0010
0100
,
0001
0100
0001
0100
0001
0100
0010
0000
1000
0000
0001
0000
0010
0100
0010
0100
,
0010
0100
0010
0100
0010
0100
0010
0100
0010
0100
0010
0100
0010
0100
0010
0100
,
1000
0001
1000
0001
1000
0001
0010
0000
0001
0000
0100
0000
0010
1000
0010
1000
,
0010
1000
0010
1000
0010
1000
0010
1000
0010
1000
0010
1000
0010
1000
0010
1000
,
0001
1000
0001
1000
0001
1000
0010
0000
1000
0000
0100
0000
0010
0001
0010
0002
,
2000
0000
0010
0010
0000
3003
1011
0000
,
0001
0100
0001
0100
0001
0100
0010
0000
0001
0000
1000
0000
0100
0001
0100
0001
,
0100
0001
0100
0001
0100
0001
0100
0001
0100
0001
0100
0001
0100
0001
0100
0001
,
1000
0100
1000
0100
1000
0100
0010
0000
1000
0000
0001
0000
0100
1000
0100
1000
,
0100
1000
0100
1000
0100
1000
0100
1000
0100
1000
0100
1000
0100
1000
0100
1000
,
0010
0100
0010
0100
0010
0100
1000
0000
0001
0000
0010
0000
0100
0010
0100
0010
,
0100
0010
0100
0010
0100
0010
0100
0010
0100
0010
0100
0010
0100
0010
0100
0010
,
1000
0001
1000
0001
1000
0001
0010
0000
0100
0000
1000
0000
0001
0100
0001
0100
,
0010
1000
0010
1000
0010
1000
0010
1000
0010
1000
0010
1000
0010
1000
0010
1000
,
0001
0010
0100
1000
0100
0010
0001
0010
0100
1000
0100
0010
,
0001
0100
0010
1000
0000
1000
0010
1000
,
1001
0000
0001
1001
0000
1000
1001
1000
,
0001
0000
0100
0010
1000
0000
2002
0000
0000
0000
0000
0000
3003
0000
0000
0000
,
0110
0000
0000
0110
0000
0000
0001
1000
,
0000
0001
0010
0100
0000
0100
1000
0001
,
1001
0000
1000
1001
0000
0001
1001
0001
,
1000
0010
0100
0001
1000
0000
0100
0000
0022
0000
0000
0000
0033
0000
0000
0000
,
2100
0000
0001
0001
0000
0000
3001
0000
,
0102
0000
1000
1000
0000
0000
1003
0000
,
2200
0000
0000
0001
0000
0000
0010
0000
,
0000
0000
0001
0000
0000
0000
0000
0000
3301
0000
0000
0000
1000
0100
0010
0001
,
1000
0000
0000
0000
0001
0000
0200
0000
0000
0000
0310
1000
0001
1000
0001
1000
,
0100
1000
1010
1001
0000
0001
0011
1001
,
0000
1000
1100
1001
0000
0001
0101
1001
,
0000
1000
1100
0011
0000
0001
0101
1010
,
2002
0000
0000
0000
,
3003
0000
0000
0000
;
