#VERSION:0.83;
#TITLE:Imprinting;
#SUBTITLE:;
#ARTIST:削除;
#TITLETRANSLIT:;
#SUBTITLETRANSLIT:;
#ARTISTTRANSLIT:Sakuzyo;
#GENRE:Gothic Baroque;
#ORIGIN:;
#CREDIT:;
#BANNER:Imprinting.png;
#BACKGROUND:Imprinting-bg.png;
#PREVIEWVID:;
#JACKET:Imprinting-jacket.png;
#CDIMAGE:;
#DISCIMAGE:;
#LYRICSPATH:;
#CDTITLE:cdtitle.png;
#MUSIC:Imprinting.ogg;
#OFFSET:1.320091;
#SAMPLESTART:2.797194;
#SAMPLELENGTH:10.971427;
#SELECTABLE:YES;
#DISPLAYBPM:88.000000:175.000000;
#BPMS:0.000=175.000,
40.000=87.500,
42.000=175.000,
70.000=87.500,
72.000=175.000,
100.000=87.500,
102.000=175.000,
130.000=87.500,
132.000=175.000,
164.000=87.500,
168.000=175.000,
220.000=87.500,
222.000=175.000,
252.000=350.000,
254.000=175.000,
286.000=87.500,
288.000=175.000,
316.000=87.500,
318.000=175.000;
#STOPS:252.000=0.086,
252.500=0.086,
253.000=0.086,
253.500=0.086;
#DELAYS:;
#WARPS:;
#TIMESIGNATURES:0.000=4=4;
#TICKCOUNTS:0.000=4;
#COMBOS:0.000=1;
#SPEEDS:0.000=1.000=0.000=0;
#SCROLLS:0.000=1.000;
#FAKES:;
#LABELS:0.000=Song Start;
#BGCHANGES:3.688=Imprinting.avi=1.000=1=0=1===CrossFade==,
99999=-nosongbg-=1.000=0=0=0 // don't automatically add -songbackground-
;
#KEYSOUNDS:;
#ATTACKS:
;

//---------------dance-single - ----------------
#NOTEDATA:;
#CHARTNAME:;
#STEPSTYPE:dance-single;
#DESCRIPTION:;
#CHARTSTYLE:;
#DIFFICULTY:Challenge;
#METER:16;
#RADARVALUES:0.915138,1.126672,0.111483,0.591716,0.664609,747.000000,734.000000,13.000000,69.000000,147.000000,0.000000,6.000000,0.000000,0.000000,0.915138,1.126672,0.111483,0.591716,0.664609,747.000000,734.000000,13.000000,69.000000,147.000000,0.000000,6.000000,0.000000,0.000000;
#CREDIT:;
#OFFSET:1.320091;
#BPMS:0.000000=175.000000
,40.000000=87.500000
,42.000000=175.000000
,70.000000=87.500000
,72.000000=175.000000
,100.000000=87.500000
,102.000000=175.000000
,130.000000=87.500000
,132.000000=175.000000
,164.000000=87.500000
,168.000000=175.000000
,220.000000=87.500000
,222.000000=175.000000
,252.000000=350.000000
,254.000000=175.000000
,286.000000=87.500000
,288.000000=175.000000
,316.000000=87.500000
,318.000000=175.000000
;
#STOPS:252.000000=0.085717
,252.500000=0.085709
,253.000000=0.085709
,253.500000=0.085709
;
#DELAYS:;
#WARPS:;
#TIMESIGNATURES:0.000000=4=4
;
#TICKCOUNTS:0.000000=4
;
#COMBOS:0.000000=1
;
#SPEEDS:0.000000=1.000000=0.000000=0
;
#SCROLLS:0.000000=1.000000
;
#FAKES:;
#LABELS:0.000000=Song Start
;
#DISPLAYBPM:88.000000:175.000000;
#NOTES:
0000
0000
0000
0000
,
0000
0000
0000
0000
,
0000
0000
0000
0000
,
10MM
0000
0100
0000
0001
0000
1000
0000
0010
0000
0001
0000
M10M
0010
0100
0010
,
1M0M
0000
0010
0000
0001
0000
1000
0000
0100
0000
0001
0000
M01M
0100
0010
0100
,
10MM
0001
0100
1000
0MM1
1000
0100
0001
,
10M0
0100
1000
0100
M010
0001
0010
0001
1M00
0010
1000
0010
M100
0001
0100
0001
,
1MM0
0000
0100
0000
0001
0000
1000
0000
0010
0000
0001
0000
M10M
0010
0100
0010
,
1M0M
0000
0010
0000
0001
0000
1000
0000
0100
0000
0001
0000
M01M
0100
0010
0100
,
10MM
0001
0010
1000
MM10
0001
0100
0010
,
4000
0004
0000
0000
0000
0000
0000
0000
0000
0000
0000
0000
0000
0000
3000
0003
1000
0000
0000
0000
1000
0000
0000
0000
0100
0000
0000
0000
0100
0000
0000
0000
,
0010
0010
0001
0001
0100
0100
1000
1000
,
0100
0100
0001
0001
0010
0010
1000
1000
,
0010
0000
0010
0000
0001
0000
0001
0000
0100
0000
0100
0000
0010
1000
0010
0100
,
0001
0000
0001
0000
0010
0000
0100
0000
10MM
0000
0010
1000
0100
1000
0100
1000
,
0100
0000
1000
0000
0100
1000
0010
0100
M0M1
0000
0010
0001
0100
0001
0100
0001
,
0100
0001
M01M
0000
11MM
0000
MM11
0000
,
11MM
0000
MM11
0000
11MM
MMMM
0000
0000
,
M0M1
0000
0100
0000
1000
0000
0001
0000
0010
0000
1000
0000
M10M
0010
0100
0010
,
MM01
0000
0010
0000
1000
0000
0001
0000
0100
0000
1000
0000
M01M
0100
0010
0100
,
M0M1
1000
0100
0001
1MM0
0001
0100
1000
,
00M1
0100
0001
0100
001M
1000
0010
1000
0M01
0010
0001
0010
010M
1000
0100
1000
,
0MM1
0000
0100
0000
1000
0000
0001
0000
0010
0000
1000
0000
M10M
0010
0100
0010
,
MM01
0000
0010
0000
1000
0000
0001
0000
0100
0000
1000
0000
M01M
0100
0010
0100
,
M0M1
1000
0010
0001
0M1M
1000
0100
0010
,
0004
4000
0000
0000
0000
0000
0000
0000
0000
0000
3003
0000
M00M
0000
0000
0000
1000
0000
0000
0000
0010
0000
0000
0000
0001
0000
0000
0000
0010
0000
0000
0000
,
1000
0000
0100
0000
0001
0000
0100
1000
0100
0000
0010
0000
0001
1000
0001
0000
,
0100
0000
1000
0000
0100
0001
0100
0000
0010
0000
1000
0000
0001
0010
0001
0000
,
1000
0000
0100
0000
0001
0000
0100
0010
0100
0000
1000
0000
0010
0000
0001
0000
,
0010
0000
1000
0000
0001
0000
0100
0000
M0M1
0000
0010
0001
0100
0001
0100
0001
,
0100
0000
0001
0000
0100
0001
0010
0100
10MM
0000
0010
1000
0100
1000
0100
1000
,
0100
1000
M01M
0000
M1M1
0000
1M1M
0000
,
M1M1
0000
0000
0000
0000
0000
0000
0000
1M1M
0000
0000
0000
0000
0000
0000
0000
M1M1
0000
0000
0000
0002
0000
0000
0000
2003
0000
0000
3002
0000
0000
0023
0000
,
0031
0000
0100
0000
1000
0000
0100
0000
0001
0000
0020
0000
MM0M
0030
0010
0000
,
1000
0100
0001
0100
1000
0001
0200
0000
,
0310
0000
1000
0000
0100
0000
1000
0000
0020
0000
MM0M
0030
0010
0000
0001
0000
,
0100
1000
0001
0010
2000
0000
3002
0000
,
1003
0000
0100
0000
0001
0000
0100
0000
1000
0000
0020
0000
MM0M
0030
0010
0000
,
0001
0100
1000
0100
0001
0010
0100
1000
,
0001
0000
0010
0001
0100
0001
0100
0001
0100
0000
00M1
0000
01M0
0000
01M0
0000
,
10M0
0000
0010
1000
0100
1000
0100
1000
0100
0000
10M0
0000
01M0
0000
01M0
0000
,
0002
0003
0000
0000
0200
0300
0000
0002
0203
0300
2000
3000
0200
0300
0002
0003
0020
0030
0000
0000
0200
0300
0000
0000
0020
0030
0000
0000
0002
0003
1000
0000
,
0002
0000
0100
0000
0103
0000
0010
0000
2000
0000
0100
0000
3100
0000
0010
0100
,
2000
0000
0001
0000
3001
0000
0100
0000
0020
0000
0100
0000
0130
0000
0010
1000
,
0002
0000
1000
0000
1003
0000
0100
0000
0020
0000
0100
0030
0020
0000
0032
0000
,
0203
0010
0310
0100
0002
1000
1003
0001
,
2000
0000
0100
0000
3100
0000
0010
0000
0002
0000
0100
0000
0103
0000
0010
0100
,
0002
0000
1000
0000
1003
0000
0100
0000
0020
0000
0100
0000
0130
0000
0010
0001
,
2000
0001
3001
0100
0020
1000
1030
0001
,
0020
0100
0130
0010
0002
1000
1003
0001
,
2000
0000
0010
0000
3010
0000
0100
0000
2000
0000
0100
0000
3100
0000
0010
0100
,
0002
0000
0010
0000
0013
0000
0100
0000
0002
0000
0100
0000
0103
0000
0010
0100
,
2000
0001
3001
0100
0020
1000
1030
0001
,
2000
0100
3100
0001
0200
1000
1300
0001
,
0200
0000
0010
0000
0010
0000
0310
0000
0100
0010
0100
0010
0100
0010
0100
0010
,
0100
0000
0010
0000
0101
0000
1100
1000
0001
0000
0001
0000
0001
0000
0100
0010
,
1000
0000
1000
0000
1000
0000
0100
0010
0001
0000
0001
0000
0100
0000
1000
0000
,
0100
0000
0001
0000
0010
0000
0100
0000
1000
0010
1000
0010
0100
0010
0100
0010
,
0100
0001
0100
0001
1000
0001
1000
0001
1000
0100
1000
0100
0010
0001
0010
0100
,
1000
0000
0010
0000
0001
0000
0010
0000
1000
0000
1000
0000
1000
0000
0010
1000
,
0100
0000
0100
0000
0100
0000
0010
0001
0100
0000
1000
0000
0001
0000
0010
0000
,
1000
0000
0100
0000
0010
0000
0100
0000
1000
0001
1000
0001
0100
0010
0100
0010
,
1000
0001
1000
0001
0010
0100
0010
0100
1000
0000
0010
0000
0100
0000
0001
0000
,
2000
3000
0200
0300
0020
0030
0002
0003
1000
0000
1000
0000
1000
0000
0100
0010
,
0001
0000
0001
0000
0001
0000
0100
0010
1000
0000
1000
0000
0100
0000
0001
0000
,
0100
0000
1000
0000
0010
0000
0100
0000
0001
0010
0001
0010
0100
0010
0100
0010
,
0100
1000
0100
1000
0001
1000
0001
1000
0001
0100
0001
0100
0010
1000
0010
0100
,
0001
0000
0010
0000
1000
0000
0010
0000
0001
0000
0001
0000
0001
0000
0010
0001
,
0100
0000
0100
0000
0100
0000
0010
1000
0100
0000
0001
0000
1000
0000
0010
0000
,
0001
0000
0100
0000
0010
0000
0100
0000
0001
1000
0001
1000
0100
0010
0100
0010
,
0001
0000
0000
0000
0000
0000
0000
0000
0000
0000
0000
0000
1000
0000
0000
0000
0000
0000
0000
0000
0000
0000
0000
0000
0001
0000
0000
0000
0000
0000
0000
0000
0000
0000
0000
0000
1000
0000
0000
0000
0000
0000
0000
0000
0000
0000
0000
0000
0010
0000
0000
0000
0000
0000
0000
0000
0000
0000
0000
0000
0100
0000
0000
0000
0000
0000
0000
0000
0000
0000
0000
0000
0010
0000
0000
0000
0000
0000
0000
0000
0000
0000
0000
0000
0100
0000
0000
0000
0000
0000
0000
0000
0000
0000
0000
0000
0002
0000
0000
0003
0000
0000
0000
0000
0000
0000
0000
0000
2000
0000
0000
3000
0000
0000
0000
0000
0000
0000
0000
0000
0002
0000
0000
0003
0000
0000
0000
0000
0000
0000
0000
0000
2000
0000
0000
3000
0000
0000
0000
0000
0000
0000
0000
0000
0200
0000
0000
0000
0300
0000
0000
0000
0000
0000
0000
0000
0020
0000
0000
0000
0030
0000
0000
0000
0000
0000
0000
0000
0200
0000
0000
0000
0300
0000
0000
0000
0000
0000
0000
0000
0020
0000
0000
0000
0030
0000
0000
0000
0000
0000
0000
0000
,
0002
0003
2000
3000
0002
0003
2000
3000
0020
0000
0230
0000
0320
0000
0230
0000
M3M2
0000
0000
0000
0000
0000
M0M0
0000
0000
0000
0000
0000
M003
0000
0000
0000
,
10MM
0000
0100
0000
0001
0000
1000
0000
0010
0000
0001
0000
M10M
0010
0100
0010
,
1M0M
0000
0010
0000
0001
0000
1000
0000
0100
0000
0001
0000
M01M
0100
0010
0100
,
10MM
0001
0100
1000
0MM1
1000
0100
0001
,
10M0
0100
1000
0100
M010
0001
0010
0001
1M00
0010
1000
0010
M100
0001
0100
0001
,
1MM0
0000
0100
0000
0001
0000
1000
0000
0010
0000
0001
0000
M10M
0010
0100
0010
,
1M0M
0000
0010
0000
0001
0000
1000
0000
0100
0000
0001
0000
M01M
0100
0010
0100
,
10MM
0001
0010
1000
MM10
0001
0100
0010
,
4000
0400
0000
0000
0000
0000
0000
0000
0000
0000
0000
0000
0000
0000
3000
0300
M011
0000
0M00
0000
00MM
0000
0000
0000
0000
0000
0000
0000
0000
0000
0000
0000
;

//---------------dance-single - ----------------
#NOTEDATA:;
#CHARTNAME:;
#STEPSTYPE:dance-single;
#DESCRIPTION:;
#CHARTSTYLE:;
#DIFFICULTY:Hard;
#METER:13;
#RADARVALUES:0.694623,0.716973,0.111483,0.488809,0.060029,567.000000,554.000000,13.000000,57.000000,95.000000,0.000000,0.000000,0.000000,0.000000,0.694623,0.716973,0.111483,0.488809,0.060029,567.000000,554.000000,13.000000,57.000000,95.000000,0.000000,0.000000,0.000000,0.000000;
#CREDIT:;
#OFFSET:1.320091;
#BPMS:0.000000=175.000000
,40.000000=87.500000
,42.000000=175.000000
,70.000000=87.500000
,72.000000=175.000000
,100.000000=87.500000
,102.000000=175.000000
,130.000000=87.500000
,132.000000=175.000000
,164.000000=87.500000
,168.000000=175.000000
,220.000000=87.500000
,222.000000=175.000000
,252.000000=350.000000
,254.000000=175.000000
,286.000000=87.500000
,288.000000=175.000000
,316.000000=87.500000
,318.000000=175.000000
;
#STOPS:252.000000=0.085717
,252.500000=0.085709
,253.000000=0.085709
,253.500000=0.085709
;
#DELAYS:;
#WARPS:;
#TIMESIGNATURES:0.000000=4=4
;
#TICKCOUNTS:0.000000=4
;
#COMBOS:0.000000=1
;
#SPEEDS:0.000000=1.000000=0.000000=0
;
#SCROLLS:0.000000=1.000000
;
#FAKES:;
#LABELS:0.000000=Song Start
;
#DISPLAYBPM:88.000000:175.000000;
#NOTES:
0000
0000
0000
0000
,
0000
0000
0000
0000
,
0000
0000
0000
0000
,
10M0
0100
0010
0001
0100
0010
1M00
1000
,
00M1
0100
0010
1000
0100
0010
0M01
0001
,
10M0
0100
0010
0001
01M0
1000
0100
0001
,
10M0
0100
M010
0100
00M1
0100
001M
0100
,
10M0
0100
0010
0001
0100
0010
1M00
1000
,
00M1
0100
0010
1000
0100
0010
0M01
0001
,
10M0
0100
1000
0010
0M01
0010
1000
0100
,
0020
0000
0000
0000
0031
0010
0001
0010
,
0001
1000
0001
1000
0001
0100
0001
0100
,
0001
1000
0001
1000
0010
1000
0010
1000
,
0001
1000
0001
1000
0100
1000
0100
0010
,
0001
0100
0010
1000
0MM1
1000
0100
0001
,
0100
1000
1000
0010
M10M
0001
0100
1000
,
0100
0001
M001
0000
1MM1
0000
M11M
0000
,
1MM1
0000
M11M
0000
1MM1
M00M
0000
0000
,
00M1
0100
0010
1000
0100
0010
0M01
0001
,
10M0
0100
0010
0001
0100
0010
1M00
1000
,
00M1
0100
0010
1000
01M0
0001
0100
1000
,
00M1
0100
001M
0100
10M0
0100
M010
0100
,
00M1
0100
0010
1000
0100
0010
0M01
0001
,
10M0
0100
0010
0001
0100
0010
1M00
1000
,
00M1
0100
0001
0010
1M00
0010
0001
0100
,
0020
0000
0000
0000
0000
0030
00M0
0000
1000
0000
0010
0000
1000
0000
0010
0000
,
0001
0010
0001
0010
1000
0010
1000
0010
,
1000
0100
1000
0100
0001
0100
0001
0100
,
0010
0100
0010
0100
0010
0001
0010
0001
,
0100
0001
0100
0001
1MM0
0001
0100
1000
,
0100
0001
0001
0010
M10M
1000
0100
0001
,
0100
1000
100M
0000
1MM1
0000
M11M
0000
,
1MM1
0000
0000
0000
0000
0000
0000
0000
M11M
0000
0000
0000
0000
0000
0000
0000
1MM1
0000
0000
0000
2000
0000
0000
0000
3002
0000
0000
2003
0000
0000
3020
0000
,
1030
0100
0010
0001
0100
2000
0000
3100
,
0001
0010
0100
1000
0010
0100
0002
0000
,
1003
0100
1000
0010
0002
0000
0013
1000
,
0100
0010
0001
0100
0020
0000
2030
0000
,
3001
0100
0010
1000
0100
0002
0000
0103
,
1000
0010
0100
0001
0010
0100
2000
0000
,
3001
0100
1000
0100
0010
100M
100M
100M
,
100M
0100
0001
0100
0010
M001
M001
M001
,
2000
3000
0000
0000
0002
0003
0000
2000
3002
0003
0200
0300
0020
0030
2000
3000
0002
0003
0000
0000
0020
0030
0000
0000
0200
0300
0000
0000
0020
0030
0001
0000
,
2000
0000
0000
0000
3100
0000
0000
0000
0200
0000
0000
0000
0310
0000
0001
1000
,
0002
0000
0000
0000
0103
0000
0000
0000
0200
0000
0000
0000
0310
0000
1000
0001
,
2000
0000
3001
0000
0002
0000
0103
0001
,
2000
0000
3100
1000
0002
0000
1003
0000
,
0002
0000
0000
0000
0103
0000
0000
0000
0200
0000
0000
0000
0310
0000
1000
0001
,
2000
0000
0000
0000
3100
0000
0000
0000
0200
0000
0000
0000
0310
0000
0001
1000
,
0002
0000
0103
0000
0020
0000
1030
0001
,
0020
0000
0031
1000
0020
0000
0130
0001
,
2000
0000
0000
0000
3100
0000
0000
0000
0002
0000
0000
0000
0103
0000
1000
0001
,
2000
0000
0000
0000
3010
0000
0000
0000
0002
0000
0000
0000
0013
0000
1000
0001
,
2000
3100
0020
0031
,
2000
0000
3001
0000
0200
0000
1300
0100
,
0001
0010
0100
1000
0010
0100
0001
1000
,
2002
0000
3003
1001
1000
0100
1000
0100
,
0001
0100
0001
0100
1000
0100
0010
0001
,
0100
1000
0100
0001
1000
0100
0010
0100
,
0001
0100
0010
0100
1000
0010
0100
0001
,
0010
0001
0100
0010
1000
0010
1000
0010
,
0001
0010
0001
0010
1000
0001
1000
0100
,
0001
0100
1000
0010
0100
0001
0010
0001
,
0100
1000
0100
0001
1000
0100
0010
0001
,
0200
0300
0200
0300
0020
0030
2000
3000
0001
0000
0100
0000
0001
0000
0100
0000
,
1000
0100
1000
0100
0001
0100
0010
1000
,
0100
0001
0100
1000
0001
0100
0010
0100
,
1000
0100
0010
0100
0001
0010
0100
1000
,
0010
1000
0100
0010
0001
0010
0001
0010
,
1000
0010
1000
0010
0001
1000
0001
0100
,
1000
0100
0001
0010
0100
1000
0010
0001
,
0010
1000
0100
0001
0100
1000
0010
0001
,
0010
0000
1000
0000
0100
0000
0010
0000
2M02
0000
0000
0M00
0000
0000
3M03
0000
,
10M0
0100
0010
0001
0100
0010
1M00
1000
,
00M1
0100
0010
1000
0100
0010
0M01
0001
,
10M0
0100
0010
0001
01M0
1000
0100
0001
,
10M0
0100
M010
0100
00M1
0100
001M
0100
,
10M0
0100
0010
0001
0100
0010
1M00
1000
,
00M1
0100
0010
1000
0100
0010
0M01
0001
,
10M0
0100
1000
0010
0M01
0010
1000
0100
,
0020
0000
0000
0000
0000
0000
0000
0000
M13M
00M0
0M00
0000
0000
0000
0000
0000
;

//---------------dance-single - ----------------
#NOTEDATA:;
#CHARTNAME:;
#STEPSTYPE:dance-single;
#DESCRIPTION:;
#CHARTSTYLE:;
#DIFFICULTY:Medium;
#METER:10;
#RADARVALUES:0.548838,0.579951,0.591716,0.660321,0.004288,448.000000,379.000000,69.000000,77.000000,6.000000,0.000000,0.000000,0.000000,0.000000,0.548838,0.579951,0.591716,0.660321,0.004288,448.000000,379.000000,69.000000,77.000000,6.000000,0.000000,0.000000,0.000000,0.000000;
#CREDIT:;
#OFFSET:1.320091;
#BPMS:0.000000=175.000000
,40.000000=87.500000
,42.000000=175.000000
,70.000000=87.500000
,72.000000=175.000000
,100.000000=87.500000
,102.000000=175.000000
,130.000000=87.500000
,132.000000=175.000000
,164.000000=87.500000
,168.000000=175.000000
,220.000000=87.500000
,222.000000=175.000000
,286.000000=87.500000
,288.000000=175.000000
,316.000000=87.500000
,318.000000=175.000000
;
#STOPS:;
#DELAYS:;
#WARPS:;
#TIMESIGNATURES:0.000000=4=4
;
#TICKCOUNTS:0.000000=4
;
#COMBOS:0.000000=1
;
#SPEEDS:0.000000=1.000000=0.000000=0
;
#SCROLLS:0.000000=1.000000
;
#FAKES:;
#LABELS:0.000000=Song Start
;
#DISPLAYBPM:88.000000:175.000000;
#NOTES:
0000
0000
0000
0000
,
0000
0000
0000
0000
,
0000
0000
0000
0000
,
1001
0000
1000
0100
1000
0000
0110
0000
,
1001
0000
0001
0100
0001
0000
0110
0000
,
1001
0100
1001
0010
,
0101
1010
1100
0011
,
1001
0000
1000
0100
1000
0000
0110
0000
,
1001
0000
0001
0100
0001
0000
0110
0000
,
1001
0000
0100
0000
1001
0000
0001
1000
,
0002
0000
0000
0000
1003
0010
1000
0000
,
0010
1000
0010
0000
0100
0001
0100
0000
,
0001
0100
0001
0000
0010
0001
0010
0000
,
0001
0010
0001
0000
1000
0100
1000
0000
,
0100
1000
0100
0000
0012
0000
1000
0000
,
1003
0101
2010
0001
,
3001
1100
1001
0110
,
1001
0000
0110
0000
1001
M00M
0000
0000
,
1001
0000
0001
0100
0001
0000
0110
0000
,
1001
0000
1000
0100
1000
0000
0110
0000
,
1001
0100
1001
0010
,
1100
0011
0101
1010
,
1001
0000
0001
0100
0001
0000
0110
0000
,
1001
0000
1000
0100
1000
0000
0110
0000
,
1001
0000
0100
0000
0110
0000
1000
0001
,
2000
0000
0000
0000
3001
0010
0001
0000
,
1000
0100
1000
0000
0001
0100
0001
0000
,
1000
0010
1000
0000
0001
0100
0001
0000
,
1000
0100
1000
0000
0001
0010
0001
0000
,
1000
0010
1000
0000
2010
0000
0001
0000
,
3001
1100
0012
1000
,
1003
0101
1001
0110
,
1001
0000
0110
0000
2002
0000
0000
3003
,
1000
0000
0100
0000
0010
0002
0000
1003
,
0010
0000
1000
0000
0001
1000
0200
0000
,
0310
0000
0001
1000
0020
0000
1030
0001
,
0010
0000
0100
0010
0002
0000
2003
0000
,
3001
0000
0100
0000
0010
2000
0000
3001
,
0010
0000
0001
0000
1000
0001
0100
0000
,
2010
0000
0001
0000
3001
0010
0001
0010
,
0002
0000
1000
0000
1003
0010
1000
0010
,
2000
3002
2003
3200
0302
0203
2300
3020
,
2030
0000
3100
0000
2000
0000
3010
1000
,
0002
0000
0103
0000
0002
0000
0013
0001
,
2000
0000
3010
0000
0200
0000
0301
1000
,
0200
0310
0200
1300
,
0002
0000
0103
0000
0002
0000
0013
0001
,
2000
0000
3100
0000
2000
0000
3010
1000
,
0002
0000
0013
0000
0200
0000
1300
0010
,
0200
0301
2000
3001
,
0020
0000
0031
0000
0200
0000
0310
1000
,
0200
0000
0310
0000
0002
0000
0103
0001
,
0020
0130
2000
3010
,
0200
0301
2000
3100
,
0020
0000
0130
0010
0100
0010
0100
0010
,
0200
0000
0300
1001
1000
0010
1000
0000
,
1000
0001
1000
0000
1000
0100
1000
0100
,
1000
0001
2000
3020
,
0230
0000
0302
0000
1003
0100
0010
0100
,
1000
0000
0001
0000
0100
0010
0100
0000
,
0001
1000
0001
0000
0010
0100
0010
0100
,
1000
0001
2000
3020
,
2030
3002
1003
0100
,
0200
0300
2000
3000
0020
0030
2000
3000
0001
0000
0010
0000
0001
0000
0000
0000
,
0001
1000
0001
0000
0001
0100
0001
0100
,
0001
1000
0002
0023
,
0230
0000
2300
0000
3001
0100
0010
0100
,
0001
0000
1000
0000
0100
0010
0100
0000
,
1000
0001
1000
0000
0010
0100
0010
0100
,
0001
1000
0002
0023
,
0230
0000
0000
0000
0000
0000
0000
0000
2300
0000
0000
0000
0000
0000
0000
3000
0020
0000
0000
0000
0000
0000
0030
0000
0200
0000
0000
0000
0000
0300
0000
0000
,
0002
0000
0000
0000
0003
0000
0000
0000
2000
0000
0000
3000
0000
0000
0000
0000
2002
0000
0000
0000
0000
0000
0000
0000
0000
0000
0000
0000
3003
0000
0000
0000
,
1001
0000
1000
0100
1000
0000
0110
0000
,
1001
0000
0001
0100
0001
0000
0110
0000
,
1001
0100
1001
0010
,
0101
1010
1100
0011
,
1001
0000
1000
0100
1000
0000
0110
0000
,
1001
0000
0001
0100
0001
0000
0110
0000
,
1001
0000
0100
0000
0110
0000
0001
1000
,
0020
0000
0000
0000
0000
0000
0000
0000
MM3M
00M0
0000
0000
0000
0000
0000
0000
;

//---------------dance-single - ----------------
#NOTEDATA:;
#CHARTNAME:;
#STEPSTYPE:dance-single;
#DESCRIPTION:;
#CHARTSTYLE:;
#DIFFICULTY:Easy;
#METER:7;
#RADARVALUES:0.376101,0.512124,0.583140,0.891862,0.000000,307.000000,239.000000,68.000000,104.000000,4.000000,0.000000,0.000000,0.000000,0.000000,0.376101,0.512124,0.583140,0.891862,0.000000,307.000000,239.000000,68.000000,104.000000,4.000000,0.000000,0.000000,0.000000,0.000000;
#CREDIT:;
#OFFSET:1.320091;
#BPMS:0.000000=175.000000
,40.000000=87.500000
,42.000000=175.000000
,70.000000=87.500000
,72.000000=175.000000
,100.000000=87.500000
,102.000000=175.000000
,130.000000=87.500000
,132.000000=175.000000
,164.000000=87.500000
,168.000000=175.000000
,220.000000=87.500000
,222.000000=175.000000
,286.000000=87.500000
,288.000000=175.000000
,316.000000=87.500000
,318.000000=175.000000
;
#STOPS:;
#DELAYS:;
#WARPS:;
#TIMESIGNATURES:0.000000=4=4
;
#TICKCOUNTS:0.000000=4
;
#COMBOS:0.000000=1
;
#SPEEDS:0.000000=1.000000=0.000000=0
;
#SCROLLS:0.000000=1.000000
;
#FAKES:;
#LABELS:0.000000=Song Start
;
#DISPLAYBPM:88.000000:175.000000;
#NOTES:
0000
0000
0000
0000
,
0000
0000
0000
0000
,
0000
0000
0000
0000
,
2020
0000
3030
1100
,
0022
0000
0033
0101
,
2020
3030
0202
0303
,
1010
1001
0011
1001
,
2020
0000
3030
1100
,
0022
0000
0033
0101
,
2020
3030
2002
3003
,
0002
0000
1003
1000
,
0100
0100
0010
0010
,
0001
0001
0100
0100
,
0010
0010
1000
0001
,
1000
0100
0220
0000
,
0330
0110
2002
0000
,
3003
1001
1010
0101
,
1010
0000
0101
0000
2010
0002
0000
3003
,
0022
0000
0033
0101
,
2020
0000
3030
1100
,
0022
0033
2200
3300
,
0011
1001
1010
1001
,
0022
0000
0033
0101
,
2020
0000
3030
1100
,
0022
0033
2002
3003
,
2000
0000
0000
3000
0001
0000
0010
0000
,
0001
1000
0001
0100
,
0001
1000
0100
0010
,
0100
1000
0010
0100
,
0001
1000
0220
0000
,
0330
0110
2002
0000
,
3003
1001
0011
1100
,
0011
0000
1100
0000
2002
0000
0000
3003
,
1000
0010
0100
0100
,
0010
1000
0100
0010
,
0001
0100
1000
0100
,
0001
0010
0100
1000
,
0001
0010
0100
0100
,
0010
0001
0100
0010
,
2002
0000
0000
0000
3003
0000
0100
0020
,
0200
0000
0000
0000
0330
0000
1000
0001
,
2000
0000
3200
0000
0320
0032
0203
0320
,
2030
0000
0000
0000
3002
0000
0000
1003
,
0200
0000
0000
0000
0320
0000
0000
0031
,
0200
0000
0320
2030
,
3002
0000
0203
0000
,
0302
0000
0000
0000
2003
0000
0000
3001
,
0200
0000
0000
0000
0320
0000
0000
1030
,
0200
0000
0320
0032
,
2003
0000
3020
0000
,
2030
0000
0000
0000
3200
0000
0000
0310
,
0002
0000
0000
0000
0203
0000
0000
0310
,
2000
0000
3002
0000
,
0023
0000
0230
0000
,
2300
0001
0001
3001
,
2002
0000
0000
3003
1000
0000
1000
0000
,
0010
0010
1000
0100
,
0100
0010
0001
0100
,
1000
0100
0001
0010
,
0100
0010
0001
0001
,
1000
1000
0010
1000
,
0100
0100
0010
0001
,
0100
1000
0100
0001
,
0020
0000
0031
0001
,
0010
0010
0001
0100
,
0100
0010
1000
0100
,
0001
0100
1000
0010
,
0100
0010
1000
1000
,
0001
0001
0010
0001
,
0100
0010
1000
0100
,
0001
0100
1000
0100
,
0001
0000
0100
0000
2000
0000
0000
3000
,
2020
0000
3030
1100
,
0022
0000
0033
0101
,
2020
3030
0202
0303
,
1010
1001
0011
1001
,
2020
0000
3030
1100
,
0022
0000
0033
0101
,
2020
3030
2002
3003
,
0200
0000
0000
0000
0300
MMMM
0000
0000
;

//---------------dance-single - ----------------
#NOTEDATA:;
#CHARTNAME:;
#STEPSTYPE:dance-single;
#DESCRIPTION:;
#CHARTSTYLE:;
#DIFFICULTY:Beginner;
#METER:3;
#RADARVALUES:0.204589,0.252122,0.008576,0.042878,0.000000,167.000000,166.000000,1.000000,5.000000,0.000000,0.000000,0.000000,0.000000,0.000000,0.204589,0.252122,0.008576,0.042878,0.000000,167.000000,166.000000,1.000000,5.000000,0.000000,0.000000,0.000000,0.000000,0.000000;
#CREDIT:;
#OFFSET:1.320091;
#BPMS:0.000000=175.000000
;
#STOPS:;
#DELAYS:;
#WARPS:;
#TIMESIGNATURES:0.000000=4=4
;
#TICKCOUNTS:0.000000=4
;
#COMBOS:0.000000=1
;
#SPEEDS:0.000000=1.000000=0.000000=0
;
#SCROLLS:0.000000=1.000000
;
#FAKES:;
#LABELS:0.000000=Song Start
;
#DISPLAYBPM:88.000000:175.000000;
#NOTES:
0000
0000
0000
0000
,
0000
0000
0000
0000
,
0000
0000
0000
0000
,
1000
0000
0000
0001
,
0001
0000
0000
1000
,
1000
0000
0001
0000
,
1000
1000
1000
1000
,
1000
0000
0000
0001
,
0001
0000
0000
1000
,
1000
0000
0001
0000
,
0020
0000
0030
0000
,
0001
0000
0001
0000
,
0100
0000
0100
0000
,
0010
0000
0010
0000
,
1000
0000
0100
0000
,
0010
0000
0000
0100
,
0100
0000
0000
0000
,
0010
0010
0010
0010
,
0010
0000
0000
0000
,
0001
0000
0000
1000
,
1000
0000
0000
0001
,
0001
0000
1000
0000
,
0001
0001
0001
0001
,
0001
0000
0000
1000
,
1000
0000
0000
0001
,
0001
0000
1000
0000
,
0020
0000
0030
0000
,
1000
0000
0010
0000
,
0100
0000
0001
0000
,
1000
0000
0100
0000
,
0010
0000
0001
0000
,
0100
0000
0000
0010
,
0010
0000
0000
0000
,
0100
0100
0100
0100
,
0100
0000
0000
0000
,
0001
0000
0010
0000
,
0001
0000
0100
0000
,
0010
0000
1000
0000
,
0001
0000
0001
0000
,
1000
0000
0010
0000
,
1000
0000
0100
0000
,
0010
0000
0000
0100
,
0100
0000
0000
0100
,
0200
0000
0000
0000
,
0000
0000
0300
0000
,
1000
0000
1000
0000
,
0010
0000
0010
0000
,
0100
0000
0001
0000
,
1000
0000
1000
0000
,
0001
0000
0001
0000
,
0010
0000
0010
0000
,
0100
0000
1000
0000
,
0010
0000
0100
0000
,
0001
0000
0001
0000
,
0100
0000
0100
0000
,
0010
0000
1000
0000
,
0100
0000
0010
0000
,
0002
0000
0003
0000
,
1001
0000
0000
0000
,
1000
0000
0010
0000
,
1000
1000
1000
0000
,
0100
0000
0100
0000
,
0010
0010
0010
0000
,
0001
0000
1000
0000
,
0010
0010
0010
0000
,
0100
0000
0001
0000
,
1000
1000
1000
0000
,
0001
0000
0010
0000
,
0001
0001
0001
0000
,
0100
0000
0100
0000
,
0010
0010
0010
0000
,
1000
0000
0001
0000
,
0010
0010
0010
0000
,
0001
0000
1000
0000
,
0001
0000
1000
0000
,
0001
0000
0000
0000
,
1000
0000
0000
0001
,
0001
0000
0000
1000
,
1000
0000
0001
0000
,
1000
1000
1000
1000
,
1000
0000
0000
0001
,
0001
0000
0000
1000
,
1000
0000
0001
0000
,
0020
0000
0000
0000
,
0030
0000
0000
0000
;
