#VERSION:0.83;
#TITLE:I ONLY WANNA BE WITH YOU;
#SUBTITLE:;
#ARTIST:JENNY ROM;
#TITLETRANSLIT:;
#SUBTITLETRANSLIT:;
#ARTISTTRANSLIT:;
#GENRE:Italo Dance;
#ORIGIN:;
#CREDIT:;
#BANNER:I ONLY WANNA BE WITH YOU.png;
#BACKGROUND:I ONLY WANNA BE WITH YOU-bg.png;
#PREVIEWVID:;
#JACKET:I ONLY WANNA BE WITH YOU-jacket.png;
#CDIMAGE:;
#DISCIMAGE:;
#LYRICSPATH:;
#CDTITLE:cdtitle.png;
#MUSIC:I ONLY WANNA BE WITH YOU.ogg;
#OFFSET:-0.295480;
#SAMPLESTART:37.217556;
#SAMPLELENGTH:18.461538;
#SELECTABLE:YES;
#BPMS:0.000=156.000;
#STOPS:;
#DELAYS:;
#WARPS:;
#TIMESIGNATURES:0.000=4=4;
#TICKCOUNTS:0.000=4;
#COMBOS:0.000=1;
#SPEEDS:0.000=1.000=0.000=0;
#SCROLLS:0.000=1.000;
#FAKES:;
#LABELS:0.000=Song Start;
#BGCHANGES:;
#KEYSOUNDS:;
#ATTACKS:
;

//---------------dance-single - ----------------
#NOTEDATA:;
#CHARTNAME:;
#STEPSTYPE:dance-single;
#DESCRIPTION:;
#CHARTSTYLE:;
#DIFFICULTY:Challenge;
#METER:13;
#RADARVALUES:0.680114,0.633531,0.177016,0.531048,0.204966,511.000000,492.000000,19.000000,57.000000,0.000000,0.000000,0.000000,0.000000,0.000000,0.680114,0.633531,0.177016,0.531048,0.204966,511.000000,492.000000,19.000000,57.000000,0.000000,0.000000,0.000000,0.000000,0.000000;
#CREDIT:;
#NOTES:
0000
0000
0000
0000
,
0000
0000
0000
0000
,
0000
0000
0000
0000
,
0000
0000
0000
0000
,
0000
0000
0000
0000
,
0000
0000
0000
0000
,
1000
0000
0010
1000
0000
0010
1000
0000
0001
0000
0010
0000
0100
0000
1000
0000
,
0001
0000
0100
0010
0000
0100
0010
0000
1000
0000
0100
0000
0010
0000
0001
0000
,
1000
0000
0001
0100
0000
0001
0100
0000
0010
0000
0100
0000
1000
0000
0100
0000
,
0001
0000
1000
0100
0000
1000
0100
0000
0010
0000
0100
0000
0001
0000
0100
0000
,
1000
0000
0001
0100
0000
0001
0100
0000
0010
0000
1000
0000
0100
0000
0010
0000
,
0011
0000
1100
0000
0101
0000
1010
0100
,
0001
0001
0010
0010
0100
0100
1000
1000
,
0010
0000
0000
0000
0200
0000
0000
0000
0001
0000
0000
0300
0200
0000
0000
0000
0001
0000
0000
0300
0100
0000
0000
0000
1000
0000
0000
0000
0100
0000
0000
0000
,
0001
0001
0010
0010
0100
0100
1000
1000
,
0010
0000
0000
0000
0200
0000
0000
0000
0001
0000
0000
0300
0200
0000
0000
0000
0301
0000
1000
0000
0001
0000
0000
0000
0001
0000
0000
0000
1000
0000
0000
0000
,
0200
0000
0000
0000
0010
0000
0000
0300
0100
0000
0000
0000
1000
0000
0000
0000
0001
0000
0000
0000
0200
0000
0000
0000
0010
0000
0000
0300
0100
0000
0000
0000
,
0001
0000
0000
0000
0020
0000
0000
0000
1000
0000
0000
0030
0020
0000
0000
0000
0100
0000
0000
0000
0130
0000
0000
0000
0010
0000
0000
0000
0001
0000
0000
0000
,
0100
0100
0010
0010
1000
1000
0001
0100
,
2000
0000
0000
3200
0000
0000
0302
0000
0010
0000
0013
0000
0001
0000
1000
0000
,
1010
0000
1001
0000
1000
0200
0000
0302
,
0000
0000
0103
0000
1000
0000
0001
0000
1000
0010
1000
0010
1000
0000
0001
0000
,
0010
1000
0001
0100
1000
0002
0000
0103
,
0101
0000
1010
0000
1100
0000
0011
0100
,
1000
1000
0010
0010
0100
0100
0001
0001
,
0010
0000
0000
0000
0200
0000
0000
0000
1000
0000
0000
0300
0200
0000
0000
0000
1000
0000
0000
0300
0100
0000
0000
0000
0010
0000
0000
0000
0001
0000
0000
0000
,
1000
1000
0010
0010
0100
0100
0001
0001
,
0010
0000
0000
0000
0200
0000
0000
0000
1000
0000
0000
0300
0200
0000
0000
0000
1000
0000
0000
0300
0100
0000
0000
0000
0010
0000
0000
0000
0001
0000
0000
0000
,
0200
0000
0000
0000
0010
0000
0000
0300
0100
0000
0000
0000
0001
0000
0000
0000
1000
0000
0000
0000
0200
0000
0000
0000
0010
0000
0000
0300
0100
0000
0000
0000
,
1000
0000
0001
0100
0001
0100
0002
0000
0100
0000
0103
0000
0010
0000
1000
0000
,
0100
0100
0010
0010
0001
0001
1000
0100
,
0002
0000
0000
0203
0000
0000
2300
0000
0010
0000
3010
0000
1000
0000
0001
0000
,
0011
0000
1001
0000
0001
0200
0000
2300
,
0000
3100
0001
1000
0001
0010
0100
1000
,
0010
0001
1000
0100
0001
2000
0000
3200
,
0000
0000
0310
0000
0011
0000
0000
0010
0001
0000
0100
0000
0010
0000
1000
0000
,
2001
0000
3001
0100
0010
0100
1000
0100
,
0010
0100
0001
0010
1000
0010
0001
0100
,
0010
1000
0100
0010
0001
1000
0001
0100
,
0010
0000
1000
0000
0010
0000
2000
3000
0020
0030
0002
0003
0020
0030
2000
3000
,
0200
0300
0010
0000
0100
0000
0002
0003
0100
0000
0010
0000
0001
0000
0200
0300
,
1000
0000
0100
0000
0010
0000
2000
3000
0100
0000
0010
0000
0001
0000
1000
0000
,
0020
0030
0001
0000
0010
0000
2000
3000
0001
0000
0200
0300
0010
0000
2000
3000
,
1001
0000
0000
0000
0001
0000
0010
0000
1000
0000
0010
0000
0001
0200
0000
0000
,
0301
0001
0100
0100
1000
1000
0100
0100
,
0001
0000
0000
0000
2000
0000
0000
0000
0100
0000
0000
3000
2000
0000
0000
0000
0100
0000
0000
3000
1000
0000
0000
0000
1000
0000
0000
0000
0001
0000
0000
0000
,
1000
1000
0100
0100
0001
0001
0100
0100
,
1000
0000
0000
0000
0002
0000
0000
0000
0100
0000
0000
0003
0002
0000
0000
0000
0100
0000
0000
0003
0001
0000
0000
0000
0001
0000
0000
0000
1000
0000
0000
0000
,
0200
0000
0000
0000
0010
0000
0000
0300
0100
0000
0000
0000
1000
0000
0000
0000
0001
0000
0000
0000
0200
0000
0000
0000
0010
0000
0000
0300
0100
0000
0000
0000
,
0001
0000
0000
0000
0020
0000
0000
0000
0100
0030
0010
0000
0200
0000
0000
0000
1000
0000
0000
0000
1300
0000
0000
0000
0001
0000
0000
0000
0100
0000
0000
0000
,
0010
0010
1000
1000
0100
0100
1000
0010
,
0002
0000
0000
0023
0000
0000
2030
0000
0100
0000
3100
0000
1000
0000
0010
0000
,
1010
0000
1001
0000
0001
0020
0000
2030
,
0000
3010
0001
1000
0001
0010
0100
1000
,
0010
0001
1000
0100
0001
2000
0000
3100
,
0010
0000
0001
0000
0011
0000
0000
0010
0001
0000
0100
0000
0010
0000
1000
0000
,
0001
0000
0010
0001
0000
0010
0001
0000
1000
0000
0010
0000
0100
0000
0001
0000
,
1000
0000
0100
0010
0000
0100
0010
0000
0001
0000
0100
0000
0010
0000
1000
0000
,
0001
0000
0010
0001
0000
0010
0001
0000
1000
0000
0010
0000
0100
0000
0001
0000
,
1000
0000
0100
0010
0000
0100
0010
0000
0001
0000
0100
0000
0010
0000
1000
0000
,
0001
0000
1000
0100
0000
1000
0100
0000
0010
0000
0100
0000
0001
0000
0100
0000
,
1000
0000
0001
0100
0000
0001
0100
0000
0001
0000
0010
0000
0010
0000
0100
0000
,
1000
0000
0010
1000
0000
0010
1000
0000
0001
0000
0010
0000
0100
0000
1000
0000
,
0001
0000
0100
0010
0000
0100
0010
0000
1000
0000
0100
0000
0010
0000
0001
0000
,
1000
0000
0001
0100
0000
0001
0100
0000
1000
0000
0100
0000
0010
0000
0100
0000
,
0001
0000
1000
0100
0000
1000
0100
0000
0010
0000
0100
0000
0001
0000
0100
0000
,
1000
0000
0001
0100
0000
0001
0100
0000
0010
0000
0100
0000
1000
0000
0100
0000
,
0010
1000
0100
0001
1000
0010
0001
0100
,
0110
0000
0000
0000
;

//---------------dance-single - ----------------
#NOTEDATA:;
#CHARTNAME:;
#STEPSTYPE:dance-single;
#DESCRIPTION:;
#CHARTSTYLE:;
#DIFFICULTY:Hard;
#METER:11;
#RADARVALUES:0.540364,0.538501,0.102483,0.642847,0.088508,406.000000,395.000000,11.000000,69.000000,0.000000,0.000000,0.000000,0.000000,0.000000,0.540364,0.538501,0.102483,0.642847,0.088508,406.000000,395.000000,11.000000,69.000000,0.000000,0.000000,0.000000,0.000000,0.000000;
#CREDIT:;
#NOTES:
// measure 0
0000
0000
0000
0000
,  // measure 1
0000
0000
0000
0000
,  // measure 2
0000
0000
0000
0000
,  // measure 3
0000
0000
0000
0000
,  // measure 4
0000
0000
0000
0000
,  // measure 5
0000
0000
0000
0000
,  // measure 6
1000
0000
0000
1000
0000
0000
1000
0000
0010
0000
1000
0000
0100
0000
0010
0000
,  // measure 7
0001
0000
0000
0001
0000
0000
0001
0000
0010
0000
0001
0000
1000
0000
0010
0000
,  // measure 8
0100
0000
0000
0100
0000
0000
0100
0000
1000
0000
0100
0000
0001
0000
1000
0000
,  // measure 9
0100
0000
0000
0100
0000
0000
0100
0000
0001
0000
0100
0000
1000
0000
0001
0000
,  // measure 10
0100
0000
0000
0100
0000
0000
0100
0000
1000
0000
0100
0000
0001
0000
1000
0000
,  // measure 11
0200
0000
0320
0000
0032
0000
0103
0010
,  // measure 12
1000
0100
1000
0100
0010
0100
0010
0001
,  // measure 13
0100
0020
0000
2030
0000
3100
0100
0010
,  // measure 14
0001
0100
0001
0100
0010
0100
0010
1000
,  // measure 15
0100
0020
0000
0032
0000
0103
0010
1000
,  // measure 16
0002
0000
1003
0100
0010
0002
0000
0013
,  // measure 17
0001
0200
0000
0320
0000
1030
1000
0100
,  // measure 18
0010
0001
1000
0001
0100
0001
1000
0001
,  // measure 19
0020
0000
0000
0032
0000
0000
0203
0000
0000
0000
0301
0000
1000
0000
0001
0000
,  // measure 20
0020
0000
2030
0000
3010
0002
0000
0203
,  // measure 21
0000
0310
0100
0001
1000
0100
0010
0001
,  // measure 22
0100
0100
0010
0010
1000
0001
0000
2001
,  // measure 23
0000
0010
0001
3100
,  // measure 24
1000
0010
1000
0010
0100
0010
0100
0001
,  // measure 25
0100
2000
0000
3200
0000
0310
0010
1000
,  // measure 26
0001
0010
0001
0010
0100
0010
0100
1000
,  // measure 27
0100
0002
0000
0203
0000
0310
0010
0001
,  // measure 28
2000
0000
3001
0100
0010
2000
0000
3100
,  // measure 29
1000
0020
0000
0230
0000
0301
0001
1000
,  // measure 30
0010
1000
0001
1000
0100
1000
0001
1000
,  // measure 31
0020
0000
0000
2030
0000
0000
3200
0000
0000
0000
0310
0000
0001
0000
1000
0000
,  // measure 32
0020
0000
0032
0000
0013
2000
0000
3200
,  // measure 33
0000
0310
0100
1000
0001
0100
0010
1000
,  // measure 34
0100
0100
0010
0010
0001
1000
0000
1002
,  // measure 35
0000
0103
1001
0110
,  // measure 36
1001
2000
3200
0320
,  // measure 37
0032
0000
0103
0020
0000
0130
0001
2000
,  // measure 38
0000
3100
0010
0001
2000
0000
3010
0200
,  // measure 39
0000
0301
0001
1000
0100
0010
0001
0100
,  // measure 40
0010
2000
0000
3200
0000
0310
0100
0002
,  // measure 41
0000
0203
0000
0320
0000
0001
0031
0000
,  // measure 42
0001
0100
1000
0200
0000
0320
0000
1030
,  // measure 43
1010
0000
1001
0000
1000
0100
0010
0001
,  // measure 44
1000
0010
1000
0010
1000
0100
1000
0100
,  // measure 45
0001
0200
0000
0320
0000
0130
0100
1000
,  // measure 46
0001
0010
0001
0010
0001
0100
0001
0100
,  // measure 47
1000
0200
0000
0320
0000
0130
0100
0001
,  // measure 48
2000
0000
3001
0010
0100
2000
0000
3010
,  // measure 49
0100
0002
0000
2003
0000
3100
0100
0010
,  // measure 50
0001
0100
0010
0100
1000
0100
0010
0100
,  // measure 51
0002
0000
0000
2003
0000
0000
3200
0000
0000
0000
0310
0000
0001
0000
1000
0000
,  // measure 52
0020
0000
0032
0000
0013
2000
0000
3200
,  // measure 53
0000
0310
0001
1000
0001
1000
0001
0100
,  // measure 54
0010
0010
1000
1000
0100
0010
0000
1002
,  // measure 55
0000
0103
0101
1010
,  // measure 56
0010
0000
0000
0010
0000
0000
0010
0000
1000
0000
0001
0000
1000
0000
0100
0000
,  // measure 57
0010
0000
0000
0010
0000
0000
0010
0000
0001
0000
1000
0000
0001
0000
0100
0000
,  // measure 58
0010
0000
0000
0010
0000
0000
0010
0000
1000
0000
0001
0000
1000
0000
0100
0000
,  // measure 59
0010
0000
0000
0010
0000
0000
0010
0000
0001
0000
1000
0000
0010
0000
0100
0000
,  // measure 60
0001
0000
0000
0001
0000
0000
0001
0000
0010
0000
0001
0000
0100
0000
0010
0000
,  // measure 61
1000
0000
0000
1000
0000
0000
1000
0000
0100
0000
0010
0000
0100
0000
1000
0000
,  // measure 62
0001
0000
0000
0001
0000
0000
0001
0000
0010
0000
0001
0000
0100
0000
0010
0000
,  // measure 63
1000
0000
0000
1000
0000
0000
1000
0000
0010
0000
1000
0000
0001
0000
0010
0000
,  // measure 64
0100
0000
0000
0100
0000
0000
0100
0000
0001
0000
0100
0000
1000
0000
0001
0000
,  // measure 65
0100
0000
0000
0100
0000
0000
0100
0000
1000
0000
0100
0000
0001
0000
1000
0000
,  // measure 66
0100
0000
0000
0100
0000
0000
0100
0000
0001
0000
0100
0000
1000
0000
0001
0000
,  // measure 67
0200
0320
2030
3001
,  // measure 68
1001
0000
0000
0000
;

//---------------dance-single - ----------------
#NOTEDATA:;
#CHARTNAME:;
#STEPSTYPE:dance-single;
#DESCRIPTION:;
#CHARTSTYLE:;
#DIFFICULTY:Medium;
#METER:9;
#RADARVALUES:0.456515,0.506824,0.093166,0.521731,0.013975,343.000000,333.000000,10.000000,56.000000,0.000000,0.000000,0.000000,0.000000,0.000000,0.456515,0.506824,0.093166,0.521731,0.013975,343.000000,333.000000,10.000000,56.000000,0.000000,0.000000,0.000000,0.000000,0.000000;
#CREDIT:;
#NOTES:
// measure 0
0000
0000
0000
0000
,  // measure 1
0000
0000
0000
0000
,  // measure 2
0000
0000
0000
0000
,  // measure 3
0000
0000
0000
0000
,  // measure 4
0000
0000
0000
0000
,  // measure 5
0000
0000
0000
0000
,  // measure 6
0001
0000
0001
0000
0010
0001
0010
0100
,  // measure 7
1000
0000
1000
0000
0010
1000
0010
0100
,  // measure 8
0001
0000
0001
0000
1000
0010
1000
0100
,  // measure 9
1000
0000
1000
0000
0001
0010
0001
0100
,  // measure 10
0001
0000
0001
0000
1000
0010
1000
0100
,  // measure 11
2000
3200
0320
0032
,  // measure 12
1003
0010
1000
0000
0001
0010
0001
0000
,  // measure 13
1000
0100
0000
0020
0000
0130
0000
0010
,  // measure 14
0001
0100
0001
0000
1000
0100
1000
0000
,  // measure 15
0001
0100
0000
0020
0000
0130
0000
0010
,  // measure 16
1000
0000
0100
0000
0010
0002
0000
0103
,  // measure 17
0010
2000
0000
3002
0000
1000
1003
0000
,  // measure 18
0001
0100
0010
0000
1000
0100
0010
0000
,  // measure 19
0001
0000
0000
0100
0000
0000
0020
0000
0000
0000
0000
0000
1030
0000
0100
0000
,  // measure 20
0002
0000
0203
0000
1300
0020
0000
2030
,  // measure 21
0000
0000
3010
0000
0100
0000
0001
1000
,  // measure 22
0100
0010
0100
0010
0100
0010
0000
1002
,  // measure 23
0000
1003
1010
1001
,  // measure 24
0001
0010
0001
0000
1000
0100
1000
0000
,  // measure 25
0010
1000
0000
0200
0000
0310
0000
0100
,  // measure 26
1000
0010
1000
0000
0001
0100
0001
0000
,  // measure 27
0010
0001
0000
0200
0000
0310
0000
0100
,  // measure 28
0001
0000
1000
0000
0100
0020
0000
0031
,  // measure 29
0100
0020
0000
2030
0000
0001
3001
0000
,  // measure 30
1000
0100
0010
0000
0001
0100
0010
0000
,  // measure 31
1000
0000
0000
0100
0000
0000
0020
0000
0000
0000
0000
0000
0031
0000
0100
0000
,  // measure 32
2000
0000
3200
0000
0301
0020
0000
0032
,  // measure 33
0000
0000
0013
0000
0100
0000
1000
0001
,  // measure 34
0100
0010
0100
0010
0100
0010
0000
2001
,  // measure 35
0000
0100
3100
0000
0010
0000
0110
0000
,  // measure 36
1001
0002
0203
0320
,  // measure 37
2030
0000
3001
0020
0000
0130
0000
2000
,  // measure 38
0000
3001
0100
0001
0200
0000
0310
2000
,  // measure 39
0000
3001
0000
0001
1000
0100
0010
0000
,  // measure 40
0100
2000
0000
3002
0000
0103
0010
0200
,  // measure 41
0000
0320
0000
2030
0000
0001
3001
0000
,  // measure 42
1000
0100
1000
0200
0000
0320
0000
0032
,  // measure 43
0000
0000
0103
0000
1000
0100
0001
0000
,  // measure 44
1000
0010
1000
0000
0001
0010
0001
0000
,  // measure 45
1000
0100
0000
2000
0000
3010
0000
0100
,  // measure 46
0001
0010
0001
0000
1000
0010
1000
0000
,  // measure 47
0001
0100
0000
0002
0000
0013
0000
0100
,  // measure 48
1000
0000
0001
0000
0100
0020
0000
1030
,  // measure 49
0100
0020
0000
0032
0000
1000
1003
0000
,  // measure 50
0001
0010
0100
0000
1000
0010
0100
0000
,  // measure 51
0001
0000
0000
0010
0000
0000
0200
0000
0000
0000
0000
0000
1300
0000
0010
0000
,  // measure 52
0002
0000
0023
0000
1030
0200
0000
0320
,  // measure 53
0000
0000
0130
0000
0010
0000
0001
1000
,  // measure 54
0010
0100
0010
0100
0010
0100
0000
2001
,  // measure 55
0000
0100
3100
0000
0110
0000
1001
0000
,  // measure 56
1000
0000
1000
0000
0001
0010
0100
1000
,  // measure 57
0001
0000
0001
0000
1000
0010
0100
0001
,  // measure 58
1000
0000
1000
0000
0001
0010
0100
1000
,  // measure 59
0001
0000
0001
0000
1000
0010
0100
0001
,  // measure 60
1000
0000
1000
0000
0100
0010
0100
1000
,  // measure 61
0001
0000
0001
0000
0100
0001
0010
0100
,  // measure 62
1000
0000
1000
0000
0010
1000
0010
0100
,  // measure 63
0001
0000
0001
0000
0010
0001
0010
0100
,  // measure 64
1000
0000
1000
0000
0001
0010
0001
0100
,  // measure 65
0001
0000
0001
0000
1000
0010
1000
0100
,  // measure 66
1000
0000
1000
0000
0001
0010
0001
0100
,  // measure 67
0002
0203
0320
1030
,  // measure 68
1001
0000
0000
0000
;

//---------------dance-single - ----------------
#NOTEDATA:;
#CHARTNAME:;
#STEPSTYPE:dance-single;
#DESCRIPTION:;
#CHARTSTYLE:;
#DIFFICULTY:Easy;
#METER:5;
#RADARVALUES:0.308780,0.316765,0.009317,0.260866,0.000000,232.000000,231.000000,1.000000,28.000000,0.000000,0.000000,0.000000,0.000000,0.000000,0.308780,0.316765,0.009317,0.260866,0.000000,232.000000,231.000000,1.000000,28.000000,0.000000,0.000000,0.000000,0.000000,0.000000;
#CREDIT:;
#NOTES:
// measure 0
0000
0000
0000
0000
,  // measure 1
0000
0000
0000
0000
,  // measure 2
0000
0000
0000
0000
,  // measure 3
0000
0000
0000
0000
,  // measure 4
0000
0000
0000
0000
,  // measure 5
0000
0000
0000
0000
,  // measure 6
0001
0001
0010
0001
,  // measure 7
1000
1000
0010
1000
,  // measure 8
0100
0100
0010
0001
,  // measure 9
0100
0100
0010
1000
,  // measure 10
0100
0100
0010
0001
,  // measure 11
0200
0320
2030
3002
,  // measure 12
1003
0100
0010
0001
,  // measure 13
0100
0010
2000
3000
,  // measure 14
0001
0100
0010
1000
,  // measure 15
0100
0010
0002
0003
,  // measure 16
0001
0100
2000
3000
,  // measure 17
1000
0100
0002
0003
,  // measure 18
0010
0100
1000
0001
,  // measure 19
1000
0010
0200
0300
,  // measure 20
0001
0100
1000
0010
,  // measure 21
0002
0000
0100
0103
,  // measure 22
0001
0010
1000
0100
,  // measure 23
0002
0010
0010
0013
,  // measure 24
0001
1000
0010
1000
,  // measure 25
0100
0010
0002
0003
,  // measure 26
1000
0001
0010
0001
,  // measure 27
0100
0010
2000
3000
,  // measure 28
1000
0100
0002
0003
,  // measure 29
0001
0100
2000
3000
,  // measure 30
0010
0100
0001
1000
,  // measure 31
0001
0010
0200
0300
,  // measure 32
1000
0100
0001
0010
,  // measure 33
2000
0000
0100
3100
,  // measure 34
1000
0010
0001
0100
,  // measure 35
2000
0010
0010
3010
,  // measure 36
1000
1000
0100
0100
,  // measure 37
0010
0001
0100
0100
,  // measure 38
0001
1000
0100
1000
,  // measure 39
0001
0001
0100
0010
,  // measure 40
1000
0100
0010
0001
,  // measure 41
0100
0010
1000
1000
,  // measure 42
0001
0100
0010
1000
,  // measure 43
0001
0001
0010
0100
,  // measure 44
1000
0010
0100
0001
,  // measure 45
0010
0001
2000
3000
,  // measure 46
0001
0010
0100
1000
,  // measure 47
0010
1000
0002
0003
,  // measure 48
1000
0010
0002
0003
,  // measure 49
0001
0010
2000
3000
,  // measure 50
0010
1000
0100
0010
,  // measure 51
0001
1000
0020
0030
,  // measure 52
1000
0100
0001
0010
,  // measure 53
2000
0000
0100
3100
,  // measure 54
1000
0010
0001
0100
,  // measure 55
2000
0010
0010
3010
,  // measure 56
1000
1000
0100
0010
,  // measure 57
0001
0001
0100
0010
,  // measure 58
1000
1000
0100
0010
,  // measure 59
0001
0001
1000
0010
,  // measure 60
0100
0100
0001
0010
,  // measure 61
0100
0100
0010
0001
,  // measure 62
1000
1000
0010
1000
,  // measure 63
0001
0001
0010
0001
,  // measure 64
0100
0100
0010
1000
,  // measure 65
0100
0100
0010
0001
,  // measure 66
0100
0100
0010
1000
,  // measure 67
0200
0320
0032
1003
,  // measure 68
1001
0000
0000
0000
;

//---------------dance-single - ----------------
#NOTEDATA:;
#CHARTNAME:;
#STEPSTYPE:dance-single;
#DESCRIPTION:;
#CHARTSTYLE:;
#DIFFICULTY:Beginner;
#METER:3;
#RADARVALUES:0.190325,0.221736,0.037267,0.055900,0.000000,143.000000,139.000000,4.000000,6.000000,0.000000,0.000000,0.000000,0.000000,0.000000,0.190325,0.221736,0.037267,0.055900,0.000000,143.000000,139.000000,4.000000,6.000000,0.000000,0.000000,0.000000,0.000000,0.000000;
#CREDIT:;
#NOTES:
0000
0000
0000
0000
,
0000
0000
0000
0000
,
0000
0000
0000
0000
,
0000
0000
0000
0000
,
0000
0000
0000
0000
,
0000
0000
0000
0000
,
1000
0000
1000
0000
,
0001
0000
0001
0000
,
0010
0000
0100
0000
,
0010
0000
0100
0000
,
0010
0000
0100
0000
,
1000
0000
0001
0000
,
1000
0000
0010
0000
,
0100
0100
0100
0000
,
0001
0000
0010
0000
,
0100
0100
0100
0000
,
1000
0000
0010
0000
,
0100
0000
0001
0000
,
1000
0000
0001
0000
,
0010
0010
0010
0000
,
0001
0001
0001
0000
,
0100
0000
0100
0000
,
0010
0100
0010
0000
,
2002
0000
3003
0000
,
0001
0000
0100
0000
,
0010
0010
0010
0000
,
1000
0000
0100
0000
,
0010
0010
0010
0000
,
0001
0000
0100
0000
,
0010
0000
1000
0000
,
0001
0000
0010
0000
,
0100
0100
0100
0000
,
1000
1000
1000
0000
,
0010
0000
0010
0000
,
0100
0010
0100
0000
,
2002
0000
3003
0000
,
1000
0000
0100
0000
,
1000
0000
0100
0000
,
0010
0000
0001
0000
,
0100
0000
0010
0010
,
0010
0000
1000
0000
,
0001
0000
0010
0000
,
0001
0000
1000
0000
,
0010
0000
1000
1000
,
1000
0000
0001
0000
,
0010
0010
0010
0000
,
0001
0000
1000
0000
,
0010
0010
0010
0000
,
1000
0000
0100
0000
,
0010
0000
0001
0000
,
0100
0000
0010
0000
,
1000
1000
1000
0000
,
0100
0100
0100
0000
,
0010
0000
0001
0000
,
0100
0010
0100
0000
,
2002
0000
3003
0000
,
0001
0000
0001
0000
,
1000
0000
1000
0000
,
0001
0000
0001
0000
,
1000
0000
1000
0000
,
0100
0000
0010
0000
,
0100
0000
0010
0000
,
0001
0000
0001
0000
,
1000
0000
1000
0000
,
0010
0000
0100
0000
,
0010
0000
0100
0000
,
0010
0000
0100
0000
,
0001
0000
1000
0000
,
1001
0000
0000
0000
;
