#VERSION:0.83;
#TITLE:How to Get a Number One Song;
#SUBTITLE:(ft. Roomie);
#ARTIST:Boyinaband;
#TITLETRANSLIT:;
#SUBTITLETRANSLIT:;
#ARTISTTRANSLIT:;
#GENRE:Educational Pop;
#ORIGIN:;
#CREDIT:;
#BANNER:How to Get a Number One Song.png;
#BACKGROUND:How to Get a Number One Song-bg.png;
#PREVIEWVID:;
#JACKET:How to Get a Number One Song-jacket.png;
#CDIMAGE:;
#DISCIMAGE:;
#LYRICSPATH:;
#CDTITLE:cdtitle.png;
#MUSIC:How to Get a Number One Song.ogg;
#OFFSET:3.722319;
#SAMPLESTART:50.275677;
#SAMPLELENGTH:16.153847;
#SELECTABLE:YES;
#BPMS:0.000=130.000;
#STOPS:220.000=1.385;
#DELAYS:;
#WARPS:;
#TIMESIGNATURES:0.000=4=4;
#TICKCOUNTS:0.000=4;
#COMBOS:0.000=1;
#SPEEDS:0.000=1.000=0.000=0;
#SCROLLS:0.000=1.000;
#FAKES:;
#LABELS:0.000=Song Start;
#BGCHANGES:3.438=How to Get a Number One Song.avi=1.000=1=0=0=StretchNoLoop==CrossFade==,
99999=-nosongbg-=1.000=0=0=0 // don't automatically add -songbackground-
;
#KEYSOUNDS:;
#ATTACKS:
;

//---------------dance-single - ----------------
#NOTEDATA:;
#CHARTNAME:;
#STEPSTYPE:dance-single;
#DESCRIPTION:;
#CHARTSTYLE:;
#DIFFICULTY:Hard;
#METER:11;
#RADARVALUES:0.477149,0.489394,0.420270,0.339166,0.025806,453.000000,396.000000,57.000000,46.000000,0.000000,0.000000,0.000000,0.000000,0.000000,0.477149,0.489394,0.420270,0.339166,0.025806,453.000000,396.000000,57.000000,46.000000,0.000000,0.000000,0.000000,0.000000,0.000000;
#CREDIT:;
#OFFSET:3.722319;
#BPMS:0.000000=130.000000
;
#STOPS:228.000000=1.384613
;
#DELAYS:;
#WARPS:;
#TIMESIGNATURES:0.000000=4=4
;
#TICKCOUNTS:0.000000=4
;
#COMBOS:0.000000=1
;
#SPEEDS:0.000000=1.000000=0.000000=0
;
#SCROLLS:0.000000=1.000000
;
#FAKES:;
#LABELS:0.000000=Song Start
;
#NOTES:
0000
0000
0000
0000
,
0000
0000
0000
0000
,
0000
0000
0000
0000
,
0000
0000
0000
0000
,
0000
0000
0000
0000
,
0000
0000
0000
0000
0000
1000
0100
0010
,
0011
0101
1010
1100
,
0101
0001
0100
0010
1000
0100
0010
0001
,
0100
0000
0110
0000
1001
0000
0001
0100
,
0001
0010
1000
0010
0001
0100
0010
1000
,
1010
1100
0011
0101
,
1100
1000
0001
0100
0010
0010
0010
1000
,
0001
0000
1100
0000
0001
0100
0001
0010
,
0100
1000
0010
0001
0010
1000
0100
1000
,
0001
0000
0101
0000
0001
0100
1000
0100
,
0001
0000
1100
0000
1000
0100
0001
0100
,
1000
0000
0001
0100
0010
1000
0100
0010
,
0001
0100
0000
1010
0000
1001
0000
0011
,
0010
0000
0001
0010
1000
0010
0001
0000
,
0110
0000
1000
0010
0001
0010
1000
0000
,
0001
0100
0010
1000
0100
0001
0100
1000
,
0000
0100
0000
1100
0000
1001
0000
0101
,
0000
0001
0100
0010
0100
0002
0000
0003
,
0000
1000
0100
0010
0200
0000
0300
1000
,
0001
0000
0000
0100
0000
0000
0010
0000
1000
0000
0100
0000
0010
0000
0001
0000
,
0010
0001
0100
0010
1000
0100
0010
0002
,
0003
1000
0100
0010
0100
2000
0001
3000
,
1000
0001
0100
0010
0200
0000
0310
0100
,
0001
0000
0001
0000
0001
0010
1000
0010
,
0002
0003
0000
0000
,
1001
0000
1001
0000
0010
0001
0100
0010
,
0000
2001
0000
3100
0010
0000
0100
1000
,
1001
0000
0101
0000
1100
0000
1000
0100
,
0000
0010
0000
1002
0000
0013
0001
0100
,
0110
0000
1000
0010
0001
0010
1000
0100
,
0000
0120
0000
0031
0000
0001
0100
0020
,
0000
1030
0100
0020
0000
0031
0100
0010
,
1000
0001
0010
0000
0220
0000
0330
0000
,
0000
0000
0001
0000
0000
0010
0000
0000
0001
0000
0000
1000
0000
0000
0001
0000
,
0100
0000
0000
0001
0000
0000
1000
0000
0100
0000
0000
0000
0100
0000
0000
0000
,
0000
0000
1000
0000
0000
0010
0000
0000
1000
0000
0000
0001
0000
0000
1000
0000
,
0100
0000
0000
1000
0000
0000
0001
0000
0100
0000
0000
0000
0110
0000
0000
0000
,
0002
0000
1003
0002
0000
1003
0001
0100
,
0020
0000
0130
0002
0000
1003
0100
0010
,
0001
0100
0010
0100
0010
1000
0100
0010
,
0002
0000
1003
0200
0000
1000
0320
0000
,
0031
0100
0001
0100
0010
1000
0100
0010
,
0002
0000
0103
0020
0000
1030
0200
0000
,
1300
0100
0010
0001
0100
1000
0100
0001
,
0020
0000
0130
2000
0000
3002
0000
0000
,
1003
1000
0010
0000
0100
0010
1000
0000
,
0002
0010
2003
0010
,
3001
0001
0010
0000
0100
0010
0001
0000
,
0010
0001
1000
0010
1000
0001
0010
0000
,
0001
0100
0010
1000
0100
0010
0001
0100
,
0010
0100
0001
0010
0100
1000
0010
1000
,
0100
1000
0010
0100
0001
0010
1000
0010
,
0001
2002
3003
0110
,
1000
0001
1000
0000
2002
0000
3003
0000
,
0012
0000
0103
0000
0001
0001
0100
0100
,
0010
2001
0000
3001
1000
0100
0110
0000
,
0110
0000
0001
0010
1000
0010
0001
0012
,
0000
1003
2010
0000
3001
0102
0000
0013
,
0100
1000
1100
0000
0001
0001
0100
0010
,
1000
0100
0011
0000
1010
0000
2002
0000
,
3003
0000
1001
0000
1001
0000
0010
1000
,
0100
0010
0000
1002
0000
0013
0001
0100
,
0100
0010
1000
0000
1010
0000
0011
0000
,
1000
0100
0000
1000
0000
2001
0000
3010
,
0010
1000
0100
1000
0100
0010
1000
0010
,
0001
0100
0000
0210
0000
0310
0000
0100
,
0001
0020
0000
0130
1000
0002
0000
0000
,
1003
0100
0001
0100
1000
0000
1010
0000
,
0101
2002
0000
3003
;

//---------------dance-single - ----------------
#NOTEDATA:;
#CHARTNAME:;
#STEPSTYPE:dance-single;
#DESCRIPTION:;
#CHARTSTYLE:;
#DIFFICULTY:Medium;
#METER:8;
#RADARVALUES:0.360232,0.407828,0.199075,0.228568,0.000000,342.000000,315.000000,27.000000,31.000000,0.000000,0.000000,0.000000,0.000000,0.000000,0.360232,0.407828,0.199075,0.228568,0.000000,342.000000,315.000000,27.000000,31.000000,0.000000,0.000000,0.000000,0.000000,0.000000;
#CREDIT:;
#OFFSET:3.722319;
#BPMS:0.000000=130.000000
;
#STOPS:228.000000=1.384613
;
#DELAYS:;
#WARPS:;
#TIMESIGNATURES:0.000000=4=4
;
#TICKCOUNTS:0.000000=4
;
#COMBOS:0.000000=1
;
#SPEEDS:0.000000=1.000000=0.000000=0
;
#SCROLLS:0.000000=1.000000
;
#FAKES:;
#LABELS:0.000000=Song Start
;
#NOTES:
0000
0000
0000
0000
,
0000
0000
0000
0000
,
0000
0000
0000
0000
,
0000
0000
0000
0000
,
0000
0000
0000
0000
,
0000
0000
0000
0000
0000
1000
0100
0010
,
0001
0100
1000
0100
,
0001
0010
0100
1000
0001
0000
1000
0001
,
0010
0000
0001
0000
0001
0000
0010
0001
,
0100
0000
0010
0000
1000
0001
0010
0100
,
1000
0100
0001
0100
,
1000
0001
0100
0000
0001
1000
0001
0000
,
0010
0000
0010
0000
0001
0100
0001
0000
,
1000
0100
0010
0100
1000
0000
0001
0000
,
1001
0000
1000
0000
0010
1000
0100
0000
,
1001
0000
0001
0000
0010
0001
0100
0000
,
0010
0000
1000
0001
1000
0000
0001
0100
,
0010
1000
0000
1001
0000
0110
0000
1000
,
0001
0000
0100
0000
0010
1000
0100
0000
,
1001
0000
0010
0000
0100
0001
0010
0000
,
0001
1000
0001
0000
1000
0100
0010
0001
,
0000
0100
0000
0110
0000
0110
0000
1001
,
0000
0100
0200
0300
,
0000
0010
0020
0030
,
0001
0001
1000
1000
,
0010
0000
1000
0000
0100
0010
0100
0000
,
1000
0000
0001
0000
0001
0100
0001
0000
,
1000
0000
1000
0010
1000
0000
0001
0000
,
0010
0000
0010
0000
0001
0010
0001
1000
,
0020
0030
0000
0000
,
1000
0000
1000
0000
0010
0000
0100
0001
,
0000
1002
0000
0000
0013
0000
0001
1000
,
0010
0000
0010
0000
0010
0000
1000
0001
,
0000
0010
0000
0210
0000
1300
0001
0000
,
0100
0000
0010
0000
1000
0100
1000
0001
,
0000
1002
0000
0000
0103
0010
1000
0020
,
0000
0130
0001
0200
0000
0301
1000
0000
,
0001
1000
0100
0000
2002
0000
3003
0000
,
1000
0100
0001
0010
,
0001
0100
1000
1000
,
0001
0100
1000
0010
,
1000
0100
0001
1001
,
1000
0000
1000
0000
,
0100
0010
0001
0100
,
0001
0000
0001
0000
,
1000
0010
1000
0200
,
0310
0000
0010
0000
,
0001
1000
0010
0100
,
0001
0000
0001
0000
,
1000
0001
0100
0020
,
1030
0001
1000
0000
0001
0000
0010
0000
,
0100
1000
0010
0000
0100
0001
0010
0000
,
0100
0000
0100
0000
0010
0001
1000
0000
,
0001
0100
0010
0000
1000
0100
0010
0000
,
0001
1000
0001
1000
0010
0000
0100
0000
,
0001
0010
0001
0010
0100
0000
1000
0000
,
0010
1000
0100
1000
0100
0010
0001
0000
,
0100
2002
0000
3003
,
0001
1000
0001
0000
2002
0000
3003
0000
,
0220
0000
0330
0000
1000
0000
0001
0010
,
0100
2000
0000
3001
0100
0010
1000
0000
,
1010
0000
0010
1000
0001
0000
0010
0020
,
0000
0031
0002
0000
1003
2000
0000
3010
,
1000
0000
1001
0000
0001
0100
0010
1000
,
0100
0011
1010
0022
,
0033
0001
0001
0100
,
0010
1000
0000
2001
0000
0000
3100
0000
,
0010
0001
1000
0000
1000
0000
1000
0000
,
0010
0100
0000
0001
0000
1002
0000
0000
,
0013
0100
1000
0001
1000
0000
0001
0100
,
0010
0100
0000
0120
0000
0000
1030
0001
,
0010
0002
0000
1003
0010
2000
0000
0000
,
3100
0010
0100
0010
0100
0000
1100
0000
,
0011
2002
0000
3003
;

//---------------dance-single - ----------------
#NOTEDATA:;
#CHARTNAME:;
#STEPSTYPE:dance-single;
#DESCRIPTION:;
#CHARTSTYLE:;
#DIFFICULTY:Easy;
#METER:5;
#RADARVALUES:0.240154,0.326262,0.125344,0.169583,0.000000,228.000000,211.000000,17.000000,23.000000,0.000000,0.000000,0.000000,0.000000,0.000000,0.240154,0.326262,0.125344,0.169583,0.000000,228.000000,211.000000,17.000000,23.000000,0.000000,0.000000,0.000000,0.000000,0.000000;
#CREDIT:;
#OFFSET:3.722319;
#BPMS:0.000000=130.000000
;
#STOPS:228.000000=1.384613
;
#DELAYS:;
#WARPS:;
#TIMESIGNATURES:0.000000=4=4
;
#TICKCOUNTS:0.000000=4
;
#COMBOS:0.000000=1
;
#SPEEDS:0.000000=1.000000=0.000000=0
;
#SCROLLS:0.000000=1.000000
;
#FAKES:;
#LABELS:0.000000=Song Start
;
#NOTES:
0000
0000
0000
0000
,
0000
0000
0000
0000
,
0000
0000
0000
0000
,
0000
0000
0000
0000
,
0000
0000
0000
0000
,
0000
0000
0000
0000
,
1000
1000
0001
0001
,
0100
0000
0001
0000
,
1000
1000
0100
0000
,
0010
0001
1000
0000
,
0001
0001
1000
1000
,
0100
0000
0010
0010
,
0010
0000
0001
0000
,
1000
0001
0100
0100
,
0010
1000
0100
0000
,
0010
0001
0100
0000
,
0000
0010
0010
1000
,
0001
0000
1001
1001
,
0001
0100
0010
0000
,
1000
0100
0010
0000
,
0001
0010
1000
0010
,
0001
0000
1001
1001
,
0110
1000
2000
3000
,
0000
0001
0002
0003
,
0010
0000
0010
0000
,
0001
0100
0010
1000
,
0001
1000
0200
0300
,
1000
0001
0200
0300
,
0001
0010
0100
1000
,
2002
3003
0000
0000
,
0001
0001
0010
0100
,
1000
2000
3000
0001
,
1000
1000
0010
0100
,
0001
1000
2000
3000
,
0100
0100
0010
0001
,
0100
0200
0300
0010
,
1000
0010
0001
0010
,
1000
1000
2000
3000
,
0001
0000
0010
0000
,
1000
0000
0100
0100
,
1000
0000
0010
0000
,
0001
0000
0100
1001
,
0001
0000
0001
0000
,
0001
0100
0001
0000
,
1000
0000
1000
0000
,
0001
0010
0001
0000
,
1000
0000
1000
0000
,
1000
0100
1000
0000
,
0001
0000
0001
0000
,
1000
0010
1000
0000
,
1000
1000
1000
0000
,
0001
0100
1000
0100
,
0001
0001
0001
0000
,
1000
0100
0001
0100
,
1000
1000
0010
0010
,
0100
0100
0001
0001
,
1000
0100
0001
0010
,
1000
2002
0000
3003
,
0010
0010
0220
0330
,
2002
3003
1000
0100
,
0010
0001
0100
0010
,
0010
1000
0001
0011
,
0000
1100
0000
0011
,
0000
1000
0010
0100
,
0001
0101
1010
0202
,
0303
1000
1000
0010
,
0100
0001
0002
0003
,
1000
0001
0001
0010
,
0100
1000
0001
0002
,
0003
0100
0100
0010
,
1000
0100
0200
0300
,
0010
0001
0010
1000
,
0010
0001
0100
0010
,
1000
2002
0000
3003
;

//---------------dance-single - ----------------
#NOTEDATA:;
#CHARTNAME:;
#STEPSTYPE:dance-single;
#DESCRIPTION:;
#CHARTSTYLE:;
#DIFFICULTY:Beginner;
#METER:2;
#RADARVALUES:0.145357,0.274650,0.058985,0.029493,0.000000,138.000000,130.000000,8.000000,4.000000,0.000000,0.000000,0.000000,0.000000,0.000000,0.145357,0.274650,0.058985,0.029493,0.000000,138.000000,130.000000,8.000000,4.000000,0.000000,0.000000,0.000000,0.000000,0.000000;
#CREDIT:;
#OFFSET:3.722319;
#BPMS:0.000000=130.000000
;
#STOPS:;
#DELAYS:;
#WARPS:;
#TIMESIGNATURES:0.000000=4=4
;
#TICKCOUNTS:0.000000=4
;
#COMBOS:0.000000=1
;
#SPEEDS:0.000000=1.000000=0.000000=0
;
#SCROLLS:0.000000=1.000000
;
#FAKES:;
#LABELS:0.000000=Song Start
;
#NOTES:
// measure 0
0000
0000
0000
0000
,  // measure 1
0000
0000
0000
0000
,  // measure 2
0000
0000
0000
0000
,  // measure 3
0000
0000
0000
0000
,  // measure 4
0000
0000
0000
0000
,  // measure 5
0000
0000
0000
0000
,  // measure 6
0001
0001
0001
0001
,  // measure 7
0001
0000
0001
0000
,  // measure 8
1000
0000
1000
0000
,  // measure 9
0001
0000
0001
0000
,  // measure 10
1000
1000
1000
1000
,  // measure 11
1000
0000
1000
0000
,  // measure 12
0001
0000
0001
0000
,  // measure 13
1000
0000
1000
0000
,  // measure 14
0100
0000
0100
0000
,  // measure 15
0010
0000
0010
0000
,  // measure 16
0001
0000
1000
0000
,  // measure 17
0001
0000
1000
1000
,  // measure 18
1000
0000
0001
0000
,  // measure 19
0100
0000
0001
0000
,  // measure 20
1000
0000
0001
0000
,  // measure 21
0010
0000
0010
0010
,  // measure 22
0010
0000
0000
0000
,  // measure 23
0001
0000
0000
0000
,  // measure 24
1000
0000
0000
0000
,  // measure 25
0001
0000
0000
0000
,  // measure 26
0100
0000
0100
0000
,  // measure 27
0010
0000
0010
0000
,  // measure 28
1000
0000
0001
0000
,  // measure 29
1000
0000
0000
0000
,  // measure 30
1000
0000
1000
1000
,  // measure 31
1000
0000
0000
0000
,  // measure 32
0001
0000
0001
0000
,  // measure 33
0100
0100
0100
0000
,  // measure 34
0001
0000
0010
0010
,  // measure 35
0010
0000
0000
0000
,  // measure 36
0001
0000
1000
0000
,  // measure 37
0001
0001
0001
0000
,  // measure 38
1000
0000
1000
0000
,  // measure 39
1000
0000
1000
0000
,  // measure 40
0001
0000
0001
0000
,  // measure 41
0001
0000
0001
0000
,  // measure 42
1000
0000
0000
0000
,  // measure 43
0010
0000
0000
0000
,  // measure 44
0100
0000
0000
0000
,  // measure 45
0001
0000
0000
0000
,  // measure 46
0001
0000
0000
0000
,  // measure 47
0010
0000
0000
0000
,  // measure 48
0100
0000
0000
0000
,  // measure 49
1000
0000
0000
0000
,  // measure 50
1000
0000
1000
0000
,  // measure 51
0001
0000
0001
0000
,  // measure 52
0100
0000
0100
0000
,  // measure 53
0010
0000
0010
0000
,  // measure 54
1000
0000
0001
0000
,  // measure 55
1000
0000
0001
0000
,  // measure 56
1000
0000
0100
0000
,  // measure 57
0010
0000
0000
0000
,  // measure 58
2002
0000
3003
0000
,  // measure 59
1001
0000
0000
0000
,  // measure 60
0110
0000
0000
0000
,  // measure 61
0110
0000
0000
0000
,  // measure 62
0001
0000
0001
0000
,  // measure 63
1000
0000
1000
0000
,  // measure 64
0001
0000
0010
0000
,  // measure 65
1001
1001
1001
0000
,  // measure 66
0001
0000
0001
0001
,  // measure 67
0001
0000
0000
0000
,  // measure 68
1000
0000
1000
0000
,  // measure 69
0010
0010
0010
0000
,  // measure 70
0100
0000
0001
0001
,  // measure 71
0001
0000
0000
0000
,  // measure 72
1000
0000
1000
0000
,  // measure 73
0100
0100
0100
0000
,  // measure 74
2002
0000
3003
0000
;

//---------------dance-single - ----------------
#NOTEDATA:;
#CHARTNAME:;
#STEPSTYPE:dance-single;
#DESCRIPTION:;
#CHARTSTYLE:;
#DIFFICULTY:Challenge;
#METER:13;
#RADARVALUES:0.584587,0.704506,0.412897,0.486629,0.361285,555.000000,495.000000,56.000000,66.000000,0.000000,3.000000,0.000000,0.000000,0.000000,0.584587,0.704506,0.412897,0.486629,0.361285,555.000000,495.000000,56.000000,66.000000,0.000000,3.000000,0.000000,0.000000,0.000000;
#CREDIT:;
#OFFSET:3.722319;
#BPMS:0.000000=130.000000
,255.000000=65.000000
,255.500000=130.000000
,256.500000=13000.000000
,256.750000=130.000000
,257.750000=65.199997
,258.250000=13000.000000
,258.500000=65.199997
,259.000000=130.000000
;
#STOPS:228.000000=1.384613
;
#DELAYS:;
#WARPS:;
#TIMESIGNATURES:0.000000=4=4
;
#TICKCOUNTS:0.000000=4
;
#COMBOS:0.000000=1
;
#SPEEDS:0.000000=1.000000=0.000000=0
;
#SCROLLS:0.000000=1.000000
,255.000000=2.000000
,255.500000=1.000000
,256.500000=0.010000
,256.750000=1.000000
,257.750000=2.000000
,258.250000=0.010000
,258.500000=2.000000
,259.000000=1.000000
;
#FAKES:;
#LABELS:0.000000=Song Start
;
#NOTES:
0000
0000
0000
0000
,
0000
0000
0000
0000
,
0000
0000
0000
0000
,
0000
0000
0000
0000
,
0000
0000
0000
0000
,
0000
0000
0000
0000
0000
1000
0100
0010
,
0002
0203
2300
3020
,
0031
1000
0100
0001
0100
1000
0010
0100
,
0001
0000
0101
0000
1001
0000
0001
0100
,
1000
0100
0001
0010
0100
1000
0010
1000
,
0002
0023
2030
3200
,
0301
0000
1000
0001
1000
0000
0001
0010
0100
0000
0100
0000
0100
0000
1000
0000
,
0001
0000
1001
0000
1000
0100
0001
0100
,
1000
0000
0010
0000
0001
0000
0010
0000
1000
0000
0100
0010
0100
0010
0100
0010
,
0001
0000
0100
0010
0000
0100
0000
0010
0000
0010
0000
0100
0010
1000
0001
0000
,
1000
0000
0100
0010
0000
0100
0000
0100
0000
0010
0000
0100
0010
0001
1000
0000
,
0000
0000
0001
0100
0001
0100
0001
1000
0000
0001
0000
0001
0000
0010
0001
0000
,
1000
0010
0100
0000
0001
0000
2002
0000
3003
0000
2200
0000
3300
0000
0012
0000
,
0013
0000
0001
0100
0000
0100
0000
0010
1000
0000
0001
0000
1000
0100
1000
0100
,
0010
0000
0001
0100
0000
0100
0000
0010
1000
0000
0100
0000
0010
0001
0010
0001
,
1000
0010
1000
0000
0001
1000
0001
1000
0200
0000
0302
0000
0203
0000
2300
0000
,
0000
3020
0030
2020
3030
2002
3003
0202
,
0303
0001
1000
0100
0010
0001
0000
0000
,
0000
0001
0100
0010
1000
0000
0000
1000
,
0100
0010
0100
0010
0000
0100
0000
0010
0001
0000
0100
0000
0010
0000
1000
0000
,
0010
1000
0100
0010
0001
0100
0010
1000
,
0001
1000
0100
0010
0100
1000
0001
0100
,
0001
1000
0100
0010
0001
0100
0001
0010
,
0100
0010
0100
0010
0001
0100
1000
0100
,
0020
0000
0130
0001
1000
0100
0010
0001
,
1001
0000
1001
0000
0001
0100
0010
1000
,
0000
2001
0000
3100
0010
0100
1000
0001
,
1001
0000
0110
0000
1001
0000
1000
0100
,
0000
0010
0000
1002
0000
0103
0100
0100
,
0110
0000
0100
0001
0010
1000
0010
0100
,
0000
0120
0000
0031
0100
0010
1000
0200
,
0000
0310
0001
0200
0000
1300
0100
0001
,
1000
0100
0010
0000
2002
0000
3003
0000
,
1000
0000
0001
0000
1000
0001
0000
0000
1000
0000
0000
0100
1000
0000
0100
0000
,
1000
0000
0000
0000
0000
0000
0000
0000
0000
0010
0000
0000
1000
0000
0000
0000
0000
0000
0100
0000
0000
0000
0000
0000
1000
0000
0000
0000
0100
0000
0000
0000
0010
0000
0000
0000
0001
0000
0000
0000
0000
0000
0000
0000
0000
0000
0000
0000
,
0001
0000
1000
0000
0001
1000
0000
0000
0001
0000
0000
0100
0001
0000
0100
0000
,
0001
0000
0000
0000
0000
0000
0000
0000
0000
0010
0000
0000
0001
0000
0000
0000
0000
0000
0100
0000
0000
0000
0000
0000
0001
0000
0000
0000
0100
0000
0000
0000
0010
0000
0000
0000
1001
0000
0000
0000
0000
0000
0000
0000
0000
0000
0000
0000
,
0002
0000
0103
0002
0000
0103
0001
1000
,
0200
0000
1300
0200
0000
1300
0001
0100
,
0010
1000
0010
1000
0001
0100
0010
1000
,
0200
0000
0010
0320
0000
0001
0230
0000
,
1300
0001
1000
0001
0100
0010
1000
0100
,
0020
0000
0031
0200
0000
0310
1000
0000
,
1000
0100
0001
0100
1000
0100
0001
0100
,
2000
0000
3010
0002
0000
0023
0000
0000
,
1030
0010
1000
0010
1000
0100
0000
0010
0000
0100
1000
0010
0000
1000
0000
0000
,
1000
0000
0100
0000
0010
0000
0001
0000
0000
0011
0000
0000
0001
0000
0100
0000
0010
0000
1000
0000
0000
1010
0000
0000
,
0001
0010
0000
0001
0000
0100
0001
0010
0000
0001
0000
0000
1000
0000
0001
0100
,
0010
0100
0010
0100
0001
0100
0001
0100
0010
1000
0001
0010
0000
0010
0000
0001
,
0100
0001
0100
0010
0000
1000
0000
0100
0000
0010
0001
0000
0100
0000
0010
0000
,
1000
0100
1000
0100
0000
0010
0001
0000
0100
0000
0010
1000
0000
0001
0000
1000
,
0100
0000
0000
0000
0000
0000
0010
0000
0000
0100
0000
0000
0000
0000
0000
0010
0000
0000
0001
0000
0000
0000
0000
0000
0010
0000
0000
0000
0001
0000
0000
0000
0100
0000
0000
0000
1000
0000
0000
0000
0000
0000
0100
0000
0000
0000
0000
0000
,
0001
0000
0000
0000
1000
0001
1000
0001
1000
0001
1000
0001
1000
0000
0000
0000
,
0001
0100
1001
0000
1001
0000
1000
0100
,
0220
0330
0001
0100
2010
3001
2100
0010
,
3010
0102
0000
0013
1100
0010
2002
3003
,
2002
3003
0101
0100
0110
0010
1010
2200
,
3300
0011
0202
0303
1010
2200
3300
0010
,
0001
0100
0110
0000
1001
0110
1001
0000
,
0000
0000
1011
0100
0000
0000
0000
1111
0000
0100
1011
0000
0000
0000
0000
0000
,
1001
0000
1001
0000
0010
1000
0100
0010
,
0000
1002
0000
0013
0001
0100
0100
0100
,
0100
0000
1010
0000
0011
0000
1000
0100
,
0000
1000
0000
2001
0000
3010
0010
0010
,
0010
1000
0100
0010
1000
0010
0001
0100
,
0000
0210
0000
0310
1000
0100
0010
0002
,
0000
0103
0010
2000
0000
3001
1000
0100
,
0001
0100
1000
0000
1010
0000
0101
0000
,
2002
0000
3003
0000
;
