#TITLE:Hong Kong Crunch;
#SUBTITLE:;
#ARTIST:TM2 Music Team;
#TITLETRANSLIT:;
#SUBTITLETRANSLIT:;
#ARTISTTRANSLIT:;
#GENRE:Asian Electronica;
#CREDIT:;
#BANNER:Hong Kong Crunch.png;
#BACKGROUND:Hong Kong Crunch-bg.png;
#LYRICSPATH:;
#CDTITLE:cdtitle.png;
#MUSIC:Hong Kong Crunch.ogg;
#OFFSET:0.092050;
#SAMPLESTART:83.869049;
#SAMPLELENGTH:13.667755;
#SELECTABLE:YES;
#BPMS:0.000000=122.917000
;
#STOPS:
;
#BGCHANGES:;
#KEYSOUNDS:;
#ATTACKS:;

//---------------dance-single - ----------------
#NOTES:
     dance-single:
     :
     Challenge:
     15:
     0.665442,0.770440,0.580247,0.402950,0.906637,578.000000,506.000000,72.000000,50.000000,76.000000,0.000000,0.665442,0.770440,0.580247,0.402950,0.906637,578.000000,506.000000,72.000000,50.000000,76.000000,0.000000:
// measure 0
0000
0000
0000
0000
,  // measure 1
0000
0000
0000
0000
,  // measure 2
1000
0000
0000
0100
0000
0000
0020
0000
0000
0000
0031
0000
0100
0010
1000
0000
,  // measure 3
0001
0010
0001
0010
0001
0000
1000
0000
0001
0000
0100
0000
0000
0000
0000
0000
,  // measure 4
0220
0000
0000
0000
,  // measure 5
000M
0000
0000
000M
0000
0000
000M
0000
0000
0000
0000
0000
0000
0000
0000
0000
,  // measure 6
M000
0000
0000
M000
0000
0000
M000
0000
0000
0000
0030
0000
0000
0000
1300
0100
,  // measure 7
M001
0000
0000
110M
0000
0000
M101
0000
0001
0100
0001
0100
0001
0000
0010
0100
,  // measure 8
100M
0000
0000
M101
0000
0000
110M
0000
1000
0010
1000
0010
0100
0000
0010
1000
,  // measure 9
0001
0010
0001
0000
0001
1000
0001
0000
0001
0100
0001
0000
0001
0010
0100
1000
,  // measure 10
002M
0000
0000
M100
0000
0000
010M
0000
M130
0000
0010
0000
1000
0000
0100
0000
,  // measure 11
0011
0000
0000
0110
0000
0000
1200
0000
0000
0000
0310
0000
0100
1000
0001
0100
,  // measure 12
0010
0000
0000
1010
0000
0000
1002
0000
0000
0000
0013
0000
0001
0100
0010
1000
,  // measure 13
0100
0000
0000
0110
0000
0000
0021
0000
0000
0000
0130
0000
1000
0010
0100
0001
,  // measure 14
1000
0100
0010
0000
0010
0100
0001
0000
0001
0100
0010
0000
0010
0100
1000
0001
,  // measure 15
0101
0000
0000
0110
0000
0000
2010
0000
0000
0000
3100
0000
0001
0100
0010
0100
,  // measure 16
1000
0000
0000
0110
0000
0000
0012
0000
0000
0000
0103
0000
1000
0100
0010
0100
,  // measure 17
0001
0000
0000
0011
0000
0000
0110
0000
0000
1100
0000
0000
1010
0000
0110
0000
,  // measure 18
0101
0000
0000
0001
0000
0100
0001
0010
0000
00M0
0000
0010
0001
1000
0001
1000
,  // measure 19
0010
0000
0000
1000
0000
0100
1000
0010
0000
00M0
0000
0010
1000
0001
1000
0001
,  // measure 20
0010
0000
0000
0001
0000
0010
0001
0100
0000
0M00
0000
0100
0001
1000
0001
1000
,  // measure 21
0010
0000
0000
1000
0000
0010
1000
0100
0000
0M00
0000
0100
1000
0001
1000
0001
,  // measure 22
M1M1
0000
0100
0010
1M1M
0000
1000
0001
0000
0001
0100
0010
1000
0100
0010
0001
,  // measure 23
MM11
0000
0001
1000
0001
0000
M1M1
0000
0001
1000
0001
0000
0M11
M011
0000
0001
,  // measure 24
1000
0000
0010
1000
0100
1000
0010
0100
0000
0100
0010
0100
0001
1000
0100
0010
,  // measure 25
0001
0000
0010
0001
0100
0001
0010
0100
0000
0100
0010
0100
1000
0001
0100
0010
,  // measure 26
1M1M
0000
0001
0100
0001
0000
MM11
0000
1000
0100
1000
0000
1M1M
0000
0001
1000
,  // measure 27
0100
0000
0010
0001
1000
0010
0100
0001
0000
0001
0100
0010
1000
0100
0010
0001
,  // measure 28
MM11
0000
1000
0100
1000
0000
1M1M
0000
0001
0100
0001
0000
M11M
0000
1000
0001
,  // measure 29
1000
0000
0001
0010
0100
0010
0001
0100
0000
0100
0010
1000
0100
0000
0001
0100
,  // measure 30
40M0
0M01
0000
0010
0000
0001
0000
0100
0000
0001
0000
0010
0000
0001
0000
0100
,  // measure 31
0000
0001
0000
0010
0000
0001
0000
0100
0000
0001
0000
0010
0000
0001
0000
3100
,  // measure 32
11MM
0000
0001
0100
M1M1
0000
0010
1000
0000
1000
0010
0100
0001
0010
0001
1000
,  // measure 33
1M1M
0000
1000
0001
1000
0000
11MM
0000
1000
0001
1000
0000
1M10
101M
0000
0010
,  // measure 34
1000
0000
0001
0010
0100
0010
0001
1000
0000
0001
0100
0010
1000
0100
0010
0100
,  // measure 35
1000
0000
0010
1000
0001
1000
0100
0010
0000
0100
0010
0001
1000
0001
0100
0010
,  // measure 36
M11M
0000
1000
0001
1000
0000
1MM1
0000
0100
0010
0100
0000
M11M
0000
0001
1000
,  // measure 37
0001
0000
0010
0100
0010
0001
1000
0010
0000
0100
0001
1000
0100
0010
0100
1000
,  // measure 38
1MM1
0000
0000
1M1M
0000
0000
M2M1
0000
,  // measure 39
0000
0000
0020
0000
0000
0000
0000
0000
0000
0000
0000
0000
0030
0000
1300
0100
,  // measure 40
00M4
1M00
0000
0010
0000
1000
0000
0100
0000
1000
0000
0010
0000
1000
0000
0100
,  // measure 41
0000
1000
0000
0010
0000
1000
0000
0100
0000
1000
0000
0010
0000
1000
0000
0103
,  // measure 42
M1M1
0000
0000
0011
0000
0000
210M
0000
00M0
0000
3001
1000
0100
0000
1000
0001
,  // measure 43
0101
0000
0000
1010
0000
0000
0102
0000
0000
0000
0013
0000
0100
1000
0010
1000
,  // measure 44
0100
0000
0000
0011
0000
0000
2100
0000
0000
0000
3010
0000
0100
0001
0010
0001
,  // measure 45
0100
0000
0000
1010
0000
0000
1002
0000
0000
0000
0103
0000
0010
1000
0100
0010
,  // measure 46
0001
0100
0010
0000
0010
0100
1000
0000
1000
0100
0010
0000
0010
1000
0001
0010
,  // measure 47
0011
0000
0000
1100
0000
0000
0201
0000
0000
0000
0310
0000
0001
0010
0100
0010
,  // measure 48
1000
0000
0000
0101
0000
0000
1200
0000
0000
0000
0310
0000
1000
0010
0100
0010
,  // measure 49
0001
0000
0000
0101
0000
0000
0110
0000
0000
1010
0000
0000
1100
0000
0110
0000
,  // measure 50
0012
0000
0000
0203
0000
0000
0320
0000
0000
0000
0032
0000
0013
0100
0002
0000
,  // measure 51
2003
0000
0000
3200
0000
0000
0320
0000
0000
0000
2030
0000
3010
0100
2000
0000
,  // measure 52
3002
0000
0000
0203
0000
0000
2300
0000
0000
0000
3200
0000
0310
0100
0002
0000
,  // measure 53
1003
0001
0010
0000
0010
0100
0001
0000
0001
0100
0010
0000
0010
0001
0100
0010
,  // measure 54
2010
0000
0000
3020
0000
0000
0032
0000
0000
2003
0000
0000
3100
0010
0200
0000
,  // measure 55
0302
0000
0000
0023
0000
0000
2030
0000
0000
0000
3002
0000
0103
0010
0100
1000
,  // measure 56
0002
0000
0000
0203
0000
0000
2300
0000
0000
0000
3200
0000
0320
0000
2030
3000
,  // measure 57
1001
0000
0000
1000
0000
0000
0100
0000
0000
0000
0100
0000
0001
0000
0010
0000
,  // measure 58
2000
3000
1MM1
M22M
,  // measure 59
0000
0000
0000
0330
;

//---------------dance-single - ----------------
#NOTES:
     dance-single:
     :
     Hard:
     11:
     0.394891,0.457449,0.265947,0.531893,0.282065,343.000000,310.000000,33.000000,66.000000,49.000000,0.000000,0.394891,0.457449,0.265947,0.531893,0.282065,343.000000,310.000000,33.000000,66.000000,49.000000,0.000000:
// measure 0
0000
0000
0000
0000
,  // measure 1
0000
0000
0000
0000
,  // measure 2
0001
0000
0000
0100
0000
0000
0020
0000
0000
0000
1030
0000
0001
1000
0001
0000
,  // measure 3
0010
0010
0100
1000
0010
0100
0000
0000
,  // measure 4
0220
0000
0000
0000
,  // measure 5
0000
0000
0000
0000
,  // measure 6
0000
0000
0000
0000
0000
0000
0000
0000
0000
0000
0030
0000
0000
0000
0310
1000
,  // measure 7
0001
0000
0000
0001
0000
0000
0001
0000
1000
0000
0100
0000
0010
0000
0100
0000
,  // measure 8
1000
0000
0000
1000
0000
0000
1000
0000
0001
0000
0100
0000
0010
0000
0100
0000
,  // measure 9
0001
0001
0010
0010
0100
0100
1000
1000
,  // measure 10
1002
0000
0000
0100
0000
0000
0100
0000
0103
0000
0000
0000
0100
0000
0001
0000
,  // measure 11
1000
0000
0000
0100
0000
0000
0020
0000
0000
0000
0130
0000
1000
0001
1000
0001
,  // measure 12
1000
0000
0000
0010
0000
0000
0200
0000
0000
0000
0310
0000
1000
0001
1000
0001
,  // measure 13
1000
0000
0000
0100
0000
0000
0020
0000
0000
0000
0031
0000
0100
0010
0100
0010
,  // measure 14
1000
1000
0100
0100
0001
0001
0100
0100
,  // measure 15
1000
0000
0000
0010
0000
0000
0002
0000
0000
0000
0013
0000
0100
0010
0100
0010
,  // measure 16
0100
0000
0000
0010
0000
0000
2000
0000
0000
0000
3001
0000
1000
0100
1000
0100
,  // measure 17
1000
0000
0000
0100
0000
0000
0001
0000
0000
0100
0000
0000
1000
0000
0001
0000
,  // measure 18
0200
0020
0000
0330
,  // measure 19
1001
0000
0000
1001
0000
0000
0000
0100
0000
0000
0000
0000
0100
0000
0000
0000
,  // measure 20
0011
0000
0000
1100
0000
0000
0000
0001
0000
0000
0000
0000
0001
0000
0000
0000
,  // measure 21
1010
0000
0000
0101
0000
0000
0000
1000
0000
0000
0000
0000
1000
0000
0000
0000
,  // measure 22
0110
0MM0
1001
M00M
0100
0000
0100
0000
,  // measure 23
2010
0000
30M0
0000
0001
0000
0012
0000
00M3
0000
1000
0000
0010
0100
00M0
0100
,  // measure 24
0002
2003
3200
0001
,  // measure 25
0010
0000
1000
0000
0310
0001
0100
0010
,  // measure 26
2010
30M0
0001
0102
0M03
1000
2100
3M00
,  // measure 27
0002
0203
1000
0310
,  // measure 28
0102
0M03
1000
2100
3M00
0001
0012
00M3
,  // measure 29
1000
0000
0020
0000
0130
0001
2000
3000
,  // measure 30
MM04
0040
0000
0000
0000
0000
0000
0000
0000
0000
0000
0000
0000
0000
0000
0000
,  // measure 31
0000
0000
0000
0000
0000
0000
0000
0000
0000
0000
0000
0000
0000
0030
0003
0000
,  // measure 32
1001
M00M
0110
0MM0
0001
0200
0310
0000
,  // measure 33
1020
0000
M030
0000
0100
0000
0102
0000
0M03
0000
1000
0000
0100
0010
0M00
0010
,  // measure 34
0001
0200
0001
0010
,  // measure 35
1000
0000
0010
0000
0301
0100
0010
1000
,  // measure 36
2001
300M
0100
0120
0M30
0001
1002
M003
,  // measure 37
0200
1000
0010
0301
,  // measure 38
1001
0000
0000
MMMM
0000
0000
0110
0000
0000
MMMM
0000
0000
1001
0000
0000
MMMM
,  // measure 39
0000
0200
0000
0000
0000
0000
0300
0000
,  // measure 40
4M0M
0040
0000
0000
0000
0000
0000
0000
0000
0000
0000
0000
0000
0000
0000
0000
,  // measure 41
0000
0000
0000
0000
0000
0000
0000
0000
0000
0000
0000
0000
0000
0030
3000
0000
,  // measure 42
1MM1
0000
0000
M11M
0000
0000
2MM1
0000
0000
0000
0100
0000
3100
0000
1000
0000
,  // measure 43
0001
0000
0000
0100
0000
0000
0020
0000
0000
0000
1030
0000
0100
0010
0100
0010
,  // measure 44
0100
0000
0000
1000
0000
0000
0002
0000
0000
0000
1003
0000
0010
0100
0010
0100
,  // measure 45
0010
0000
0000
1000
0000
0000
0002
0000
0000
0000
0013
0000
0100
0010
0100
0010
,  // measure 46
0001
0001
0100
0100
0010
0010
1000
1000
,  // measure 47
0001
0000
0000
0010
0000
0000
2000
0000
0000
0000
3010
0000
0100
0010
0100
0010
,  // measure 48
0100
0000
0000
0010
0000
0000
0002
0000
0000
0000
1003
0000
0001
0100
0001
0100
,  // measure 49
0001
0000
0000
0100
0000
0000
1000
0000
0000
0100
0000
0000
0001
0000
1000
0000
,  // measure 50
0200
0000
0000
0320
0000
0000
2030
0000
0000
0000
3010
0000
0100
0010
0100
0000
,  // measure 51
0020
0000
0000
0032
0000
0000
0203
0000
0000
0000
0310
0000
0100
0010
0100
0000
,  // measure 52
2000
0000
0000
3200
0000
0000
0320
0000
0000
0000
0130
0000
0001
1000
0001
0000
,  // measure 53
1000
1000
0100
0100
0001
0001
0100
0100
,  // measure 54
2000
0000
0000
3020
0000
0000
0032
0000
0000
0023
0000
0000
1030
0001
1000
0000
,  // measure 55
0200
0000
0000
0302
0000
0000
0203
0000
0000
0000
1300
0000
0010
1000
0010
1000
,  // measure 56
0002
0000
0000
2003
0000
0000
3200
0000
0000
0000
0320
0000
0230
0000
2300
0000
,  // measure 57
3001
0000
0000
0100
0000
0000
0010
0000
0000
0000
0100
0000
0010
0000
1000
0000
,  // measure 58
0002
0003
1MM1
M22M
,  // measure 59
0000
0000
0000
0330
;

//---------------dance-single - ----------------
#NOTES:
     dance-single:
     :
     Medium:
     8:
     0.255585,0.312991,0.241770,0.467422,0.169239,222.000000,192.000000,30.000000,58.000000,35.000000,0.000000,0.255585,0.312991,0.241770,0.467422,0.169239,222.000000,192.000000,30.000000,58.000000,35.000000,0.000000:
// measure 0
0000
0000
0000
0000
,  // measure 1
0000
0000
0000
0000
,  // measure 2
2002
0000
0000
3003
,  // measure 3
1000
0001
1000
0001
1000
0100
0000
0000
,  // measure 4
0120
0000
0000
0000
,  // measure 5
0000
0000
0000
0000
,  // measure 6
0000
0000
0000
0000
0000
0000
0000
0130
,  // measure 7
1000
0000
0000
0100
0000
0000
2000
0000
0000
0000
0000
0000
3001
0000
0000
0000
,  // measure 8
0001
0000
0000
0100
0000
0000
0002
0000
0000
0000
0000
0000
1003
0000
0000
0000
,  // measure 9
0001
0010
1000
0100
,  // measure 10
0202
0000
0000
0000
0303
0000
0100
0001
,  // measure 11
1000
0000
0000
1000
0000
0000
2000
0000
0000
0000
3100
0000
0010
0000
0000
0000
,  // measure 12
0001
0000
0000
0001
0000
0000
0002
0000
0000
0000
0103
0000
0010
0000
0000
0000
,  // measure 13
0100
0000
0000
0100
0000
0000
0200
0000
0000
0000
0301
0000
1000
0000
0000
0000
,  // measure 14
0100
0001
0010
1000
,  // measure 15
0100
0000
0000
0100
0000
0000
0200
0000
0000
0000
0310
0000
0001
0000
0000
0000
,  // measure 16
0100
0000
0000
0100
0000
0000
0200
0000
0000
0000
0310
0000
1000
0000
0000
0000
,  // measure 17
0001
0000
0000
1000
0000
0000
0001
0000
0000
1000
0000
0000
0001
0000
1000
0000
,  // measure 18
0200
0000
0000
0300
,  // measure 19
2000
0000
0000
0000
3100
0000
0010
0010
,  // measure 20
0002
0000
0000
0000
0103
0000
0010
0010
,  // measure 21
2000
0000
0000
0000
3001
0000
1000
0001
,  // measure 22
0110
1001
MMMM
0000
,  // measure 23
0012
0000
0000
00M3
0000
0000
1002
0000
0000
M003
0000
0000
0102
0000
1000
0M03
,  // measure 24
2000
3200
0020
0000
,  // measure 25
0000
0000
0000
0330
,  // measure 26
0021
0000
0000
003M
0000
0000
1200
0000
0000
M300
0000
0000
0102
0000
0000
0M03
,  // measure 27
2000
0020
0000
3030
,  // measure 28
1020
0000
0000
M030
0000
0000
2100
0000
0000
3M00
0000
0000
0012
0000
0000
00M3
,  // measure 29
1000
0002
0000
0203
,  // measure 30
0340
0000
0000
0000
,  // measure 31
0000
0000
0000
0000
0000
0000
0000
0030
,  // measure 32
0110
0000
1001
0000
MM0M
0020
0030
0000
,  // measure 33
2001
0000
0000
300M
0000
0000
2100
0000
0000
3M00
0000
0000
2010
0000
0001
30M0
,  // measure 34
0001
0000
2000
0000
0000
0000
0100
0100
,  // measure 35
0100
0000
0000
0000
0000
0000
3001
0001
,  // measure 36
0102
0000
0000
0M03
0000
0000
1200
0000
0000
M300
0000
0000
2010
0000
0000
30M0
,  // measure 37
0002
0000
0000
0003
,  // measure 38
0011
0000
0000
00MM
0000
0000
1100
0000
0000
MM00
0000
0000
1001
0000
0000
M00M
,  // measure 39
0000
0200
0000
0000
0000
0000
0300
0000
,  // measure 40
0040
0000
0000
0000
,  // measure 41
0000
0000
0000
0000
0000
0000
0000
0030
,  // measure 42
1MM1
0000
0000
M11M
0000
0000
2MM2
0000
0000
0000
0000
0000
3003
0000
0000
0000
,  // measure 43
0001
0000
0000
0001
0000
0000
0002
0000
0000
0000
0103
0000
0010
0000
0000
0000
,  // measure 44
1000
0000
0000
1000
0000
0000
2000
0000
0000
0000
3100
0000
0010
0000
0000
0000
,  // measure 45
0100
0000
0000
0100
0000
0000
0200
0000
0000
0000
1300
0000
0001
0000
0000
0000
,  // measure 46
0100
1000
0010
0001
,  // measure 47
0100
0000
0000
0100
0000
0000
0200
0000
0000
0000
0310
0000
1000
0000
0000
0000
,  // measure 48
0100
0000
0000
0100
0000
0000
0200
0000
0000
0000
0310
0000
0001
0000
0000
0000
,  // measure 49
1000
0000
0000
0001
0000
0000
1000
0000
0000
0001
0000
0000
1000
0000
0001
0000
,  // measure 50
0100
0000
0000
0010
0000
0000
2000
0000
0000
0000
3010
0000
1000
0000
0000
0000
,  // measure 51
0100
0000
0000
0010
0000
0000
0002
0000
0000
0000
0013
0000
0001
0000
0000
0000
,  // measure 52
1000
0000
0000
0001
0000
0000
0200
0000
0000
0000
0310
0000
1000
0000
0000
0000
,  // measure 53
0001
0010
1000
0100
,  // measure 54
0001
0000
0000
0010
0000
0000
0002
0000
0000
0103
0000
0000
0001
0000
0000
0000
,  // measure 55
1000
0000
0000
0010
0000
0000
2000
0000
0000
0000
3100
0000
1000
0000
0000
0000
,  // measure 56
0001
0000
0000
0100
0000
0000
0020
0000
0000
0000
1030
0000
0001
0000
1000
0000
,  // measure 57
0200
0000
0000
0000
,  // measure 58
0300
0M00
0000
0000
0110
0000
2002
0000
,  // measure 59
0000
0000
0000
3003
;

//---------------dance-single - ----------------
#NOTES:
     dance-single:
     :
     Easy:
     4:
     0.163482,0.264839,0.088649,0.265947,0.000000,142.000000,131.000000,11.000000,33.000000,0.000000,0.000000,0.163482,0.264839,0.088649,0.265947,0.000000,142.000000,131.000000,11.000000,33.000000,0.000000,0.000000:
// measure 0
0000
0000
0000
0000
,  // measure 1
0000
0000
0000
0000
,  // measure 2
2002
0000
0000
3003
,  // measure 3
1000
0001
1000
0000
,  // measure 4
0220
0000
0000
0000
,  // measure 5
0000
0000
0000
0000
,  // measure 6
0000
0000
0000
0330
,  // measure 7
2000
0000
0000
3000
0000
0000
0000
0000
,  // measure 8
0002
0000
0000
0003
0000
0000
0000
0000
,  // measure 9
1000
0010
0100
0001
,  // measure 10
0020
0000
0000
0030
,  // measure 11
0001
0010
0001
0000
,  // measure 12
1000
0010
1000
0000
,  // measure 13
0001
0010
0001
0000
,  // measure 14
0200
0000
0000
0300
,  // measure 15
0001
0100
1000
0000
,  // measure 16
1000
0010
0001
0000
,  // measure 17
0001
0100
0010
1000
,  // measure 18
0200
0000
0000
0000
,  // measure 19
0000
0000
0300
0000
,  // measure 20
2000
0000
0000
0000
0000
0000
0000
3000
0000
0000
0000
0000
0000
0000
0000
0000
,  // measure 21
0002
0000
0000
0000
0000
0000
0000
0003
0000
0000
0000
0000
0000
0000
0000
0000
,  // measure 22
1001
0110
0000
0000
,  // measure 23
1000
0000
0000
0010
0000
0000
0100
0000
,  // measure 24
0002
2003
0200
0000
,  // measure 25
0000
0000
0000
3300
,  // measure 26
1000
0000
0000
0001
0000
0000
1000
0000
,  // measure 27
0020
0200
0000
0330
,  // measure 28
0001
0000
0000
1000
0000
0000
0110
0000
,  // measure 29
0000
0002
0000
2003
,  // measure 30
3100
0100
0100
0100
,  // measure 31
0100
0100
0100
0100
,  // measure 32
0110
1001
0000
0000
,  // measure 33
0001
0000
0000
0010
0000
0000
0100
0000
,  // measure 34
0010
0002
0000
1000
,  // measure 35
1000
0000
0000
1003
,  // measure 36
0001
0000
0000
1000
0000
0000
0001
0000
,  // measure 37
0200
0000
0000
0300
,  // measure 38
0010
0000
0000
0010
0000
0000
2002
0000
,  // measure 39
0000
0000
0000
3003
,  // measure 40
0100
0100
0100
0100
,  // measure 41
0100
0100
0100
0100
,  // measure 42
2002
0000
0000
3003
0000
0000
0000
0000
,  // measure 43
1000
0010
1000
0000
,  // measure 44
0001
0010
0001
0000
,  // measure 45
1000
0010
1000
0000
,  // measure 46
0200
0000
0000
0300
,  // measure 47
1000
0100
0001
0000
,  // measure 48
0001
0010
1000
0000
,  // measure 49
1000
0100
0010
0001
,  // measure 50
1000
0010
0200
0300
,  // measure 51
0010
1000
0200
0300
,  // measure 52
0001
0100
1000
0010
,  // measure 53
2000
0000
0000
3000
,  // measure 54
0001
0010
2000
3000
,  // measure 55
0010
1000
0200
0300
,  // measure 56
1000
0100
0001
0010
,  // measure 57
0200
0000
0000
0000
,  // measure 58
0300
0000
0110
2002
,  // measure 59
0000
0000
0000
3003
;

//---------------dance-single - ----------------
#NOTES:
     dance-single:
     :
     Beginner:
     1:
     0.072531,0.120381,0.048354,0.185357,0.000000,63.000000,57.000000,6.000000,23.000000,0.000000,0.000000,0.072531,0.120381,0.048354,0.185357,0.000000,63.000000,57.000000,6.000000,23.000000,0.000000,0.000000:
// measure 0
0000
0000
0000
0000
,  // measure 1
0000
0000
0000
0000
,  // measure 2
0200
0000
0300
0000
,  // measure 3
0020
0000
0030
0000
,  // measure 4
2002
0000
0000
0000
,  // measure 5
0000
0000
0000
0000
,  // measure 6
0000
0000
3003
0000
,  // measure 7
0001
0000
0000
0000
,  // measure 8
1000
0000
0000
0000
,  // measure 9
0100
0000
0100
0000
,  // measure 10
0200
0000
0300
0000
,  // measure 11
1000
0000
0000
0000
,  // measure 12
0010
0000
0000
0000
,  // measure 13
1000
0000
0000
0000
,  // measure 14
0002
0000
0003
0000
,  // measure 15
0010
0000
0000
0000
,  // measure 16
0001
0000
0000
0000
,  // measure 17
0100
0000
0000
0000
,  // measure 18
0020
0000
0000
0000
,  // measure 19
0000
0000
0030
0000
,  // measure 20
1000
0000
0000
0000
,  // measure 21
0001
0000
0000
0000
,  // measure 22
1001
0000
0000
0000
,  // measure 23
0100
0000
0100
0000
,  // measure 24
0200
0000
0000
0000
,  // measure 25
0000
0000
0300
0000
,  // measure 26
1000
0000
1000
0000
,  // measure 27
2000
0000
3000
0000
,  // measure 28
0001
0000
0001
0000
,  // measure 29
0002
0000
0003
0000
,  // measure 30
0020
0000
0000
0000
,  // measure 31
0000
0000
0030
0000
,  // measure 32
1001
0000
0000
0000
,  // measure 33
0100
0000
0100
0000
,  // measure 34
0200
0000
0000
0000
,  // measure 35
0000
0000
0300
0000
,  // measure 36
0010
0000
0010
0000
,  // measure 37
0020
0000
0030
0000
,  // measure 38
0100
0000
0000
2002
,  // measure 39
0000
0000
3003
0000
,  // measure 40
0020
0000
0000
0000
,  // measure 41
0000
0000
0030
0000
,  // measure 42
2002
0000
0000
3003
0000
0000
0000
0000
,  // measure 43
0001
0000
0000
0000
,  // measure 44
0010
0000
0000
0000
,  // measure 45
0001
0000
0000
0000
,  // measure 46
2000
0000
3000
0000
,  // measure 47
0010
0000
0000
0000
,  // measure 48
1000
0000
0000
0000
,  // measure 49
0100
0000
0000
0000
,  // measure 50
0010
0000
0000
0000
,  // measure 51
0001
0000
0000
0000
,  // measure 52
1000
0000
0000
0000
,  // measure 53
0020
0000
0030
0000
,  // measure 54
0100
0000
0000
0000
,  // measure 55
0001
0000
0000
0000
,  // measure 56
0010
0000
0000
0000
,  // measure 57
2002
0000
0000
0000
,  // measure 58
3003
0000
0100
0200
,  // measure 59
0000
0000
0000
0300
;
