#TITLE:Hogging Molly;
#SUBTITLE:;
#ARTIST:Brandon Strader & Rexy;
#TITLETRANSLIT:;
#SUBTITLETRANSLIT:;
#ARTISTTRANSLIT:;
#GENRE:Southern Celtic Rock;
#CREDIT:;
#BANNER:Hogging Molly.png;
#BACKGROUND:Hogging Molly-bg.png;
#LYRICSPATH:;
#CDTITLE:cdtitle.png;
#MUSIC:Hogging Molly.ogg;
#OFFSET:-0.152335;
#SAMPLESTART:15.634207;
#SAMPLELENGTH:12.387095;
#SELECTABLE:YES;
#BPMS:0.000000=155.000000
;
#STOPS:
;
#BGCHANGES:;
#KEYSOUNDS:;
#ATTACKS:;

//---------------dance-single - ----------------
#NOTES:
     dance-single:
     :
     Challenge:
     14:
     0.745383,0.714325,0.220854,0.377293,0.450911,567.000000,543.000000,24.000000,41.000000,0.000000,0.000000,0.745383,0.714325,0.220854,0.377293,0.450911,567.000000,543.000000,24.000000,41.000000,0.000000,0.000000:
0000
0000
0000
0000
,
0000
0000
0000
0000
,
1000
0001
1000
0001
1000
0001
1000
0001
1000
0000
0000
0000
1001
0000
0000
0000
,
1000
0000
0001
1000
0001
0000
0010
0000
0100
0000
0010
0000
0100
0000
1000
0000
,
0001
0100
0001
0100
0001
0100
0001
0100
0001
0000
0000
0000
0101
0000
0000
0000
,
0001
0000
0010
0100
0010
0000
0100
0000
1000
0000
0010
0000
0100
0000
0001
0000
,
1000
0100
1000
0100
1000
0100
1000
0100
1000
0000
0000
0000
1100
0000
0000
0000
,
0001
0000
0100
0010
0100
0000
0001
1000
0001
0000
0010
0000
0100
0000
1000
0000
,
0010
0000
1000
0010
1000
0000
0001
0000
0010
0000
0100
0000
0010
0000
0001
0000
,
1000
0001
1000
0001
1000
0000
0001
0000
1001
0000
0000
0000
0000
0000
0000
0000
,
1000
0010
1000
0010
1000
0000
0010
0000
1000
0010
1000
0010
1000
0000
0010
0000
,
0200
0000
0000
0000
0301
0000
1000
0100
0020
0000
0000
0000
1030
0000
0010
0000
,
0001
0010
0001
0010
0001
0000
0010
0000
0001
0010
0001
0010
0001
0000
0010
0000
,
0200
0000
1300
0010
0002
0000
0013
1000
,
0100
0010
0100
0010
0100
0000
0010
0000
0100
0010
0100
0010
0100
0000
0010
0000
,
0002
0000
0000
0000
0103
0000
0010
0000
1000
0000
0100
0010
0100
0010
0100
1000
,
0001
0001
0100
0010
1000
0000
0110
0010
,
1000
1000
0100
0010
0001
0000
0110
0010
,
0001
0001
0100
0001
0010
0000
1001
0001
,
1000
0000
0100
1000
0100
0000
1000
0000
0010
0000
0000
0000
1001
0000
1000
0000
,
0100
0001
0100
1000
0010
0000
0110
0100
,
0001
0100
1000
0100
0001
0000
0011
0010
,
0100
1000
0010
0001
0010
0000
1010
0010
,
0100
0001
0010
1000
0010
0001
0100
0010
,
1000
0000
0100
0000
1000
0100
1000
0000
0002
0000
0010
0000
2003
0000
0010
0000
,
3001
0000
0100
0000
0001
0100
0001
0000
0100
0000
0010
1000
0200
0000
0000
0000
,
0310
0000
0001
0000
0010
0001
0010
0000
0002
0000
0100
0000
2003
0000
0100
0000
,
3001
0000
1000
0000
0010
1000
0010
0000
1000
0100
1000
0100
1000
0000
0001
0100
,
0001
0000
0010
0000
0001
0010
0001
0000
2000
0000
0010
0000
3002
0000
0010
0000
,
1003
0000
0010
0000
1000
0010
1000
0000
0100
0000
0010
0001
0200
0000
0000
0000
,
0301
0000
1000
0000
0001
1000
0001
0000
2000
0000
0100
0000
3002
0000
0100
0000
,
1003
0000
0000
0000
0001
0010
0001
0010
0100
0000
1000
0000
0010
0000
0100
0000
,
0002
0000
0103
1000
0001
1000
0100
0001
,
2000
0000
0000
0000
3010
0000
0000
0010
0100
0000
0001
0000
1000
0000
0100
0000
,
2000
0000
3100
0001
1000
0001
0100
1000
,
0002
0000
0000
0000
0013
0000
0100
0010
0100
0000
0000
0010
0001
1000
0001
1000
,
0002
0000
0103
0010
1000
0001
0000
0011
,
0000
0011
0000
0001
0010
0001
0100
0010
,
2000
0000
3100
0010
0001
1000
0000
1010
,
0000
1010
0000
0001
0100
1000
0100
0001
,
0020
0000
0100
0000
0100
0000
0130
0010
,
0001
0100
0001
0100
0001
0000
1000
0100
1000
0100
1000
0000
0001
0000
0100
0000
,
0010
0000
0010
0000
0010
0000
0010
1000
,
0100
0010
0100
0010
0100
0010
0100
0010
0100
0010
0100
0010
0100
0010
0100
0010
,
0002
0010
1000
0100
,
2003
0000
0010
0000
0001
0000
3100
0010
,
0200
0000
0000
0000
0310
0000
0001
0000
0100
0010
0100
0000
0010
0000
1000
0000
,
0200
0310
0020
0130
,
2100
3010
0102
0013
,
2100
0000
0000
0000
0001
0000
0000
0000
3001
0000
0100
0000
0010
1000
0001
0000
,
1000
0100
0010
0001
1000
0100
0001
1000
,
0010
0001
0200
0000
1300
0100
0002
0000
,
1003
0010
1000
0010
1000
0000
0001
0000
1000
0100
1000
0100
1000
0000
0001
0000
,
0200
0000
0000
0000
0301
0000
1000
0100
0020
0000
0000
0000
1030
0000
0010
0000
,
0001
0010
0001
0010
0001
0000
1000
0000
0001
0100
0001
0100
0001
0000
1000
0000
,
0200
0000
1300
0010
0002
0000
0013
1000
,
0001
0010
0001
0010
0001
0000
0100
0000
0010
1000
0010
1000
0010
0000
0100
0000
,
0002
0000
0013
0100
2000
0000
3001
0100
,
0010
0100
0010
0100
0010
0100
0010
0100
0010
0100
0010
0100
0010
0000
0100
0000
,
0002
0000
1003
0100
0220
0000
0330
0000
,
0001
0000
0010
0001
0010
0000
0001
0000
0100
0000
0000
0000
1010
0000
0000
0000
,
0001
0000
0100
0001
0100
0000
0010
0000
1000
0000
0100
0000
0001
0000
0100
0000
,
1000
0000
0010
1000
0010
0000
1000
0000
0100
0000
0000
0000
0011
0000
0000
0000
,
1000
0000
0100
1000
0100
0000
0010
0000
0001
0000
0100
0000
1000
0000
0100
0000
,
0001
0000
0010
0100
0010
0000
0100
0000
1000
0000
0000
0000
1001
0000
0000
0000
,
0001
0000
0100
0010
0100
0000
0001
1000
0001
0000
1000
0000
0100
0000
0010
0000
,
0001
0000
1000
0010
1000
0000
0100
0000
0010
0000
0001
0000
0100
0000
0010
0000
,
1000
0001
1000
0001
1000
0000
0110
0000
1001
0000
0000
0000
0000
0000
0000
0000
;

//---------------dance-single - ----------------
#NOTES:
     dance-single:
     :
     Hard:
     10:
     0.508753,0.465864,0.165641,0.340483,0.000000,387.000000,369.000000,18.000000,37.000000,0.000000,0.000000,0.508753,0.465864,0.165641,0.340483,0.000000,387.000000,369.000000,18.000000,37.000000,0.000000,0.000000:
0000
0000
0000
0000
,
0000
0000
0000
0000
,
1000
0100
1000
0100
1000
0000
1010
0000
,
0001
0100
1000
0100
,
0001
0100
0001
0100
0001
0000
0011
0000
,
1000
0100
0001
0100
,
1000
0001
1000
0001
1000
0000
0110
0000
,
0001
0010
0100
1000
,
0010
1000
0100
0000
0010
0001
0100
0000
,
0001
0100
1000
0100
0001
0000
0000
0000
,
1000
1000
0010
0000
0001
0001
0010
0000
,
2000
0000
3001
1000
0002
0000
1003
0001
,
1000
1000
0100
0000
0001
0001
0100
0000
,
2000
0000
3010
0100
0002
0000
0013
0100
,
1000
1000
0010
0000
0001
0001
0010
0000
,
2000
0000
3100
0010
0200
0000
0310
0001
,
1000
0010
1000
0010
1000
0000
0100
1000
,
0001
0010
0001
0010
0001
0000
0100
0001
,
1000
0010
1000
0010
0100
0000
0010
1000
,
0001
0010
0001
0010
0100
0000
1000
0100
,
0010
0001
0010
0100
1000
0000
0001
0100
,
0010
1000
0010
0100
0001
0000
1000
0100
,
0010
0001
0100
0010
1000
0000
0001
0100
,
0010
1000
0100
0010
0001
0000
1000
0100
,
0010
0000
0010
0000
0010
0001
0100
0001
,
0010
0000
0010
0000
0001
0001
2000
0000
,
3010
0000
0010
0000
0010
1000
0100
1000
,
0010
0000
0010
0000
1000
0100
0010
0001
,
0100
0000
0100
0000
0100
0001
0010
0001
,
0100
0000
0100
0000
0001
0001
2000
0000
,
3100
0000
0100
0000
0100
1000
0010
1000
,
0100
0000
0010
0001
0100
0010
1000
0000
,
2001
0000
0000
3100
1000
0001
1000
0001
,
0200
0000
0010
0310
,
1002
0000
0003
0010
0001
1000
0001
1000
,
0020
0000
0100
0130
,
2002
0000
3003
0001
1000
0100
0000
0110
,
0000
0110
0000
0010
0001
0100
0010
0000
,
0220
0000
0330
1000
0001
0100
0000
0110
,
0000
0110
0000
0010
1000
0100
0010
0001
,
2000
0000
0100
0000
0100
0000
3100
0010
,
0001
1000
0100
1000
0001
0100
0001
1000
,
0100
0000
0100
0000
0100
0000
0100
0010
,
2002
0000
0000
3003
,
0002
0100
1000
0100
,
2003
0000
0100
0000
0001
0000
3100
1000
,
0002
0000
0103
0010
1000
0001
1000
0001
,
0020
0130
0200
0310
,
0012
0103
2010
3100
,
0012
0000
1000
0000
1003
0001
0100
0000
,
0010
1000
0001
1000
0010
1000
0100
0010
,
0001
0100
0020
0000
1030
0100
0020
0000
,
0031
0001
0010
0000
1000
1000
0010
0000
,
0002
0000
1003
0001
2000
0000
3001
1000
,
0001
0001
0100
0000
1000
1000
0100
0000
,
0002
0000
0013
0100
2000
0000
3010
0100
,
0001
0001
0010
0000
1000
1000
0010
0000
,
0002
0000
0103
0010
0200
0000
0310
1000
,
0200
0000
0000
0000
0000
0000
0000
0310
,
0001
0000
0100
0010
2000
0000
3000
0000
,
0001
0010
0100
0010
0001
0000
0011
0000
,
1000
0001
0100
0000
0001
1000
0100
0000
,
1000
0010
0100
0010
1000
0000
1010
0000
,
0001
1000
0010
0000
1000
0001
0010
0000
,
0001
0100
0010
1000
0001
0000
0110
0000
,
1000
0100
0010
0000
0001
0100
0010
0000
,
1000
0001
1000
0000
0100
0010
0100
0000
,
1000
0010
0001
0010
1000
0000
0000
0000
;

//---------------dance-single - ----------------
#NOTES:
     dance-single:
     :
     Medium:
     8:
     0.428562,0.434807,0.211652,0.165641,0.000000,326.000000,303.000000,23.000000,18.000000,0.000000,0.000000,0.428562,0.434807,0.211652,0.165641,0.000000,326.000000,303.000000,23.000000,18.000000,0.000000,0.000000:
// measure 0
0000
0000
0000
0000
,  // measure 1
0000
0000
0000
0000
,  // measure 2
1001
1001
0110
0000
,  // measure 3
1000
0100
0010
0001
,  // measure 4
0110
0110
1001
0000
,  // measure 5
0001
0100
0010
1000
,  // measure 6
0101
0101
1010
0000
,  // measure 7
0010
1000
0100
0010
,  // measure 8
0001
0001
1000
1000
,  // measure 9
1001
0110
1001
0000
,  // measure 10
0001
0100
0001
0000
0001
0100
0001
0000
,  // measure 11
1000
0100
0010
0001
,  // measure 12
1000
0100
1000
0000
1000
0100
1000
0000
,  // measure 13
0001
0100
0010
1000
,  // measure 14
0001
0100
0001
0000
0001
0100
0001
0000
,  // measure 15
1000
0100
0001
0010
,  // measure 16
1000
0001
1000
0000
0100
0000
0010
0000
,  // measure 17
0001
1000
0001
0000
0100
0000
0010
0000
,  // measure 18
1000
0001
1000
0000
0010
0000
0100
0000
,  // measure 19
0001
1000
0001
0000
1000
0000
0100
0000
,  // measure 20
0010
0001
0100
0000
0010
0000
0100
0000
,  // measure 21
0010
1000
0100
0000
0010
0000
0100
0000
,  // measure 22
0001
0100
1000
0000
0001
0000
0100
0000
,  // measure 23
1000
0100
0001
0000
1000
0000
0100
0000
,  // measure 24
0010
0000
0010
0000
0001
1000
0001
1000
,  // measure 25
0010
0000
0010
0000
1000
0001
1000
0000
,  // measure 26
0100
0000
0100
0000
1000
0001
1000
0001
,  // measure 27
0100
0000
0100
0000
0001
0100
0010
0100
,  // measure 28
0010
0000
0010
0000
1000
0001
1000
0001
,  // measure 29
0010
0000
0010
0000
0001
1000
0001
0000
,  // measure 30
0100
0000
0100
0000
0001
1000
0001
1000
,  // measure 31
0100
0010
0001
0100
,  // measure 32
1002
0000
0000
1003
0001
0000
0100
0010
,  // measure 33
0200
0000
0010
0310
,  // measure 34
2001
0000
0000
3001
1000
0000
0100
0010
,  // measure 35
0200
0000
0010
0310
,  // measure 36
2001
0000
0000
3001
1000
0010
0000
1000
,  // measure 37
0000
1000
0000
0010
1000
0001
0010
0000
,  // measure 38
0002
0000
0000
1003
0001
0010
0000
0001
,  // measure 39
0000
0001
0000
0010
0001
1000
0010
0000
,  // measure 40
0210
0000
0010
0000
0310
0000
0100
0010
,  // measure 41
0100
0001
1000
0100
,  // measure 42
0010
0000
0010
0000
0010
0000
0100
0010
,  // measure 43
0002
0000
0000
0000
,  // measure 44
2003
0100
3100
0010
,  // measure 45
0002
0000
0100
0000
0103
0000
0010
1000
,  // measure 46
0001
0000
1000
0000
0001
1000
0100
0000
,  // measure 47
0020
0031
2000
3010
,  // measure 48
0210
0301
0120
1030
,  // measure 49
0210
0001
0301
1000
,  // measure 50
0001
0100
0001
0000
1000
0100
1000
0000
,  // measure 51
0001
0010
0100
0000
1000
0010
0100
0000
,  // measure 52
0001
0010
0001
0000
0001
0010
0001
0000
,  // measure 53
1000
0010
0100
0001
,  // measure 54
1000
0010
1000
0000
1000
0010
1000
0000
,  // measure 55
0001
0010
0100
1000
,  // measure 56
0001
0010
0001
0000
0001
0010
0001
0000
,  // measure 57
1000
0100
0001
0010
,  // measure 58
2020
0000
0000
0000
3030
0000
0000
0001
,  // measure 59
0010
0000
0100
1000
0002
0000
0003
0000
,  // measure 60
1000
0100
1000
0000
0100
0000
0010
0000
,  // measure 61
0001
0100
0010
1000
,  // measure 62
0001
0100
0001
0000
0100
0000
0010
0000
,  // measure 63
1000
0100
0010
0001
,  // measure 64
1000
0100
1000
0000
0010
0000
0100
0000
,  // measure 65
0001
0010
0001
0100
,  // measure 66
0001
1000
0001
0000
1000
0001
1000
0000
,  // measure 67
1001
0110
1001
0000
;

//---------------dance-single - ----------------
#NOTES:
     dance-single:
     :
     Easy:
     5:
     0.303674,0.372691,0.082820,0.101225,0.000000,231.000000,222.000000,9.000000,11.000000,0.000000,0.000000,0.303674,0.372691,0.082820,0.101225,0.000000,231.000000,222.000000,9.000000,11.000000,0.000000,0.000000:
// measure 0
0000
0000
0000
0000
,  // measure 1
0000
0000
0000
0000
,  // measure 2
1000
0001
1000
0000
,  // measure 3
0010
0000
0100
0000
,  // measure 4
0001
1000
0001
0000
,  // measure 5
0010
0000
0100
0000
,  // measure 6
1000
0010
1000
0000
,  // measure 7
0100
0000
0010
0000
,  // measure 8
0001
0000
1000
0000
,  // measure 9
0010
0100
0010
0000
,  // measure 10
1000
1000
1000
1000
,  // measure 11
0100
0010
0100
0010
,  // measure 12
0001
0001
0001
0001
,  // measure 13
0100
0010
0100
0010
,  // measure 14
1000
1000
1000
1000
,  // measure 15
0100
0010
0100
0010
,  // measure 16
0001
0100
0001
0000
,  // measure 17
1000
0100
1000
0000
,  // measure 18
0001
0010
0001
0000
,  // measure 19
1000
0010
1000
0000
,  // measure 20
0100
0010
0011
0000
,  // measure 21
0001
1000
1010
0000
,  // measure 22
0100
0010
1010
0000
,  // measure 23
1000
0001
0011
0000
,  // measure 24
0001
0001
1000
0001
,  // measure 25
1000
1000
0100
0010
,  // measure 26
0001
0001
1000
0001
,  // measure 27
1000
1000
0010
0100
,  // measure 28
0001
0001
0100
0001
,  // measure 29
0100
0100
0001
0010
,  // measure 30
0100
0100
1000
0100
,  // measure 31
1000
0010
0100
0001
,  // measure 32
2000
0000
3010
1000
,  // measure 33
0200
0000
0010
0310
,  // measure 34
0002
0000
0013
0001
,  // measure 35
0200
0000
0310
0010
,  // measure 36
2000
0000
3100
0000
,  // measure 37
0010
0010
0100
1000
,  // measure 38
0002
0000
0103
0000
,  // measure 39
0010
0010
0100
0001
,  // measure 40
0020
0000
0000
0030
,  // measure 41
0100
0010
0100
0010
,  // measure 42
0001
0001
1000
1000
,  // measure 43
2002
0000
0000
3003
,  // measure 44
1000
1000
0010
1000
,  // measure 45
0001
0001
0100
0010
,  // measure 46
1000
0100
0010
0100
,  // measure 47
1000
1000
0001
0001
,  // measure 48
0100
0100
0010
0010
,  // measure 49
1000
1000
0100
0010
,  // measure 50
0001
0100
1000
0100
,  // measure 51
0001
0010
0100
1000
,  // measure 52
0001
0001
0001
0001
,  // measure 53
0100
0010
0100
0010
,  // measure 54
1000
1000
1000
1000
,  // measure 55
0100
0010
0100
0010
,  // measure 56
0001
0001
0001
0001
,  // measure 57
0100
0010
0100
0010
,  // measure 58
2002
0000
3003
0000
,  // measure 59
0001
0100
0010
0000
,  // measure 60
1000
0001
1000
0000
,  // measure 61
0100
0100
0010
0010
,  // measure 62
0001
1000
0001
0000
,  // measure 63
0100
0100
0010
0010
,  // measure 64
1000
0100
1000
0000
,  // measure 65
0010
0010
0100
0100
,  // measure 66
0001
1000
0001
1000
,  // measure 67
1001
0110
1001
0000
;

//---------------dance-single - ----------------
#NOTES:
     dance-single:
     :
     Beginner:
     3:
     0.190618,0.217403,0.000000,0.055214,0.000000,145.000000,145.000000,0.000000,6.000000,0.000000,0.000000,0.190618,0.217403,0.000000,0.055214,0.000000,145.000000,145.000000,0.000000,6.000000,0.000000,0.000000:
// measure 0
0000
0000
0000
0000
,  // measure 1
0000
0000
0000
0000
,  // measure 2
1000
1000
1000
0000
,  // measure 3
1000
0000
1000
0000
,  // measure 4
0001
0001
0001
0000
,  // measure 5
0001
0000
0001
0000
,  // measure 6
1000
1000
1000
0000
,  // measure 7
1000
0000
1000
0000
,  // measure 8
0010
0000
0100
0000
,  // measure 9
0010
0010
0010
0000
,  // measure 10
1000
0000
1000
0000
,  // measure 11
0100
0000
0010
0000
,  // measure 12
0001
0000
0001
0000
,  // measure 13
0100
0000
0010
0000
,  // measure 14
1000
0000
1000
0000
,  // measure 15
0100
0000
0010
0000
,  // measure 16
0001
0001
0001
0000
,  // measure 17
0100
0100
0100
0000
,  // measure 18
0010
0010
0010
0000
,  // measure 19
1000
1000
1000
0000
,  // measure 20
0001
0001
0001
0000
,  // measure 21
0010
0010
0010
0000
,  // measure 22
1000
1000
1000
0000
,  // measure 23
0100
0100
0100
0000
,  // measure 24
0001
0000
0010
0010
,  // measure 25
0000
0000
0001
0001
,  // measure 26
0000
0000
0100
0100
,  // measure 27
0000
0000
0010
0000
,  // measure 28
1000
0000
0001
0001
,  // measure 29
0000
0000
0010
0010
,  // measure 30
0000
0000
0100
0100
,  // measure 31
0000
0000
1000
0000
,  // measure 32
0001
0000
0001
0001
,  // measure 33
0002
0000
0003
0000
,  // measure 34
1000
0000
1000
1000
,  // measure 35
2000
0000
3000
0000
,  // measure 36
0100
0000
0010
0000
,  // measure 37
0001
0000
0001
0000
,  // measure 38
0100
0000
0010
0000
,  // measure 39
1000
0000
1000
1000
,  // measure 40
2000
0000
3000
0000
,  // measure 41
0002
0000
0103
0000
,  // measure 42
0010
0000
0010
0000
,  // measure 43
0020
0000
0030
0000
,  // measure 44
0010
0000
0010
0000
,  // measure 45
1000
0000
0001
0000
,  // measure 46
1000
0000
0100
0100
,  // measure 47
0100
0000
0010
0000
,  // measure 48
0001
0000
0100
0000
,  // measure 49
0010
0000
1000
0000
,  // measure 50
0100
0000
0100
0000
,  // measure 51
0010
0000
0010
0000
,  // measure 52
0001
0000
0001
0000
,  // measure 53
0100
0000
0010
0000
,  // measure 54
1000
0000
1000
0000
,  // measure 55
0100
0000
0010
0000
,  // measure 56
0001
0000
0001
0000
,  // measure 57
0100
0000
0010
0000
,  // measure 58
2000
0000
3000
0000
,  // measure 59
0001
0001
0001
0000
,  // measure 60
1000
0000
1000
0000
,  // measure 61
0100
0000
0100
0000
,  // measure 62
0010
0000
0010
0000
,  // measure 63
0001
0000
0001
0000
,  // measure 64
0100
0000
0100
0000
,  // measure 65
0010
0000
0010
0000
,  // measure 66
1000
0000
0001
0000
,  // measure 67
0010
0010
0010
0000
;
