#VERSION:0.83;
#TITLE:Her Majesty;
#SUBTITLE:;
#ARTIST:naotyu-;
#TITLETRANSLIT:;
#SUBTITLETRANSLIT:;
#ARTISTTRANSLIT:;
#GENRE:Progressive Breaks;
#ORIGIN:;
#CREDIT:;
#BANNER:Her Majesty.png;
#BACKGROUND:Her Majesty-bg.png;
#PREVIEWVID:;
#JACKET:Her Majesty-jacket.png;
#CDIMAGE:;
#DISCIMAGE:;
#LYRICSPATH:;
#CDTITLE:cdtitle.png;
#MUSIC:Her Majesty.ogg;
#OFFSET:-0.004935;
#SAMPLESTART:25.948881;
#SAMPLELENGTH:17.257298;
#SELECTABLE:YES;
#BPMS:0.000=222.000,
256.000=111.000,
272.000=222.000,
376.000=111.000;
#STOPS:;
#DELAYS:;
#WARPS:;
#TIMESIGNATURES:0.000=4=4;
#TICKCOUNTS:0.000=4;
#COMBOS:0.000=1;
#SPEEDS:0.000=1.000=0.000=0;
#SCROLLS:0.000=1.000;
#FAKES:;
#LABELS:0.000=Song Start;
#BGCHANGES:;
#KEYSOUNDS:;
#ATTACKS:
;

//---------------dance-single - ----------------
#NOTEDATA:;
#CHARTNAME:;
#STEPSTYPE:dance-single;
#DESCRIPTION:;
#CHARTSTYLE:;
#DIFFICULTY:Challenge;
#METER:14;
#RADARVALUES:0.684466,0.853591,0.337745,0.502690,0.172800,610.000000,567.000000,43.000000,64.000000,55.000000,0.000000,0.000000,0.000000,0.000000,0.684466,0.853591,0.337745,0.502690,0.172800,610.000000,567.000000,43.000000,64.000000,55.000000,0.000000,0.000000,0.000000,0.000000;
#CREDIT:;
#NOTES:
0000
0000
0000
0000
,
0000
0000
0000
0000
,
0000
0000
0000
0000
,
0000
0000
0000
0000
,
0000
0000
0000
0000
,
0000
0000
0000
0000
,
0000
0000
0000
0000
,
0000
1000
0010
0100
0001
0010
0001
0100
,
0010
1000
1000
0001
1000
1000
0100
0010
,
0000
0001
0010
0100
1000
0010
1000
0100
,
0010
0001
0001
1000
0001
0001
0100
0010
,
0000
1000
0010
0100
0001
0010
0001
0100
,
0010
1000
1000
0001
0010
0010
0001
0100
,
0000
0010
1000
0100
0010
0001
0100
0010
,
1000
0010
1000
0100
0010
0001
0100
0010
,
1000
0100
1000
0100
0000
MMM1
0000
0100
,
2000
0000
3010
0100
0000
0001
1000
0000
,
1000
0100
0000
0100
0010
0001
1000
0000
,
0002
0000
0103
0010
0000
0100
0001
0000
,
0001
1000
0000
1000
0100
1000
0001
0000
,
0200
0000
0310
1000
0000
0001
0010
0000
,
0010
0100
1000
1000
0000
0001
0001
0000
,
2000
0000
3010
0100
0000
0010
1000
0000
,
0001
1000
0100
1000
0010
1000
0001
1000
,
0200
0000
1300
0010
M00M
0010
0001
0000
,
0200
0000
0301
0010
M00M
0010
1000
0000
,
0200
0000
1300
0010
00M0
0001
0100
0000
,
0200
0000
0301
0010
00M0
1000
0100
0000
,
2000
0000
3001
0100
M00M
0100
1000
0000
,
0002
0000
1003
0100
M00M
0100
0001
0000
,
0020
0000
0031
0010
M00M
0010
1000
0000
,
1010
1001
0011
1001
,
0002
0000
0103
1000
0MM0
1000
0010
0000
,
2000
0000
3100
0001
0MM0
0001
0010
0000
,
0002
0000
0103
1000
M000
0010
1000
0000
,
2000
0000
3100
0001
000M
0010
0001
0000
,
0002
0000
0013
1000
0MM0
1000
0100
0000
,
2000
0000
3010
0001
0MM0
0001
0100
0000
,
0020
0000
1030
0001
0000
1000
0100
0000
,
0010
0001
0000
0100
0000
0202
0000
0303
,
1001
0000
1000
0000
0000
0110
0000
1001
,
0000
0001
0001
0000
0001
1000
0001
0000
,
0110
0000
1000
0000
0000
1100
0000
0011
,
0000
0001
0001
0000
0010
0100
1000
0000
,
1001
0000
0000
0000
0000
0000
0001
1000
0001
0000
1000
0000
0000
0000
1001
0000
,
0000
1000
1000
0000
0010
0100
0001
0000
,
1001
100M
1001
M001
,
1000
0100
0001
0100
1000
0010
0100
0001
,
1000
0000
0001
0100
0000
0001
0100
1000
,
0000
1000
1000
0000
0100
0001
0010
0000
,
0001
0000
1000
0100
0000
1000
0100
0001
,
0000
0001
0100
1000
0010
0000
1000
0000
,
0001
0000
0010
1000
0000
0010
0001
0100
,
0000
1000
1000
0000
0100
0001
0010
0000
,
0100
0000
1000
0010
0000
0001
0010
1000
,
0000
0000
0100
0000
0001
0000
0100
0000
1000
0000
0000
0000
0011
0000
0000
1000
,
0100
1000
0001
0100
0010
1000
0100
0001
,
0100
0000
1000
0000
0010
0000
0100
0000
0010
0000
1000
0000
0010
0000
MM0M
0010
,
0001
0100
1000
0100
0001
0010
0100
1000
,
0001
0000
0000
0001
0100
0000
0000
0100
0010
0000
1000
0000
0100
0000
M0MM
0000
,
0100
0001
0010
1000
0010
0001
1000
0100
,
0001
0100
1000
0010
0001
0010
1000
0100
,
0010
0000
0000
0001
0100
0000
000M
1000
010M
0000
M000
0001
M100
0000
000M
1000
,
010M
0020
0000
0001
0031
0000
1001
0000
,
1000
0010
0100
0001
0000
1000
0000
0001
0200
0000
0000
0320
0000
0000
2030
0000
,
3001
0010
0100
1000
0000
0001
0000
1000
0200
0000
0000
0320
0000
0031
0100
0010
,
1000
0100
0010
0001
0000
1000
0000
0001
0020
0000
0000
0230
0000
0000
2300
0000
,
3001
0100
0010
1000
0000
0001
0000
0010
0200
0000
0000
2300
0000
3001
0100
0010
,
1000
0001
0001
0010
0000
0001
0100
0010
,
0100
1000
0100
0010
0000
0010
1000
0000
,
0001
1000
1000
0010
0000
1000
0100
0010
,
0100
0001
0100
1000
0000
0001
0010
0100
,
1000
0001
0001
0100
0000
0010
1000
0100
,
0001
0100
1000
0010
0000
1000
0010
0100
,
0001
1000
1000
0100
0000
0010
0000
0001
,
0010
1000
0010
0001
0000
0011
0000
1100
,
0000
1000
0100
0001
0100
1000
0010
0002
,
0000
0013
0100
1000
0100
0001
0010
0000
,
1002
0000
0010
2003
000M
0010
3002
M000
,
1003
0000
0010
1000
0100
0001
0100
1000
,
0020
0000
1000
0230
00M0
0001
0320
0M00
,
1030
0000
0001
0001
0000
1000
1000
0000
,
2001
0000
0100
3002
M000
0100
2003
000M
,
3001
0000
0010
0001
0100
1000
0100
0001
,
0020
0000
0001
0230
00M0
1000
0320
0M00
,
0031
0000
1000
1100
0000
0001
0101
0000
,
1020
0000
0001
0230
00M0
1000
0320
0M00
,
1030
0000
1000
0010
0001
0010
1000
0100
,
0020
0000
1000
0230
00M0
0001
0320
0M00
,
0031
0000
0001
0010
1000
0010
0001
0100
,
1000
0100
0001
0012
00M0
0103
0001
2010
,
00M0
3001
1000
0102
0M00
1003
0001
2100
,
0M00
0000
3001
0100
0000
0100
0010
1010
,
0000
0110
0000
0101
0000
0001
0010
0100
,
2000
0000
0000
0000
3000
0000
0000
0000
0010
0000
0000
1000
0000
0000
0001
0000
,
0010
0000
0000
0100
0000
0000
0100
0000
0000
0000
0000
0000
0000
0000
0100
0000
,
0010
0000
0000
0001
0000
0000
0001
0000
0000
0000
1000
0000
0000
0010
0000
0000
,
0100
0000
0000
0010
0000
0000
1000
0000
0000
0000
0000
0000
0000
0110
0000
0000
,
2002
0000
0000
0000
3003
0000
0000
0000
1000
0000
1010
0000
0000
0110
0000
0000
,
0202
0000
0000
0000
0303
0000
0000
0000
1001
0000
0000
0011
0000
0000
0110
0000
,
2200
0000
0000
0000
3300
0000
0000
0000
0010
0000
1001
0000
0000
0110
0000
0000
,
2002
0000
0000
3003
0000
0001
1000
0100
0020
0000
0000
0000
0000
0000
0000
0000
,
0000
0000
0000
0000
,
0000
0000
0030
0000
;

//---------------dance-single - ----------------
#NOTEDATA:;
#CHARTNAME:;
#STEPSTYPE:dance-single;
#DESCRIPTION:;
#CHARTSTYLE:;
#DIFFICULTY:Hard;
#METER:12;
#RADARVALUES:0.521765,0.691003,0.526254,0.494836,0.051054,465.000000,398.000000,67.000000,63.000000,0.000000,0.000000,0.000000,0.000000,0.000000,0.521765,0.691003,0.526254,0.494836,0.051054,465.000000,398.000000,67.000000,63.000000,0.000000,0.000000,0.000000,0.000000,0.000000;
#CREDIT:;
#NOTES:
0000
0000
0000
0000
,
0000
0000
0000
0000
,
0000
0000
0000
0000
,
0000
0000
0000
0000
,
0000
0000
0000
0000
,
0000
0000
0000
0000
,
0000
0000
0000
0000
,
0000
0001
0010
0100
,
2000
0000
0000
3020
0000
0000
0230
0000
,
0000
0301
1000
0100
,
0020
0000
0000
0032
0000
0000
0203
0000
,
0000
0310
1000
0001
,
0020
0000
0000
0230
0000
0000
2300
0000
,
0000
3001
0100
0010
,
1000
0001
0100
0010
,
1000
0000
0100
0010
0000
0001
0000
0000
,
0012
0000
0000
1003
0000
0000
1000
0000
,
0001
0000
0100
0000
0001
1000
0001
0000
,
2001
0000
0000
3010
0000
0000
0010
0000
,
1000
0000
0100
0000
1000
0010
1000
0000
,
2010
0000
0000
3001
0000
0000
0001
0000
,
1000
0000
0100
0010
0000
0010
0001
0000
,
1002
0000
0000
0010
0000
0013
0000
0000
,
0001
0100
0010
1000
,
1010
0000
0000
1001
0000
0000
2000
0000
,
3200
0000
0000
2300
0000
0000
3001
0000
,
0011
0000
0000
1001
0000
0000
0002
0000
,
0203
0000
0000
0302
0000
0000
0013
0000
,
1100
0000
0000
1010
0000
0000
2000
0000
,
3200
0000
0000
2300
0000
0000
3001
0000
,
0101
0000
0000
0011
0000
0000
0001
0000
,
0010
1000
0010
0001
,
0101
0000
0000
0110
0000
0000
0002
0000
,
0203
0000
0000
2300
0000
0000
3100
0000
,
0110
0000
0000
0101
0000
0000
0002
0000
,
0023
0000
0000
0230
0000
0000
1300
0000
,
1100
0000
0000
0110
0000
0000
2000
0000
,
3200
0000
0000
0302
0000
0000
0103
0000
,
0110
0000
0000
1100
0000
0000
1000
0000
,
0001
0100
0000
0010
0000
1000
0000
0000
,
1001
0000
0010
0000
0000
0110
0000
0110
,
0000
0001
1000
0000
0001
0000
0001
0000
,
1001
0000
0100
0000
0000
0110
0000
0110
,
0000
1000
0001
0000
1000
0000
0100
0000
,
0110
0000
0000
0001
0010
0001
0000
1000
,
0000
0010
1000
0000
0001
0000
0010
0000
,
1001
0000
1001
0000
,
1000
0001
1000
0001
1000
0000
0001
0000
,
1001
0000
1000
0100
0000
0010
0000
0010
,
0000
0100
1000
0000
0010
0000
0100
0000
,
0001
0000
0010
0100
0000
0010
0000
0010
,
0000
0001
0100
0001
0100
0000
0010
0000
,
1000
0000
0001
0010
0000
0100
0000
1000
,
0000
0001
0100
0000
0010
0000
1000
0000
,
0001
0000
0010
0100
0000
1000
0000
0001
,
0000
1000
0010
1000
0010
0000
1001
0000
,
1000
0100
1000
0000
0001
0100
0001
0000
,
1000
0100
1000
0000
0001
0100
0001
0000
,
1000
0010
1000
0000
0001
0010
0001
0000
,
1000
0010
1000
0000
0001
0010
0001
0000
,
1000
0100
1000
0100
0010
0001
0010
0001
,
1000
0010
1000
0010
0100
0001
0100
0001
,
1000
0100
0010
0001
0010
0100
1000
0100
,
1000
0010
0000
0100
0001
0000
0101
0000
,
2020
0000
0000
0000
3030
0000
0000
0000
1010
0000
0000
1000
0000
0000
0001
0000
,
0022
0000
0000
0000
0033
0000
0000
0000
0011
0000
0000
0010
0000
0000
0100
0000
,
2200
0000
0000
0000
3300
0000
0000
0000
1100
0000
0000
1000
0000
0000
0001
0000
,
0202
0000
0000
0000
0303
0000
0000
0000
1010
0000
0000
0010
0000
0000
0100
0000
,
0101
0000
0000
1001
0000
0000
1000
0000
,
0001
0010
0000
0010
0001
0000
1000
0000
,
1100
0000
0000
1001
0000
0000
0001
0000
,
1000
0010
0000
0010
1000
0000
0100
0000
,
0110
0000
0000
0011
0000
0000
0001
0000
,
1000
0010
0000
0100
0001
0000
0100
0000
,
0110
0000
0000
1010
0000
0000
1000
0000
,
0001
0010
0001
0010
0000
0100
0000
0100
,
0000
1000
0010
1000
0010
0100
0001
1000
,
0000
0001
0010
0001
0010
0100
1000
0000
,
1200
0000
0300
0101
0000
0000
1000
0000
,
0100
0000
0010
0001
1000
0001
0100
0000
,
0201
0000
0300
1100
0000
0000
0001
0000
,
0100
0000
0010
1000
0000
1000
0100
0000
,
0021
0000
0030
1010
0000
0000
0001
0000
,
0010
0000
0100
1000
0001
1000
0010
0000
,
1020
0000
0030
0011
0000
0000
1000
0000
,
0200
0000
0310
0001
0000
0100
0010
0000
,
2020
0000
3030
0101
0000
0000
0001
0000
,
0100
0000
1000
0100
0001
0100
0001
0000
,
0022
0000
0033
1100
0000
0000
1000
0000
,
0100
0000
0001
0100
1000
0100
1000
0000
,
0010
1000
0010
2000
0000
3001
0010
0002
,
0000
1003
0100
2000
0000
3001
0100
0002
,
0000
0000
1003
0000
0100
0000
0010
0001
,
0000
0100
0000
0010
0000
0010
1000
0000
,
2002
0000
0000
0000
3003
0000
0000
0000
0001
0000
0000
0010
0000
0000
0100
0000
,
1000
0000
0000
0001
0000
0000
0001
0000
0000
0000
0000
0000
0000
0000
0001
0000
,
0100
0000
0000
0001
0000
0000
1000
0000
0000
0000
1000
0000
0000
0100
0000
0000
,
1000
0000
0000
0001
0000
0000
0100
0000
0000
0000
0000
0000
0000
0010
0000
0000
,
2002
0000
0000
0000
3003
0000
0000
0000
0000
0000
1000
0000
0000
0010
0000
0000
,
0202
0000
0000
0000
0303
0000
0000
0000
1000
0000
0000
0001
0000
0000
0010
0000
,
2200
0000
0000
0000
3300
0000
0000
0000
0000
0000
1001
0000
0000
0110
0000
0000
,
2002
3003
0020
0000
,
0000
0000
0000
0000
,
0000
0000
0030
0000
;

//---------------dance-single - ----------------
#NOTEDATA:;
#CHARTNAME:;
#STEPSTYPE:dance-single;
#DESCRIPTION:;
#CHARTSTYLE:;
#DIFFICULTY:Medium;
#METER:9;
#RADARVALUES:0.378140,0.447119,0.329890,0.290618,0.051054,337.000000,295.000000,42.000000,37.000000,0.000000,0.000000,0.000000,0.000000,0.000000,0.378140,0.447119,0.329890,0.290618,0.051054,337.000000,295.000000,42.000000,37.000000,0.000000,0.000000,0.000000,0.000000,0.000000;
#CREDIT:;
#NOTES:
0000
0000
0000
0000
,
0000
0000
0000
0000
,
0000
0000
0000
0000
,
0000
0000
0000
0000
,
0000
0000
0000
0000
,
0000
0000
0000
0000
,
0000
0000
0000
0000
,
0000
1000
0001
0000
,
0002
0000
0000
0100
0000
0000
0103
0000
,
0000
0001
1000
0000
,
2000
0000
0000
0100
0000
0000
3100
0000
,
0000
1000
0001
0000
,
0002
0000
0000
0100
0000
0000
0103
0000
,
0000
0001
1000
0100
,
0000
1000
0001
0100
,
0010
0000
0000
1000
0000
1000
0000
0000
,
0002
0000
0000
1003
0000
0000
0100
0000
,
0000
1000
0000
0000
0001
0000
0001
0000
,
2000
0000
0000
3001
0000
0000
0100
0000
,
0000
0001
0000
0000
1000
0000
1000
0000
,
0002
0000
0000
0013
0000
0000
0100
0000
,
0000
1000
0000
0000
0001
0000
1000
0000
,
0002
0000
0000
1000
0000
1003
0000
0000
,
1000
0100
0010
0001
,
2000
0000
0000
3020
0000
0000
1030
0000
,
0100
0000
0000
0100
0000
0000
0010
0000
,
0002
0000
0000
0023
0000
0000
0031
0000
,
0100
0000
0000
0100
0000
0000
0010
0000
,
2000
0000
0000
3200
0000
0000
1300
0000
,
0010
0000
0000
0010
0000
0000
0100
0000
,
0002
0000
0000
0023
0000
0000
0130
0000
,
1000
1000
0001
0001
,
0200
0000
0000
0302
0000
0000
0013
0000
,
0001
0000
0000
0011
0000
0000
1000
0000
,
0200
0000
0000
2300
0000
0000
3010
0000
,
1000
0000
0000
1010
0000
0000
0001
0000
,
2000
0000
0000
3200
0000
0000
0310
0000
,
0001
0000
0000
0011
0000
0000
1000
0000
,
0002
0000
0000
0203
0000
0000
0310
0000
,
1000
0000
0000
1000
0000
0001
0000
0000
,
1001
0000
0000
0000
0000
1001
0000
1001
,
0000
1000
0001
0010
,
0110
0000
0000
0000
0000
0110
0000
0110
,
0000
1000
0001
0100
,
0110
0000
0000
0010
0000
0010
0000
0110
,
0000
0100
0001
1000
,
1001
0000
1001
0000
,
1001
0000
1000
0001
,
1000
0000
0010
0000
,
0100
0010
1000
0001
,
0010
0000
0100
0000
,
0010
0001
0100
0010
,
1000
0000
0100
0000
,
0010
0001
0100
0010
,
1000
0000
0001
0000
,
1000
0100
0010
0001
,
1000
1000
0001
0001
,
0100
0010
1000
0001
,
0010
0010
0100
0100
,
1000
0001
0100
0010
,
1000
0100
1000
0100
,
0001
0100
0001
0100
,
0001
0010
1000
0001
,
1000
0100
0010
0001
,
2002
0000
0000
0000
3003
0000
0000
0000
1000
0000
0000
1000
0000
0000
1000
0000
,
0002
0000
0000
0000
0003
0000
0000
0000
0001
0000
0000
0001
0000
0000
0001
0000
,
0020
0000
0000
0000
0030
0000
0000
0000
0010
0000
0000
0010
0000
0000
0010
0000
,
0200
0000
0000
0000
0300
0000
0000
0000
1000
0000
0000
1000
0000
0000
1000
0000
,
1010
0000
0000
1010
0000
0000
0001
0000
,
0001
0000
0000
1000
0000
0000
0001
0000
,
0011
0000
0000
0011
0000
0000
1000
0000
,
1000
0000
0000
0001
0000
0000
0100
0000
,
0101
0000
0000
0110
0000
0000
0001
0000
,
0001
0000
0000
1000
0000
0000
0100
0000
,
1100
0000
0000
0110
0000
0000
0011
0000
,
2002
0000
0000
0000
,
0000
0000
0000
0000
,
0000
0000
3003
0000
,
1001
0000
0000
1001
0000
0000
0001
0000
,
0100
1000
0100
0001
,
1001
0000
0000
1001
0000
0000
1000
0000
,
0100
0000
0010
0000
0000
0010
0000
0000
,
0110
0000
0000
0110
0000
0000
1000
0000
,
0100
0001
0100
1000
,
0110
0000
0000
0110
0000
0000
0000
0000
,
0001
0000
0000
0100
0000
0000
0010
0000
,
1001
0000
0000
1001
0000
0000
1000
0000
,
0010
0001
0010
1000
,
1001
0000
0000
1001
0000
0000
0001
0000
,
0010
1000
0010
0001
,
0100
0000
0000
0101
0000
0000
0000
1001
,
0000
0000
0000
1100
0000
0000
0000
1001
,
0000
0000
1000
0000
0001
0000
0000
0010
,
0000
0100
0000
1000
0000
0000
0001
0000
,
2002
0000
0000
0000
3003
0000
0000
0000
0001
0000
0000
0100
0000
0000
0001
0000
,
1000
0000
0000
0100
0000
0000
1000
0000
0000
0000
0000
0000
0000
0000
0001
0000
,
0001
0000
0000
1000
0000
0000
0001
0000
0000
0000
1000
0000
0000
1000
0000
0000
,
0001
0000
0000
1000
0000
0000
0001
0000
0000
0000
0000
0000
0000
1000
0000
0000
,
0020
0000
0000
0000
0030
0000
0000
0000
0000
0000
1000
0000
0000
0001
0000
0000
,
0020
0000
0000
0000
0030
0000
0000
0000
0100
0000
0000
0010
0000
0000
0001
0000
,
0200
0000
0000
0000
0300
0000
0000
0000
0000
0000
0010
0000
0000
1000
0000
0000
,
0200
0300
0020
0000
,
0000
0000
0000
0000
,
0000
0000
0030
0000
;

//---------------dance-single - ----------------
#NOTEDATA:;
#CHARTNAME:;
#STEPSTYPE:dance-single;
#DESCRIPTION:;
#CHARTSTYLE:;
#DIFFICULTY:Easy;
#METER:7;
#RADARVALUES:0.273787,0.487767,0.157091,0.212072,0.000000,244.000000,224.000000,20.000000,27.000000,0.000000,0.000000,0.000000,0.000000,0.000000,0.273787,0.487767,0.157091,0.212072,0.000000,244.000000,224.000000,20.000000,27.000000,0.000000,0.000000,0.000000,0.000000,0.000000;
#CREDIT:;
#NOTES:
0000
0000
0000
0000
,
0000
0000
0000
0000
,
0000
0000
0000
0000
,
0000
0000
0000
0000
,
0000
0000
0000
0000
,
0000
0000
0000
0000
,
0000
0000
0000
0000
,
0000
0000
0001
0000
,
0002
0000
0000
0003
,
0000
0000
1000
0000
,
2000
0000
0000
3000
,
0000
0000
0001
0000
,
0002
0000
0000
0003
,
0000
0000
1000
0000
,
0000
0000
0001
0000
,
1000
0000
0000
0001
0000
1000
0000
0000
,
0002
0000
0103
0000
,
0001
0000
1000
0001
,
2000
0000
3100
0000
,
1000
0000
0001
0100
,
0020
0000
0130
0000
,
0010
0000
1000
0001
,
0020
0000
0000
0100
0000
0130
0000
0000
,
0010
0001
1000
0000
,
0001
0000
0001
0000
,
0100
0000
0100
0000
,
0010
0000
0010
0000
,
1000
0000
0001
1000
,
0001
0000
0001
0000
,
0010
0000
0010
0000
,
0100
0000
0100
0000
,
0010
0001
1000
0001
,
0100
0000
0100
0000
,
0010
0000
0010
0000
,
1000
0000
1000
0000
,
0100
0000
0010
0001
,
1000
0000
1000
0000
,
0001
0000
0001
0000
,
0100
0000
0100
0000
,
0010
0000
0000
1000
0000
1000
0000
0000
,
1001
0000
0000
0000
0000
1001
0000
1001
,
0000
1000
0001
0000
,
0101
0000
0000
0000
0000
1010
0000
1010
,
0000
0010
1000
0000
,
1100
0000
0000
0011
0000
0011
0000
0011
,
0000
0001
1000
0000
,
1001
0000
1001
0000
,
1001
0000
1000
0001
,
1000
0000
0010
0000
,
0100
0010
1000
0000
,
0001
0000
0010
0000
,
0100
0010
0001
0000
,
1000
0000
0010
0000
,
0100
0001
0010
0000
,
0001
0000
1000
0000
,
0100
1000
0010
0000
,
1000
0010
1000
0010
,
1000
0010
1000
0000
,
0001
0010
0001
0010
,
0001
0010
0001
0000
,
0100
0100
0100
0100
,
0010
0010
0010
0010
,
0100
0010
0100
0010
,
0100
0010
0100
0000
,
2001
0000
3020
0000
,
0230
0000
0302
0000
,
0023
0000
0230
0000
,
2300
0000
3002
0000
,
1003
1000
0010
0000
,
0100
0000
0010
0000
,
1000
1000
0001
0000
,
0010
0000
0001
0000
,
0100
0100
0010
0000
,
1000
0000
0001
0000
,
0010
0010
0100
0000
,
2002
0000
0000
0000
,
0000
0000
0000
0000
,
0000
0000
3003
0000
,
0001
0000
0001
0000
,
0010
0001
1000
0000
,
0010
0000
0010
0000
,
0100
0010
1000
0001
,
0010
0000
0010
0000
,
0100
1000
0001
0000
,
0100
0000
0100
0000
,
0010
0000
1000
0001
,
1000
0000
1000
0000
,
0100
0010
0001
0010
,
0100
0000
0100
0000
,
1000
0001
0100
0010
,
1000
0000
0000
1010
0000
0000
0000
0110
,
0000
0000
0000
0101
0000
0000
0000
1001
,
0000
0000
0000
0000
1000
0000
0000
0100
,
0000
0010
0000
0001
0000
0000
0000
0000
,
2002
3003
0001
0000
,
0100
0000
0010
0000
,
1000
0000
1000
0000
,
0001
0000
0001
0000
,
2000
0000
3200
0000
,
0320
0000
0032
0000
,
0203
0000
2300
0000
,
3020
0000
0002
0000
,
0000
0000
0000
0000
,
0000
0000
0033
0000
;

//---------------dance-single - ----------------
#NOTEDATA:;
#CHARTNAME:;
#STEPSTYPE:dance-single;
#DESCRIPTION:;
#CHARTSTYLE:;
#DIFFICULTY:Beginner;
#METER:3;
#RADARVALUES:0.158213,0.551388,0.141382,0.102109,0.000000,141.000000,123.000000,18.000000,13.000000,0.000000,0.000000,0.000000,0.000000,0.000000,0.158213,0.551388,0.141382,0.102109,0.000000,141.000000,123.000000,18.000000,13.000000,0.000000,0.000000,0.000000,0.000000,0.000000;
#CREDIT:;
#OFFSET:-0.004935;
#BPMS:0.000000=222.000000
;
#STOPS:;
#DELAYS:;
#WARPS:;
#TIMESIGNATURES:0.000000=4=4
;
#TICKCOUNTS:0.000000=4
;
#COMBOS:0.000000=1
;
#SPEEDS:0.000000=1.000000=0.000000=0
;
#SCROLLS:0.000000=1.000000
;
#FAKES:;
#LABELS:0.000000=Song Start
;
#NOTES:
0000
0000
0000
0000
,
0000
0000
0000
0000
,
0000
0000
0000
0000
,
0000
0000
0000
0000
,
0000
0000
0000
0000
,
0000
0000
0000
0000
,
0000
0000
0000
0000
,
0000
0000
0000
0000
,
0002
0000
0000
0003
,
0000
0000
0000
0000
,
2000
0000
0000
3000
,
0000
0000
0000
0000
,
0002
0000
0000
0003
,
0000
0000
0000
0000
,
2000
0000
3000
0000
,
0002
0000
0003
0000
,
0001
0000
0000
0000
,
0100
0000
0000
0000
,
0010
0000
0000
0000
,
1000
0000
0000
0000
,
0100
0000
0000
0000
,
0010
0000
0000
0000
,
0001
0000
0000
0000
,
1000
0000
0010
0000
,
1000
0000
0000
0000
,
0100
0000
0000
0000
,
0010
0000
0000
0000
,
0001
0000
0000
0000
,
1000
0000
0000
0000
,
0010
0000
0000
0000
,
0100
0000
0000
0000
,
0010
0000
1000
0000
,
0001
0000
0000
0000
,
0010
0000
0000
0000
,
0100
0000
0000
0000
,
1000
0000
0000
0000
,
0010
0000
0000
0000
,
0100
0000
0000
0000
,
0001
0000
0000
0000
,
1000
0000
0000
0000
,
1001
0000
0000
0000
,
1001
0000
0100
0000
,
1001
0000
0000
0000
,
1001
0000
0010
0000
,
1001
0000
0000
0000
,
1001
0000
0100
0000
,
1001
0000
1001
0000
,
1001
0000
1001
1001
,
1001
0000
1000
0000
,
0010
0000
0010
0000
,
0100
0000
0100
0000
,
0001
0000
0001
0000
,
0010
0000
0010
0000
,
0100
0000
0100
0000
,
1000
0000
1000
0000
,
0001
0000
0001
0000
,
0100
0000
0100
0000
,
0100
0000
0100
0000
,
0010
0000
0010
0000
,
0010
0000
0010
0000
,
1000
0000
0001
0000
,
1000
0000
0001
0000
,
1001
0000
0110
0000
,
1001
0000
0110
0000
,
2001
0000
0000
0000
,
3000
0000
0000
0000
,
0020
0000
0000
0000
,
0030
0000
0000
0000
,
0200
0000
0000
0000
,
0300
0000
0000
0000
,
0002
0000
0000
0000
,
0003
0000
0000
0000
,
1000
0000
0000
0000
,
0100
0000
0000
0000
,
0010
0000
0000
0000
,
0001
0000
0000
0000
,
0100
0000
0000
0000
,
0010
0000
0000
0000
,
1000
0000
0000
0000
,
2002
0000
0000
0000
,
0000
0000
0000
0000
,
0000
0000
3003
0000
,
0001
0000
0000
0000
,
0010
0000
0001
0000
,
1000
0000
0000
0000
,
0010
0000
1000
0000
,
0001
0000
0000
0000
,
0100
0000
0001
0000
,
1000
0000
0000
0000
,
0100
0000
0010
0000
,
0001
0000
0000
0000
,
0100
0000
0010
0000
,
1000
0000
0000
0000
,
0001
0000
1000
0000
,
0200
0000
0000
0000
,
0000
0000
0000
0000
0000
0000
0000
0300
,
0000
0000
0010
0000
,
0001
0000
0100
0000
,
0010
0000
0000
0000
,
0000
0000
0000
0000
,
1000
0000
0000
0000
,
0000
0000
0000
0000
,
0001
0000
0000
0000
,
0000
0000
0000
0000
,
1000
0000
0000
0000
,
0000
0000
0000
0000
,
0001
0000
0000
0000
,
1000
0000
0000
0000
,
0100
0000
0000
0000
,
0010
0000
0000
0000
,
0001
0000
0000
0000
,
0100
0000
0000
0000
,
0010
0000
0000
0000
,
2000
0000
0000
0000
,
0000
0000
0000
0000
,
0000
0000
0000
0000
,
0000
0000
0000
0000
,
3000
0000
0000
0000
;
