#VERSION:0.83;
#TITLE:疾風;
#SUBTITLE:;
#ARTIST:Power Of Nature;
#TITLETRANSLIT:Hayate;
#SUBTITLETRANSLIT:;
#ARTISTTRANSLIT:;
#GENRE:Strife;
#ORIGIN:;
#CREDIT:;
#BANNER:Hayate.png;
#BACKGROUND:Hayate-bg.png;
#PREVIEWVID:;
#JACKET:Hayate-jacket.png;
#CDIMAGE:;
#DISCIMAGE:;
#LYRICSPATH:;
#CDTITLE:cdtitle.png;
#MUSIC:Hayate.ogg;
#OFFSET:-0.120868;
#SAMPLESTART:32.122868;
#SAMPLELENGTH:10.666668;
#SELECTABLE:YES;
#BPMS:0.000=180.000;
#STOPS:;
#DELAYS:;
#WARPS:;
#TIMESIGNATURES:0.000=4=4;
#TICKCOUNTS:0.000=4;
#COMBOS:0.000=1;
#SPEEDS:0.000=1.000=0.000=0;
#SCROLLS:0.000=1.000;
#FAKES:;
#LABELS:0.000=Song Start;
#BGCHANGES:;
#KEYSOUNDS:;
#ATTACKS:
;

//---------------dance-single - ----------------
#NOTEDATA:;
#CHARTNAME:;
#STEPSTYPE:dance-single;
#DESCRIPTION:;
#CHARTSTYLE:;
#DIFFICULTY:Hard;
#METER:14;
#RADARVALUES:0.697128,0.693029,0.297665,0.324725,0.311195,541.000000,508.000000,33.000000,36.000000,12.000000,0.000000,0.000000,0.000000,0.000000,0.697128,0.693029,0.297665,0.324725,0.311195,541.000000,508.000000,33.000000,36.000000,12.000000,0.000000,0.000000,0.000000,0.000000;
#CREDIT:;
#NOTES:
// measure 0
0000
0000
0000
0000
,  // measure 1
0000
0000
0000
0000
,  // measure 2
0000
0000
0000
0000
,  // measure 3
0000
0000
0000
0000
,  // measure 4
0000
1000
0001
1000
0001
0010
00M0
1000
,  // measure 5
0001
1000
0001
0100
0M00
1000
0001
1000
,  // measure 6
0000
0001
1000
0001
1000
0010
00M0
0001
,  // measure 7
1000
0001
1000
0100
0M00
0001
1000
0001
,  // measure 8
2000
0000
0010
0000
0001
0000
3100
0010
,  // measure 9
0002
0000
0010
0000
1000
0000
0103
0010
,  // measure 10
2000
0000
0100
0000
0001
0000
3010
1000
,  // measure 11
0200
0000
0001
0000
0010
0000
1300
0100
,  // measure 12
0010
0000
0001
0100
0002
0000
0000
0000
1003
0000
0100
0000
1000
0000
0020
0000
,  // measure 13
0000
0000
1030
0100
2000
0000
0001
0000
0000
0000
3001
0000
0100
0000
0010
0000
,  // measure 14
1000
0100
0010
0100
0001
0100
0010
0100
,  // measure 15
1000
0000
0010
0100
0020
0000
1000
0000
0000
1000
0000
0000
0130
0000
0100
0000
,  // measure 16
0010
0000
1000
0100
2000
0000
0000
0000
3001
0000
0100
0000
0001
0000
0020
0000
,  // measure 17
0000
0000
0031
0100
0002
0000
1000
0000
0000
0000
0013
0000
0100
0000
1000
0000
,  // measure 18
0001
0100
0000
0000
0100
0010
0000
0000
0010
1000
0000
0000
1000
0100
0000
0000
,  // measure 19
0100
0001
0000
0000
0001
0100
0000
0000
0100
1000
0000
0000
1000
0010
0000
0000
,  // measure 20
0100
0001
1000
0001
1000
0010
00M0
0001
,  // measure 21
1000
0001
1000
0100
0M00
0001
1000
0001
,  // measure 22
0000
1000
0001
1000
0001
0010
00M0
1000
,  // measure 23
0001
1000
0001
0100
0M00
1000
0001
1000
,  // measure 24
0001
0000
0010
0100
0020
0000
0000
0000
0031
0000
0100
0000
1000
0000
0200
0000
,  // measure 25
0000
0000
0301
1000
0002
0000
0010
0000
0000
0000
0013
0000
0100
0000
1000
0000
,  // measure 26
0001
0100
0010
0100
1000
0100
0010
0100
,  // measure 27
0001
0000
0010
0100
0020
0000
0001
0000
0000
0001
0000
0000
0130
0000
0100
0000
,  // measure 28
1000
0000
0010
0100
0020
0000
0000
0000
1030
0000
0100
0000
0001
0000
0200
0000
,  // measure 29
0000
0000
1300
0001
2000
0000
0010
0000
0000
0000
3100
0000
1000
0000
0001
0000
,  // measure 30
1000
0010
0000
0000
0010
0100
0000
0000
0100
0001
0000
0000
0001
0010
0000
0000
,  // measure 31
0010
1000
0000
0000
1000
0010
0000
0000
0010
0001
0000
0000
0001
0100
0000
0000
,  // measure 32
1001
0000
0000
0000
1000
0010
1000
0010
1000
0000
0000
0000
0010
0000
1000
0000
,  // measure 33
0100
0010
0001
0200
0000
0310
1000
0100
,  // measure 34
0010
0000
0000
0000
0001
0010
0001
0010
0001
0000
0000
0000
0010
0000
0001
0000
,  // measure 35
0100
1000
0100
0002
0000
0013
0100
1000
,  // measure 36
0010
0000
0000
0000
0100
0001
0100
0001
0100
0000
0000
0000
0001
0000
0100
0000
,  // measure 37
0010
1000
0100
0020
0000
0031
0100
0010
,  // measure 38
1000
0000
0000
0000
0100
1000
0100
1000
0100
0000
0000
0000
1000
0000
0001
0000
,  // measure 39
1001
0010
0010
2001
0000
3001
0100
0010
,  // measure 40
2000
0001
3002
1000
,  // measure 41
1003
0000
0000
1000
0020
0000
0000
0000
2030
0000
0000
0000
3002
0000
0000
0000
,  // measure 42
0023
0000
0000
0000
0130
0000
0000
0000
0200
0000
0000
0000
1300
0000
0000
1000
,  // measure 43
0002
1000
2003
0100
,  // measure 44
3100
1000
0010
0200
0000
0310
0100
0001
,  // measure 45
0010
0100
1000
0020
0000
1030
0001
1000
,  // measure 46
0100
0010
0001
0100
0010
1000
0100
0010
,  // measure 47
0001
0100
1000
0100
0001
0010
1000
0010
,  // measure 48
0001
0000
0000
0000
,  // measure 49
0000
0000
0000
1001
0000
0100
0000
1001
,  // measure 50
0000
1000
1001
0000
0010
0001
1001
0000
,  // measure 51
1000
0100
0010
0000
0001
0100
0010
1000
,  // measure 52
0001
0000
0000
1000
0000
0000
0001
0000
0100
0000
0000
0000
0001
0000
0000
1000
,  // measure 53
0000
0001
0010
0000
0011
0000
1100
0000
,  // measure 54
1000
0000
0000
0001
0000
0000
1000
0000
0100
0000
0000
0000
1000
0000
0000
0001
,  // measure 55
0000
1000
0010
0000
1000
0100
0001
0100
,  // measure 56
1000
0000
0000
0100
0000
0000
0010
0000
0001
0000
0000
0000
0001
0000
0000
0100
,  // measure 57
0000
0010
1000
0000
1010
0000
0101
0000
,  // measure 58
0001
0000
0000
0010
0000
0000
0100
0000
1000
0000
0000
0000
1000
0000
0000
0010
,  // measure 59
0000
0100
0001
0000
0001
0010
1000
0010
,  // measure 60
0001
0010
0001
0000
0000
0000
1001
0000
0000
0000
1001
0000
0000
0000
0001
0000
,  // measure 61
1000
0010
1000
0000
0000
0000
1001
0000
0000
0000
1001
0000
0000
0000
1000
0000
,  // measure 62
0001
0000
0010
0100
0010
0100
0010
0000
0000
0000
0100
0000
0010
0000
0110
0000
,  // measure 63
0000
0110
0000
1001
0000
1000
0100
0010
,  // measure 64
0001
1000
0001
0000
0000
0000
0110
0000
0000
0000
0110
0000
0000
0000
0001
0000
,  // measure 65
1000
0001
1000
0000
0000
0000
0110
0000
0000
0000
0110
0000
0000
0000
1000
0000
,  // measure 66
1100
0000
0000
0010
0000
0000
0101
0000
0000
0000
0001
0000
0100
0000
0101
0000
,  // measure 67
0000
0010
0000
1100
0000
1000
0010
0100
,  // measure 68
0001
0010
0000
0000
0010
1000
0000
0000
1000
0100
0000
0000
0100
0001
0000
0000
,  // measure 69
1001
0000
0000
0000
0001
0010
0001
0010
0001
0000
0000
0000
0001
0000
0010
0000
,  // measure 70
0100
0001
0100
0020
0000
0130
0010
0001
,  // measure 71
1000
0000
0000
0000
1000
0010
1000
0010
1000
0000
0000
0000
1000
0000
0010
0000
,  // measure 72
0001
0010
1000
0200
0000
0301
0100
1000
,  // measure 73
0010
0000
0000
0000
1000
0001
1000
0001
1000
0000
0000
0000
0001
0000
0100
0000
,  // measure 74
0110
0000
1000
0000
1000
0000
0110
0000
0001
0000
0001
0000
,  // measure 75
1001
0000
0000
0000
1000
0001
1000
0001
1000
0000
0000
0000
0001
0000
1000
0000
,  // measure 76
1001
0010
0010
1002
0000
1003
0100
0010
,  // measure 77
0001
1000
0010
1000
0010
0001
000M
1000
,  // measure 78
0010
1000
0010
0100
0M00
1000
0001
1000
,  // measure 79
0000
0001
0010
0001
0010
1000
M000
0001
,  // measure 80
0010
0001
0010
0100
0M00
0001
1000
1001
;

//---------------dance-single - ----------------
#NOTEDATA:;
#CHARTNAME:;
#STEPSTYPE:dance-single;
#DESCRIPTION:;
#CHARTSTYLE:;
#DIFFICULTY:Medium;
#METER:10;
#RADARVALUES:0.499974,0.656554,0.423947,0.288645,0.013530,388.000000,341.000000,47.000000,32.000000,0.000000,0.000000,0.000000,0.000000,0.000000,0.499974,0.656554,0.423947,0.288645,0.013530,388.000000,341.000000,47.000000,32.000000,0.000000,0.000000,0.000000,0.000000,0.000000;
#CREDIT:;
#NOTES:
0000
0000
0000
0000
,
0000
0000
0000
0000
,
0000
0000
0000
0000
,
0000
0000
0000
0000
,
1000
0010
0001
0001
,
1000
0100
0001
1000
,
0001
0010
1000
1000
,
0001
0000
0100
0000
1000
0000
0001
1000
,
0002
0010
0010
0010
,
2003
0100
0100
0100
,
3002
0100
0100
0100
,
2003
3010
1001
1001
,
1000
0001
2000
0000
3010
0000
1000
0100
,
0000
0010
0002
0000
0103
0000
0010
0000
,
1000
0010
0100
0000
0100
0001
1000
0000
,
1000
0100
0020
0000
0100
0000
0031
0000
,
0001
1000
0002
0000
0013
0000
0001
0100
,
0000
0010
2000
0000
3100
0000
0010
0000
,
0011
0110
1100
1001
,
0101
1010
1100
0011
,
1001
0100
0001
0001
,
1000
0010
0001
1000
,
0001
0100
1000
1000
,
0001
0010
1000
0001
,
1000
0010
2000
0000
3100
0000
0010
0001
,
0000
0100
0020
0000
0130
0000
0001
0000
,
0010
0001
0100
0000
0100
0010
1000
0000
,
1000
0100
0020
0000
0100
0000
0031
0000
,
0001
0010
0002
0000
0103
0000
0010
1000
,
0000
0100
0020
0000
0130
0000
1000
0000
,
1010
0110
0101
1001
,
1100
0011
0101
1010
,
1001
0000
0001
1000
0100
0000
0010
0000
,
0001
0000
0100
0020
0000
1030
0100
0010
,
0001
1000
0010
1000
,
0100
0000
0010
0002
0000
1003
0010
1000
,
0100
0000
0010
0100
1000
0000
0001
0000
,
0100
0000
0010
2000
0000
3001
0010
0100
,
1000
0000
0010
1000
0001
0000
0010
0000
,
0110
0000
0000
1001
0000
0000
0010
0000
,
1002
0000
0203
0000
,
0301
0020
0230
2300
,
3002
0000
0203
0000
,
0320
0000
2030
0000
,
3001
0000
0100
0020
0000
1030
0001
0000
,
1000
0000
0100
2000
0000
3010
0100
0000
,
0001
0000
1000
0001
0000
1000
0010
1000
,
0001
0000
0010
0000
0100
0000
0010
0001
,
1000
0000
0000
0000
,
0000
0000
0000
0001
0000
1000
0000
1000
,
0000
0001
1000
0000
0001
0000
1000
0000
,
0001
0000
0100
0000
0010
1000
0100
0010
,
0001
0000
0100
0101
,
0000
1010
0000
0000
1001
0000
1001
0000
,
0011
0000
0100
1100
,
0000
1010
0000
0000
1000
0001
1000
0001
,
1000
0000
0010
0110
,
0000
1001
0000
0000
0011
0000
0110
0000
,
1100
0000
0001
1001
,
0000
0110
0000
0000
0001
1000
0001
1000
,
0001
0100
0000
0001
0000
0001
0000
0001
,
1000
0100
0000
1000
0000
1000
0000
1000
,
0001
0000
0100
0010
0000
1000
0001
0010
,
0000
0010
0000
2002
0000
0000
3003
0000
,
1000
0100
0000
0010
0000
0010
0000
0001
,
0100
0001
0000
0010
0000
0010
0000
0100
,
1000
0000
0000
0001
0000
0000
1000
0000
0000
0000
0001
0000
1000
0000
0001
0000
,
0000
1001
0000
1001
0000
1000
0100
0000
,
1100
0101
0011
1010
,
1001
0000
0001
1000
0100
0000
0010
0000
,
0001
0000
1000
0020
0000
1030
0100
0010
,
0001
0000
1000
0010
0100
0000
0010
0000
,
1000
0000
0100
0020
0000
0130
1000
0001
,
0100
0000
0010
0100
0001
0000
1000
0000
,
0001
0000
0010
0000
0100
0000
1000
0000
0000
0110
0000
0000
,
1001
0000
1000
0010
0100
0000
0001
0000
,
1000
0000
0010
0001
0000
0010
1000
0000
,
0001
0010
1000
1000
,
0100
0001
0010
0100
,
1000
0010
0001
0001
,
0100
0000
1000
0000
0010
0000
0100
0001
;

//---------------dance-single - ----------------
#NOTEDATA:;
#CHARTNAME:;
#STEPSTYPE:dance-single;
#DESCRIPTION:;
#CHARTSTYLE:;
#DIFFICULTY:Easy;
#METER:6;
#RADARVALUES:0.314416,0.401227,0.135302,0.180403,0.000000,244.000000,229.000000,15.000000,20.000000,0.000000,0.000000,0.000000,0.000000,0.000000,0.314416,0.401227,0.135302,0.180403,0.000000,244.000000,229.000000,15.000000,20.000000,0.000000,0.000000,0.000000,0.000000,0.000000;
#CREDIT:;
#NOTES:
0000
0000
0000
0000
,
0000
0000
0000
0000
,
0000
0000
0000
0000
,
0000
0000
0000
0000
,
0000
0001
1000
0000
,
1000
0100
0000
0010
,
0000
0001
0100
0000
,
0110
0001
1000
0001
,
1000
0000
0100
0000
,
0001
0000
0100
0000
,
1000
0000
0010
0000
,
0001
0000
0010
0000
,
2000
3000
0100
0010
,
0001
0200
0300
0010
,
1000
0001
1000
0100
,
0010
0002
0000
0003
,
2001
3000
0010
1000
,
0100
0020
0030
0100
,
1001
1000
0010
0010
,
0100
0001
0010
0100
,
1001
0001
0100
0000
,
0100
0010
0000
1000
,
0000
0001
1000
0000
,
1000
0100
0000
0010
,
0002
0003
0100
0010
,
1000
0200
0300
0010
,
0001
0100
1000
0100
,
0001
2000
0000
3000
,
1002
0003
0010
0001
,
0100
0020
0030
1000
,
1001
0001
0010
0010
,
1000
0010
0001
0100
,
1001
0000
0100
0000
,
0001
0010
0100
1000
,
0001
0000
1000
0000
,
0010
1000
0100
0010
,
0001
0000
1000
0000
,
0010
0100
0001
1000
,
0100
0000
0010
0000
,
0001
0100
0010
1000
,
0002
0000
0203
0000
,
0300
0020
2030
3002
,
0023
0000
0230
0000
,
2300
0000
3020
0000
,
1030
0001
0100
0000
,
0010
1000
0100
0000
,
0010
0001
1000
0010
,
0100
0100
0010
0010
,
1001
0000
0000
0000
,
0000
0000
0000
0010
0000
0100
0000
0010
,
0000
1000
0001
1000
,
0001
0010
0100
1000
,
0001
0000
0001
0100
,
0000
0100
0010
0010
,
1000
0000
1000
0100
,
0000
0010
0001
0001
,
1000
0000
0010
0001
,
0000
0010
1000
1000
,
0001
0000
0010
1000
,
0000
0010
0001
0100
,
1001
0000
0000
1000
0000
1000
0000
0000
,
1001
0000
0000
0001
0000
0001
0000
0000
,
1000
0010
0100
0001
,
0010
0200
0000
0300
,
1100
0000
0000
0001
0000
0001
0000
0000
,
0101
0000
0000
1000
0000
1000
0000
0000
,
0001
0001
0100
0100
,
0010
1000
0001
0010
,
0001
0100
1000
0010
,
0001
0000
1000
0000
,
0001
0100
1000
0100
,
0001
0000
1000
0000
,
0001
0010
1000
0010
,
0001
0000
1000
0000
,
1001
0010
0100
0010
,
1001
0000
0100
0000
,
1000
0010
0100
0001
,
1000
0001
0010
0000
,
0010
0100
0000
1000
,
0000
0010
1000
0000
,
1000
0000
0001
0000
0000
0000
0000
1001
;

//---------------dance-single - ----------------
#NOTEDATA:;
#CHARTNAME:;
#STEPSTYPE:dance-single;
#DESCRIPTION:;
#CHARTSTYLE:;
#DIFFICULTY:Beginner;
#METER:2;
#RADARVALUES:0.150765,0.182658,0.054121,0.027060,0.000000,117.000000,111.000000,6.000000,3.000000,0.000000,0.000000,0.000000,0.000000,0.000000,0.150765,0.182658,0.054121,0.027060,0.000000,117.000000,111.000000,6.000000,3.000000,0.000000,0.000000,0.000000,0.000000,0.000000;
#CREDIT:;
#NOTES:
0000
0000
0000
0000
,
0000
0000
0000
0000
,
0000
0000
0000
0000
,
0000
0000
0000
0000
,
1000
0000
0000
0000
,
0001
0000
0000
0000
,
1000
0000
0000
0000
,
0001
0000
0000
0000
,
1000
0000
0100
0000
,
0010
0000
0000
0000
,
0001
0000
0100
0000
,
0010
0000
0000
0000
,
1000
0000
1000
0000
,
0100
0000
0000
0000
,
0010
0000
0001
0000
,
1000
0000
0000
0000
,
0001
0000
0001
0000
,
0010
0000
0000
0000
,
0001
0000
0100
0000
,
0010
0000
1000
0000
,
0001
0000
0000
0000
,
1000
0000
0000
0000
,
0001
0000
0000
0000
,
1000
0000
0000
0000
,
0001
0000
0001
0000
,
0100
0000
0000
0000
,
0010
0000
1000
0000
,
0001
0000
0000
0000
,
1000
0000
1000
0000
,
0010
0000
0000
0000
,
1000
0000
0100
0000
,
0010
0000
0001
0000
,
1000
0000
0000
0000
,
0100
0000
0010
0000
,
0001
0000
0000
0000
,
0100
0000
0001
0000
,
0010
0000
0000
0000
,
0100
0000
1000
0000
,
0001
0000
0000
0000
,
0010
0000
0001
0000
,
1000
0000
0200
0000
,
0300
0000
0010
0000
,
0001
0000
0100
0000
,
0010
0000
1000
0000
,
0002
0000
0003
0000
,
0200
0000
0300
0000
,
0010
0000
0010
0000
,
1000
0000
0001
0000
,
0010
0000
0000
0000
,
0000
0000
0000
0000
,
0000
0001
0000
1000
,
0000
0000
1001
0000
,
1000
0000
0000
0100
,
0000
0000
0010
0000
,
0001
0000
0000
0100
,
0000
0000
0010
0000
,
1000
0000
0000
0100
,
0000
0000
1000
0000
,
0010
0000
0000
0100
,
0000
0000
0001
0000
,
1001
0000
0000
0000
,
0110
0000
0000
0000
,
1000
0000
0010
0000
,
0100
0000
0000
0000
,
1001
0000
0000
0000
,
0110
0000
0000
0000
,
0001
0000
0100
0000
,
0010
0000
1000
0000
,
0100
0000
0010
0000
,
0001
0000
0000
0000
,
0100
0000
0010
0000
,
1000
0000
0000
0000
,
0100
0000
1000
0000
,
0010
0000
0000
0000
,
0110
0000
0001
0000
,
1000
0000
0000
0000
,
0010
0000
1000
0000
,
0001
0000
0000
0000
,
1000
0000
0000
0000
,
0001
0000
0000
0000
,
1000
0000
0000
0000
,
0100
0000
0000
0000
;

//---------------dance-single - ----------------
#NOTEDATA:;
#CHARTNAME:;
#STEPSTYPE:dance-single;
#DESCRIPTION:;
#CHARTSTYLE:;
#DIFFICULTY:Challenge;
#METER:16;
#RADARVALUES:0.833719,0.949088,0.369826,0.387866,0.631410,647.000000,606.000000,41.000000,43.000000,24.000000,0.000000,0.000000,0.000000,0.000000,0.833719,0.949088,0.369826,0.387866,0.631410,647.000000,606.000000,41.000000,43.000000,24.000000,0.000000,0.000000,0.000000,0.000000;
#CREDIT:;
#NOTES:
0000
0000
0000
0000
,
0000
0000
0000
0000
,
0000
0000
0000
0000
,
0000
0000
0000
0000
,
0000
1000
1000
1000
1000
0010
0MM0
0001
,
0001
0001
0001
0100
0MM0
1000
1000
1000
,
0000
0001
0001
0001
0001
0010
0MM0
1000
,
1000
0000
1000
0000
1000
0000
0100
0000
0MM0
0000
0001
0100
0001
0100
0001
0100
,
0001
1000
0100
0000
1000
0100
0000
0010
0001
0000
0010
0001
0000
0010
0001
1000
,
0001
0100
0001
0000
0100
0001
0000
1000
0010
0000
1000
0010
1000
0001
0000
1000
,
0100
0010
0001
0000
1000
0001
0000
0100
0010
0000
1000
0001
0000
1000
0100
0010
,
0001
0100
0010
0000
1000
0100
0000
0010
0001
0000
0100
0010
1000
0100
0000
0010
,
0001
0000
0001
0100
0020
0000
0000
0000
0130
0000
1000
0000
0100
0000
0020
0000
,
0000
0000
0130
0001
2000
0000
0001
0000
0000
0000
3001
0000
0010
0000
0100
0000
,
1000
0000
1000
0010
0100
0000
0100
0001
1000
0000
1000
0100
0010
0000
0100
0000
,
0001
0000
0001
0100
0020
0000
0001
0000
0000
0001
0000
0000
0031
0010
0100
0000
,
1000
0000
1000
0010
0200
0000
0000
0000
1300
0000
0100
0000
0001
0000
0020
0000
,
0000
0000
0130
1000
0002
0000
1000
0000
0000
0000
0103
0000
0010
0000
0010
0000
,
1000
0001
0010
0000
0010
0001
1000
0000
1000
0010
0100
0000
0100
0001
1000
0000
,
0001
1000
0100
0000
0100
0010
1000
0000
1000
0010
0100
0000
0100
1000
0001
0000
,
1000
0001
0001
0001
0001
0100
0MM0
1000
,
1000
0000
1000
0000
1000
0000
0010
0000
0MM0
0000
0001
0010
0001
0000
0100
0000
,
0001
1000
1000
1000
1000
0100
0MM0
0001
,
0001
0000
0001
0000
0001
0000
0010
0000
0MM0
0000
1000
0010
0100
0001
0100
0001
,
1000
0000
1000
0100
0020
0000
0000
0000
0130
0000
0001
0000
0100
0000
0020
0000
,
0000
0000
0130
1000
0002
0000
1000
0000
0000
0000
1003
0000
0010
0000
0100
0000
,
0001
0000
0001
0010
0100
0000
0100
1000
0001
0000
0001
0100
0010
0000
0100
0000
,
1000
0000
1000
0100
0020
0000
1000
0000
0000
1000
0000
0000
1030
0010
0100
0000
,
0001
0000
0001
0010
0200
0000
0000
0000
0301
0000
0100
0000
1000
0000
0020
0000
,
0000
0000
0130
0001
2000
0000
0001
0000
0000
0000
3100
0000
0010
0000
0010
0000
,
0001
1000
0010
0000
0010
1000
0001
0000
0001
0010
0100
0000
0100
1000
0001
0000
,
1000
0001
0100
0000
0100
0010
0001
0000
0001
0010
0100
0000
0100
0001
1000
0000
,
1001
0000
0000
0000
1000
0100
0010
0001
1000
0000
0000
0000
1000
0000
0100
0000
,
0001
0100
0010
0002
0000
1003
0100
0010
,
0001
0000
0000
0000
0001
0100
0010
1000
0001
0000
0000
0000
0001
0000
0100
0000
,
1000
0000
0001
0000
0010
0000
0200
0000
0000
0000
0310
0000
1000
0001
1000
0001
,
1000
0000
0000
0000
1000
0100
0010
0001
1000
0000
0000
0000
0001
0000
0010
0000
,
1000
0010
0001
0200
0000
1300
0100
0001
,
1000
0000
0000
0000
0001
0100
0010
1000
0001
0000
0000
0000
1000
0000
0010
0000
,
0001
0000
0010
0100
0010
0000
1000
0000
0001
0010
0001
0010
0100
1000
0100
1000
,
0002
0100
2003
0100
,
3100
0000
0000
0010
0002
0000
0000
0000
2003
0000
0000
0000
3020
0000
0000
0000
,
0230
0000
0000
0000
0001
0000
0000
0000
0320
0000
0000
0000
1030
0000
0000
1000
,
0200
0000
0000
0000
1000
0000
0000
0000
0320
0000
0000
0000
0031
0000
1000
0001
,
1000
0100
1000
0020
0000
0130
0001
0010
,
0001
0100
1000
0200
0000
0310
0100
0001
,
1000
1000
0100
0001
0001
0100
0010
0001
,
1000
0000
0010
0000
0001
0000
0010
0000
1000
0000
0001
0010
0100
1000
0010
0100
,
0001
0000
0000
0000
,
0000
0000
0000
1100
0000
0010
0000
0101
,
0000
0010
1001
0000
1000
0100
0110
0000
,
0001
0000
0000
0100
0000
0000
0110
0000
0000
0010
0000
0000
1000
0000
0100
0000
0010
0000
0001
0000
0100
0000
0010
0000
,
2000
0000
0000
0100
0000
0000
3100
0000
1001
0000
0000
0000
0002
0000
0000
0100
,
0000
0000
1003
0000
1001
0000
0000
0000
0020
0030
0000
0000
2000
3000
0000
0000
,
0002
0000
0000
0010
0000
0000
0013
0000
1001
0000
0000
0000
2000
0000
0000
0010
,
0000
0000
3001
0000
1001
0000
0000
0000
1000
0000
1000
0000
1000
0100
1000
0100
,
0020
0000
0000
0001
0000
0000
0130
0000
0110
0000
0000
0000
0200
0000
0000
1000
,
0000
0000
0310
0000
0110
0000
0000
0000
0002
0003
0000
0000
2000
3000
0000
0000
,
0020
0000
0000
1000
0000
0000
0130
0000
0101
0000
0000
0000
0200
0000
0000
0001
,
0000
0000
0310
0000
1010
0000
0000
0000
0001
0000
0001
0000
0001
1000
0001
1000
,
0100
0010
0001
0000
0000
0000
0011
0000
0000
0000
1001
0000
0000
0000
0101
0000
,
0100
0010
1000
0000
0000
0000
1010
0000
0000
0000
1001
0000
0000
0000
1100
0000
,
1000
0000
0001
0100
0010
0100
0001
0000
0000
0000
1000
0000
0100
0000
0110
0000
,
0000
0000
0110
0000
0000
0000
1001
0000
0000
0000
0001
1000
0100
0010
0100
0010
,
0100
1000
0010
0000
0000
0000
1010
0000
0000
0000
1100
0000
0000
0000
0101
0000
,
0100
0001
0010
0000
0000
0000
0011
0000
0000
0000
0101
0000
0000
0000
1100
0000
,
1001
0000
0000
1001
0000
0000
0110
0000
0000
0000
0001
0000
0100
0000
1010
0000
,
0000
1100
0000
0011
0000
1000
0100
0010
,
0001
0010
0100
1000
0001
0000
1000
0010
0100
0000
0001
0100
0010
1000
0100
0010
,
0001
0000
0000
0000
1000
0010
0100
0010
1000
0000
0000
0000
1000
0000
0010
0000
,
0001
0010
0100
0002
0000
0013
1000
0010
,
0001
0000
0000
0000
0001
0010
0100
0010
0001
0000
0000
0000
0001
0000
0010
0000
,
1000
0000
0001
0000
0100
0000
0020
0000
0000
0000
0031
0000
0100
0000
0010
1000
,
0001
0000
0000
0000
1000
0100
0010
0001
0100
0000
0000
0000
0001
0000
0100
0000
,
1010
0000
0110
0000
0101
0000
1001
0000
1100
0000
0010
0001
,
1001
0000
0000
0000
0001
0100
0010
1000
0100
0000
0000
0000
1000
0000
0010
0000
,
0001
0000
1000
0000
0100
0000
0002
0000
0000
0000
0013
0000
0100
0010
0001
0100
,
0010
1000
1000
1000
1000
0010
0MM0
0001
,
0001
0000
0001
0000
0001
0000
0100
0000
0MM0
0000
1000
0000
1000
0000
1000
0010
,
0100
0001
0001
0001
0001
0010
0MM0
1000
,
1000
0000
1000
0000
1000
0000
0100
0000
0MM0
0000
0001
0100
0001
0100
0010
1000
;
