#TITLE:ハッピーシンセサイザ;
#SUBTITLE:;
#ARTIST:EasyPop;
#TITLETRANSLIT:Happy Synthesizer;
#SUBTITLETRANSLIT:;
#ARTISTTRANSLIT:;
#GENRE:Synth Pop;
#CREDIT:;
#BANNER:Happy Synthesizer.png;
#BACKGROUND:Happy Synthesizer-bg.png;
#LYRICSPATH:;
#CDTITLE:cdtitle.png;
#MUSIC:Happy Synthesizer.ogg;
#OFFSET:-0.048377;
#SAMPLESTART:54.851097;
#SAMPLELENGTH:15.117992;
#SELECTABLE:YES;
#BPMS:0.000000=127.000992
;
#STOPS:
;
#BGCHANGES:;
#KEYSOUNDS:;
#ATTACKS:;

//---------------dance-single - ----------------
#NOTES:
     dance-single:
     :
     Medium:
     7:
     0.300213,0.340587,0.113874,0.134578,0.000000,203.000000,192.000000,11.000000,13.000000,0.000000,0.000000,0.300213,0.340587,0.113874,0.134578,0.000000,203.000000,192.000000,11.000000,13.000000,0.000000,0.000000:
// measure 0
0000
0000
0000
0000
,  // measure 1
0000
0000
0000
0000
,  // measure 2
0000
0000
0000
0000
,  // measure 3
0000
0000
0000
0000
,  // measure 4
0000
0000
0000
0000
,  // measure 5
1000
0100
1000
0010
,  // measure 6
0100
0001
0010
0001
,  // measure 7
0100
0010
1000
0100
,  // measure 8
0010
0000
0001
0000
1000
0010
1000
0000
,  // measure 9
0001
0100
0001
0010
,  // measure 10
0100
1000
0010
1000
,  // measure 11
0100
0010
0001
0100
,  // measure 12
0010
0010
2002
3003
,  // measure 13
0001
0100
0001
0000
0100
0000
0001
0000
,  // measure 14
1000
0100
1000
0000
0100
0000
1000
0000
,  // measure 15
0001
0010
0001
0000
0010
0000
0001
0000
,  // measure 16
1000
0010
1000
0010
2000
0000
3000
0000
,  // measure 17
0001
0010
0001
0000
0010
0000
0001
0000
,  // measure 18
1000
0010
1000
0000
0010
0000
1000
0000
,  // measure 19
0100
0010
0100
0000
1000
0000
0001
0000
,  // measure 20
0100
0010
2002
3003
,  // measure 21
1000
0100
0010
0000
0100
0000
0010
0000
,  // measure 22
0001
0100
0010
0000
0100
0000
0010
0000
,  // measure 23
1000
0001
0010
0000
0001
0000
1000
0000
,  // measure 24
0010
0100
0010
0100
0020
0000
0030
0000
,  // measure 25
0100
0010
1000
0000
0001
0000
1000
0000
,  // measure 26
0100
0010
0001
0000
1000
0000
0001
0000
,  // measure 27
0100
0001
1000
0000
0100
0000
0010
0000
,  // measure 28
0100
0100
2002
3003
,  // measure 29
1000
0010
1000
0000
0001
0000
0001
0000
,  // measure 30
1000
0100
1000
0000
0001
0000
0100
0000
,  // measure 31
0010
1000
0001
0000
0001
1000
0100
0000
,  // measure 32
0010
0001
0010
0001
2000
0000
3000
0000
,  // measure 33
0001
0010
0001
0000
1000
0000
1000
0000
,  // measure 34
0001
0100
0001
0000
1000
0000
0100
0000
,  // measure 35
0010
0001
1000
0000
1000
0001
0100
0000
,  // measure 36
1001
0110
2002
3003
,  // measure 37
0000
1000
0100
0000
0010
0000
0011
0000
,  // measure 38
0000
0001
0100
0000
0010
0000
1010
0000
,  // measure 39
0000
1000
0001
0000
1000
0000
0100
0000
,  // measure 40
1000
0001
1000
0001
0200
0000
0300
0000
,  // measure 41
0000
0001
0100
0000
0010
0000
0101
0000
,  // measure 42
0000
1000
0100
0000
0010
0000
1100
0000
,  // measure 43
0000
0001
0100
0000
0010
0000
1000
0000
,  // measure 44
0100
0010
0100
0010
0200
0000
0300
0000
,  // measure 45
1000
0000
0001
0000
0100
0100
0100
0000
,  // measure 46
0001
1000
0100
0010
,  // measure 47
1001
0000
0000
0000
;

//---------------dance-single - ----------------
#NOTES:
     dance-single:
     :
     Easy:
     4:
     0.202607,0.218949,0.031057,0.103522,0.000000,137.000000,134.000000,3.000000,10.000000,0.000000,0.000000,0.202607,0.218949,0.031057,0.103522,0.000000,137.000000,134.000000,3.000000,10.000000,0.000000,0.000000:
// measure 0
0000
0000
0000
0000
,  // measure 1
0000
0000
0000
0000
,  // measure 2
0000
0000
0000
0000
,  // measure 3
0000
0000
0000
0000
,  // measure 4
0000
0000
0000
0000
,  // measure 5
1000
0010
1000
0000
,  // measure 6
0001
0010
0001
0000
,  // measure 7
1000
0010
1000
0000
,  // measure 8
0001
0001
1000
1000
,  // measure 9
0001
0100
0001
0000
,  // measure 10
1000
0100
1000
0000
,  // measure 11
0001
0100
0001
0000
,  // measure 12
1000
0100
0010
0000
,  // measure 13
0001
0001
0100
0000
,  // measure 14
0010
0010
1000
0000
,  // measure 15
0001
0001
1000
0000
,  // measure 16
0100
0010
0002
0003
,  // measure 17
1000
1000
0010
0000
,  // measure 18
0100
0100
0001
0000
,  // measure 19
1000
1000
0001
0000
,  // measure 20
0010
0100
2000
3000
,  // measure 21
0001
0100
0010
0000
,  // measure 22
1000
0100
0010
0000
,  // measure 23
0001
0100
0001
0100
,  // measure 24
0010
1000
0002
0003
,  // measure 25
1000
0100
0010
0000
,  // measure 26
0001
0100
0010
0000
,  // measure 27
1000
0100
0010
0001
,  // measure 28
2000
0000
3000
0000
,  // measure 29
0001
0001
0010
0010
,  // measure 30
0001
1000
0010
0000
,  // measure 31
0100
0100
0010
0010
,  // measure 32
1000
0001
2002
3003
,  // measure 33
1000
1000
0010
0010
,  // measure 34
1000
0001
0010
0000
,  // measure 35
0100
0100
0010
0010
,  // measure 36
0001
1000
2002
3003
,  // measure 37
0001
0100
0010
0000
,  // measure 38
0100
0010
1000
0000
,  // measure 39
0001
0100
0010
1000
,  // measure 40
0010
0100
0002
0003
,  // measure 41
1000
0100
0010
0000
,  // measure 42
0100
0010
0001
0000
,  // measure 43
1000
0100
0010
0001
,  // measure 44
0010
0100
2000
3000
,  // measure 45
0001
0100
1000
0000
,  // measure 46
1000
0100
0001
0000
,  // measure 47
1001
0000
0000
0000
;

//---------------dance-single - ----------------
#NOTES:
     dance-single:
     :
     Beginner:
     1:
     0.085775,0.121638,0.020704,0.031057,0.000000,58.000000,56.000000,2.000000,3.000000,0.000000,0.000000,0.085775,0.121638,0.020704,0.031057,0.000000,58.000000,56.000000,2.000000,3.000000,0.000000,0.000000:
// measure 0
0000
0000
0000
0000
,  // measure 1
0000
0000
0000
0000
,  // measure 2
0000
0000
0000
0000
,  // measure 3
0000
0000
0000
0000
,  // measure 4
0000
0000
0000
0000
,  // measure 5
1000
0000
0000
0000
,  // measure 6
0001
0000
0000
0000
,  // measure 7
1000
0000
0000
0000
,  // measure 8
0001
0000
1000
0000
,  // measure 9
0001
0000
0000
0000
,  // measure 10
1000
0000
0000
0000
,  // measure 11
0001
0000
0000
0000
,  // measure 12
1001
0000
0000
0000
,  // measure 13
1000
0000
0000
0000
,  // measure 14
0010
0000
0000
0000
,  // measure 15
0100
0000
0001
0000
,  // measure 16
1000
0000
0000
0000
,  // measure 17
0001
0000
0000
0000
,  // measure 18
0010
0000
0000
0000
,  // measure 19
0100
0000
1000
0000
,  // measure 20
0001
0000
0000
0000
,  // measure 21
1000
0000
0000
0000
,  // measure 22
0100
0000
0000
0000
,  // measure 23
1000
0000
0010
0000
,  // measure 24
0100
0000
0000
0000
,  // measure 25
0001
0000
0000
0000
,  // measure 26
0010
0000
0000
0000
,  // measure 27
0001
0000
0100
0000
,  // measure 28
0020
0000
0030
0000
,  // measure 29
1000
0000
0000
0000
,  // measure 30
0001
0000
0000
0000
,  // measure 31
0010
0000
0001
0000
,  // measure 32
0100
0000
0000
0000
,  // measure 33
0001
0000
0000
0000
,  // measure 34
1000
0000
0000
0000
,  // measure 35
0010
0000
1000
0000
,  // measure 36
0100
0000
0000
0000
,  // measure 37
0000
0000
0010
0010
,  // measure 38
0000
0000
0001
0001
,  // measure 39
0000
0000
1000
0000
,  // measure 40
0010
0000
0010
0000
,  // measure 41
0000
0000
0010
0010
,  // measure 42
0000
0000
1000
1000
,  // measure 43
0000
0000
0001
0000
,  // measure 44
0010
0000
0010
0000
,  // measure 45
0002
0000
0003
0000
,  // measure 46
2000
0000
3000
0000
,  // measure 47
1001
0000
0000
0000
;

//---------------dance-single - ----------------
#NOTES:
     dance-single:
     :
     Challenge:
     12:
     0.541271,0.535208,0.000000,0.217396,0.610779,366.000000,366.000000,0.000000,21.000000,0.000000,0.000000,0.541271,0.535208,0.000000,0.217396,0.610779,366.000000,366.000000,0.000000,21.000000,0.000000,0.000000:
// measure 0
0000
0000
0000
0000
,  // measure 1
0000
0000
0000
0000
,  // measure 2
0000
0000
0000
0000
,  // measure 3
0000
0000
0000
0000
,  // measure 4
0000
0000
0000
0000
,  // measure 5
1000
0000
0100
0000
1000
0000
0100
0000
0010
0000
0100
1000
0000
0010
1000
0000
,  // measure 6
0001
0000
0100
0000
0001
0000
0100
0000
0010
0000
0100
0001
0000
0010
0001
0000
,  // measure 7
1000
0000
0100
0000
1000
0000
0100
0000
0010
0000
0001
0100
0000
0010
1000
0000
,  // measure 8
0100
0000
1000
0000
0001
0000
1000
0000
0010
0000
1000
0100
0000
1000
0001
1000
,  // measure 9
0001
0000
0010
0000
0001
0000
0010
0000
0100
0000
0010
0001
0000
0100
0001
0000
,  // measure 10
1000
0000
0010
0000
1000
0000
0010
0000
0100
0000
0010
1000
0000
0100
1000
0000
,  // measure 11
0001
0000
0010
0000
0001
0000
0010
0000
0100
0000
1000
0010
0000
0100
0001
0000
,  // measure 12
1000
0000
0100
0000
0010
0000
0001
0100
0010
0000
0000
0010
0000
1000
0100
0000
,  // measure 13
0010
0000
0010
0000
0001
0000
0001
0000
2000
0000
0000
3010
0000
0000
1000
0000
,  // measure 14
0010
0001
0010
2000
0000
3200
0000
1300
,  // measure 15
0010
0000
0010
0000
1000
0000
0001
0010
0001
0010
0000
0002
0000
0000
0103
0000
,  // measure 16
0010
0000
1000
0100
0000
0100
0020
0000
0000
0000
0031
0000
1000
0000
0000
0000
,  // measure 17
0001
0000
0001
0000
0100
0000
0100
0000
0010
1000
0000
0200
0000
0000
1300
0000
,  // measure 18
0100
0000
0001
0000
0100
0000
1000
0000
0010
0100
0000
0002
0000
0000
0003
0000
,  // measure 19
1000
0000
1000
0000
0100
0000
0010
0001
0010
0001
0000
0200
0000
0000
0310
0000
,  // measure 20
1000
0000
0100
0010
0000
0001
0100
0020
0000
0000
1000
0000
1030
0000
0000
0000
,  // measure 21
0001
0100
0001
0100
0001
0000
1000
0100
0000
1000
0000
0002
0000
0000
1003
0010
,  // measure 22
1000
0000
0001
0010
0000
0001
0000
1000
0000
0010
1000
0020
0000
0000
0030
0000
,  // measure 23
1000
0100
1000
0100
1000
0000
0001
0100
0000
0001
0000
2000
0000
0000
3001
0010
,  // measure 24
0001
0000
1000
0010
0000
0100
0000
0002
0000
0000
1003
0000
0100
0000
0010
0000
,  // measure 25
0001
0010
0001
0000
0010
0000
0100
1000
0000
0010
0000
2000
0000
0000
3010
0100
,  // measure 26
0010
0000
1000
0001
0000
0010
0000
0100
0000
1000
0001
2000
0000
0000
3000
0000
,  // measure 27
0010
0000
0010
0000
1000
0000
0100
0010
0000
0010
0000
0002
0000
0000
0103
0010
,  // measure 28
1000
0000
1000
0000
0001
2000
0000
0002
0000
0000
0000
0000
3003
0000
0000
0000
,  // measure 29
1000
0000
0100
0000
0010
0000
0100
0000
1000
0000
0010
0100
0000
0100
0010
0000
,  // measure 30
1000
0000
0100
0000
0010
0000
0100
0000
0001
0000
0100
1000
0000
0000
1000
0000
,  // measure 31
0010
0000
0001
0010
0000
1000
0000
0100
0000
0010
0000
0002
0000
0000
0103
0000
,  // measure 32
0010
0000
1000
0000
0001
0000
0010
0000
0100
0000
1000
0010
0000
1000
0010
0100
,  // measure 33
0001
0000
0100
0000
0010
0000
0100
0000
0001
0010
0000
0200
0000
0000
0310
0000
,  // measure 34
0001
0000
0100
0000
0010
0000
0100
0000
1000
0000
0100
0001
0000
0000
0001
0000
,  // measure 35
0010
0000
1000
0010
0000
0001
0000
0100
0000
0010
0000
2000
0000
0000
3010
0000
,  // measure 36
0100
0000
0001
0000
1000
0000
0100
0000
0010
0001
0000
0001
0000
0100
0010
0000
,  // measure 37
1000
0000
0100
0000
0010
0000
0001
0000
1000
0000
0100
0001
0000
0001
0100
0000
,  // measure 38
1000
0000
0010
0000
0100
0000
0001
0000
1000
0000
0010
0001
0000
0001
0010
0000
,  // measure 39
1000
0000
0100
0000
0010
0000
0001
0000
0100
0000
0010
1000
0000
0000
1000
0000
,  // measure 40
0100
0000
0010
0000
1000
0000
0010
0000
0100
0000
1000
0010
0000
0100
0010
0100
,  // measure 41
0001
0000
0100
0000
0010
0000
1000
0000
0001
0000
0100
1000
0000
1000
0100
0000
,  // measure 42
0001
0000
0010
0000
0100
0000
1000
0000
0001
0000
0010
1000
0000
1000
0010
0000
,  // measure 43
0001
0000
0100
0000
0010
0000
1000
0000
0100
0000
0010
0001
0000
0000
0001
0000
,  // measure 44
0100
0000
0010
0000
0001
0000
0010
0100
0010
0000
0000
1000
0000
1000
0100
0010
,  // measure 45
0001
0000
0010
0000
0001
0000
0100
0001
0000
0001
0010
0000
0100
0000
1000
0001
,  // measure 46
1000
0000
0000
0000
0000
0000
0010
0000
0000
0000
0000
0000
1000
0000
0000
0100
0000
0000
0000
0000
0000
0100
0000
0000
0010
0000
0000
0000
0001
0000
0000
0000
1000
0000
0000
0000
0010
0000
0000
0000
1000
0000
0000
0000
0001
0000
0000
0000
,  // measure 47
0010
0000
0000
0000
;

//---------------dance-single - ----------------
#NOTES:
     dance-single:
     :
     Hard:
     9:
     0.387467,0.364914,0.093170,0.207044,0.041409,262.000000,253.000000,9.000000,20.000000,0.000000,0.000000,0.387467,0.364914,0.093170,0.207044,0.041409,262.000000,253.000000,9.000000,20.000000,0.000000,0.000000:
// measure 0
0000
0000
0000
0000
,  // measure 1
0000
0000
0000
0000
,  // measure 2
0000
0000
0000
0000
,  // measure 3
0000
0000
0000
0000
,  // measure 4
0000
0000
0000
0000
,  // measure 5
1000
0100
1000
0100
0010
0001
1000
0000
,  // measure 6
0001
0100
0001
0100
0010
1000
0001
0000
,  // measure 7
1000
0010
1000
0010
0100
0001
1000
0000
,  // measure 8
0001
0010
0001
0010
0001
0100
0010
0000
,  // measure 9
1000
0001
0010
0001
1000
0001
0010
0000
,  // measure 10
0001
1000
0010
1000
0001
1000
0010
0000
,  // measure 11
1000
0100
0010
0001
0100
0010
1000
0000
,  // measure 12
0001
0100
0010
1000
0100
0000
1001
0000
,  // measure 13
0001
0010
0001
0010
0002
0000
1003
0000
,  // measure 14
0001
0100
0001
0200
0000
0320
0000
0030
,  // measure 15
1000
0010
1000
0010
2000
0000
3001
0000
,  // measure 16
1000
0000
0000
0100
0000
0000
0020
0000
0000
0000
0000
0000
0031
0000
0000
0000
,  // measure 17
1000
0100
1000
0100
0020
0000
0031
0000
,  // measure 18
0001
0100
0001
0100
0020
0000
1030
0000
,  // measure 19
0001
0010
0100
1000
0002
0000
0103
0000
,  // measure 20
0010
0000
0000
0000
0100
0000
0000
0120
0000
0000
1000
0000
1030
0000
0000
0000
,  // measure 21
0001
0100
0001
0100
0001
0100
0010
0000
,  // measure 22
1000
0100
1000
0100
1000
0100
0010
0000
,  // measure 23
0100
1000
0100
1000
0001
0100
0010
0000
,  // measure 24
1000
0001
1000
0000
2002
0000
3003
0000
,  // measure 25
0001
0010
0001
0010
0100
0010
0001
0000
,  // measure 26
1000
0010
1000
0010
0100
0010
1000
0000
,  // measure 27
0001
0010
0100
1000
0010
0100
0001
0000
,  // measure 28
1000
0000
0001
0000
2000
0000
0000
0002
0000
0000
0000
0000
3003
0000
0000
0000
,  // measure 29
0001
0000
1000
0000
0001
0000
0000
0000
0010
0000
0000
0001
0000
0000
0100
0000
,  // measure 30
0001
0000
1000
0000
0001
0000
0000
0000
0010
0000
0000
0001
0000
0000
1000
0000
,  // measure 31
0010
1000
0100
0000
0010
0001
0100
0000
,  // measure 32
0010
1000
0100
0010
0001
0010
0001
0000
,  // measure 33
1000
0000
0001
0000
1000
0000
0000
0000
0010
0000
0000
1000
0000
0000
0100
0000
,  // measure 34
1000
0000
0001
0000
1000
0000
0000
0000
0010
0000
0000
1000
0000
0000
0001
0000
,  // measure 35
0010
0001
0100
0000
0010
1000
0100
0000
,  // measure 36
1001
0000
0110
0000
0001
1000
0001
0000
,  // measure 37
1000
0100
0010
0001
2000
0000
0100
0000
,  // measure 38
3001
0010
0100
1000
0020
0000
1000
0000
,  // measure 39
0130
0001
1000
0000
0100
1000
0001
0000
,  // measure 40
1000
0100
0001
0100
2000
0000
3001
0000
,  // measure 41
0001
0100
0010
1000
0002
0000
0100
0000
,  // measure 42
1003
0010
0100
0001
0020
0000
0001
0000
,  // measure 43
0130
1000
0010
0000
0100
0001
0010
0000
,  // measure 44
1001
0110
2002
3003
,  // measure 45
0001
0000
0000
0000
0100
0000
0000
1000
0000
0000
0100
0000
0010
0000
0000
0000
,  // measure 46
1000
0100
0001
0000
0100
0000
0010
0000
,  // measure 47
1001
0000
0000
0000
;
