#VERSION:0.83;
#TITLE:Halloween Party;
#SUBTITLE:;
#ARTIST:SHK;
#TITLETRANSLIT:;
#SUBTITLETRANSLIT:;
#ARTISTTRANSLIT:;
#GENRE:Spooky;
#ORIGIN:;
#CREDIT:;
#BANNER:Halloween Party.png;
#BACKGROUND:Halloween Party-bg.png;
#PREVIEWVID:;
#JACKET:Halloween Party-jacket.png;
#CDIMAGE:;
#DISCIMAGE:;
#LYRICSPATH:;
#CDTITLE:cdtitle.png;
#MUSIC:Halloween Party.ogg;
#OFFSET:-0.729545;
#SAMPLESTART:19.313192;
#SAMPLELENGTH:12.387096;
#SELECTABLE:YES;
#BPMS:0.000=155.000;
#STOPS:;
#DELAYS:;
#WARPS:;
#TIMESIGNATURES:0.000=4=4;
#TICKCOUNTS:0.000=4;
#COMBOS:0.000=1;
#SPEEDS:0.000=1.000=0.000=0;
#SCROLLS:0.000=1.000;
#FAKES:;
#LABELS:0.000=Song Start;
#BGCHANGES:;
#KEYSOUNDS:;
#ATTACKS:
;

//---------------dance-single - ----------------
#NOTEDATA:;
#CHARTNAME:;
#STEPSTYPE:dance-single;
#DESCRIPTION:;
#CHARTSTYLE:;
#DIFFICULTY:Challenge;
#METER:13;
#RADARVALUES:0.604899,0.701443,0.229836,0.309395,0.282875,479.000000,453.000000,26.000000,35.000000,0.000000,0.000000,14.000000,0.000000,0.000000,0.604899,0.701443,0.229836,0.309395,0.282875,479.000000,453.000000,26.000000,35.000000,0.000000,0.000000,14.000000,0.000000,0.000000;
#CREDIT:;
#NOTES:
0000
0000
0000
0000
,
0000
0000
0000
0000
,
0000
0011
0000
1100
0000
0101
0000
1100
,
0000
1010
0000
0101
0000
1100
0000
0101
,
0000
0011
0000
1100
0000
0101
0000
1100
,
0000
1010
0000
0101
0000
1100
0000
0101
,
1001
0000
1000
0100
0001
0100
1000
0010
,
0100
0000
0001
0100
1000
0100
0001
0010
,
0100
0000
1000
0100
0001
0100
1000
0010
,
0100
0100
0100
0100
0100
0100
0100
0100
,
0220
0000
0000
0330
,
0001
0000
1000
0000
0001
0000
1000
0000
0001
1000
0001
1000
0001
1000
0001
1000
,
0001
0000
0100
0010
0100
0000
0010
0000
0100
0000
1000
0000
0100
0000
0010
0000
,
0100
0000
0001
1000
0001
0000
1000
0000
0000
0000
0001
0000
1001
0000
0000
0000
,
1000
0000
0100
0010
0100
0000
0010
0000
0100
0000
0001
0000
0100
0000
0010
0000
,
0100
0000
1000
0001
1000
0000
0001
0000
0000
0000
1000
0000
1001
0000
0000
0000
,
1000
0000
0010
0100
0010
0000
0100
0000
0010
0000
0001
0000
0010
0000
0100
0000
,
0010
0000
1000
0001
1000
0000
0001
0000
0000
0000
1000
0000
1001
0000
0000
0000
,
0001
0000
0010
0100
0010
0000
0100
0000
0010
0000
1000
0000
0010
0000
0100
0000
,
0010
0000
0001
1000
0001
0000
1000
0000
0000
0000
0001
0000
0100
0010
0100
0010
,
2000
0000
0000
3001
0100
0000
0001
0000
0000
0000
0001
0000
0020
0000
0031
0000
,
2000
0000
0000
3010
0100
0000
0001
1000
0002
0000
0000
0000
0013
0000
0100
0000
,
2000
0000
0000
3010
1000
0000
0001
0000
0000
0000
0001
0000
1000
0000
0100
0010
,
0200
0000
0000
0310
0001
0000
0100
0000
0020
0000
0000
0000
1030
0000
1000
0000
,
0002
0000
0000
1003
0100
0000
1000
0000
0000
0000
1000
0000
0020
0000
1030
0000
,
0002
0000
0000
0013
0001
0000
1000
0010
2000
0000
0000
0000
3010
0000
1000
0000
,
0200
0000
0000
0310
0001
0000
1000
0000
0000
0000
1000
0000
0001
0000
0100
0010
,
0200
0000
0000
0301
1000
0000
0100
0010
0200
0000
0000
0000
1300
0000
0000
0000
,
0001
0001
0100
0100
0010
0010
1000
1000
,
0001
0010
1000
0100
0002
0000
0000
0000
,
1003
1000
0100
0100
0010
0010
0001
0001
,
1000
0000
0010
0000
0001
0000
0100
0000
2000
0000
0000
0000
3001
1000
0001
1000
,
0001
0000
1000
0100
1000
0000
0001
0000
1000
0000
0010
0000
1000
0000
0100
0000
,
1000
0000
0001
0100
0001
0000
1000
0000
0001
0000
0010
0000
0001
0000
0100
0000
,
0001
0000
0010
0100
0010
0000
0001
0000
0100
0000
1000
0000
0100
0000
0001
0000
,
0040
0400
0000
0000
0000
0000
0000
0000
0000
0000
0000
0000
0000
0000
0000
0030
,
1300
0000
0001
0100
0001
0000
1000
0000
0001
0000
0010
0000
0001
0000
0100
0000
,
0001
0000
1000
0100
1000
0000
0001
0000
1000
0000
0010
0000
1000
0000
0100
0000
,
1000
0000
0010
0100
0010
0000
1000
0000
0100
0000
0001
0000
0100
0000
1000
0000
,
0040
0400
0000
0000
0000
0000
0000
0000
0000
0000
0000
0000
0000
0000
0000
0030
,
0302
0000
0000
1003
0100
0000
0010
0000
0001
0000
0100
0000
0020
0000
1030
0000
,
0002
0000
0000
0013
0100
0000
1000
0001
2000
0000
0000
0000
3010
0000
0100
0000
,
0002
0000
0000
0103
0001
0000
1000
0000
0100
0000
0010
0000
0001
0000
0100
0010
,
0200
0000
0000
0310
1000
0000
0100
0000
0020
0000
0000
0000
0031
0000
0001
0000
,
2000
0000
0000
3001
0100
0000
0010
0000
1000
0000
0100
0000
0020
0000
0031
0000
,
2000
0000
0000
3010
1000
0000
0001
0010
0002
0000
0000
0000
0103
0000
0001
0000
,
0020
0000
0000
0130
1000
0000
0010
0000
0100
0000
0001
0000
1000
0000
0100
0000
,
0110
0011
1010
0220
,
0000
0000
0000
0330
,
4000
0004
0000
0000
0000
0000
0000
0000
0000
0000
0000
0000
0000
0000
0000
3000
,
1003
0000
0001
0010
0001
0000
1000
0000
0001
0000
0010
0000
0001
0000
0100
0000
,
0001
0000
1000
0010
1000
0000
0001
0000
1000
0000
0010
0000
1000
0000
0100
0000
,
1000
0000
0001
0100
0001
0000
1000
0000
0100
0000
0001
0000
0100
0000
1000
0000
,
0040
0400
0000
0000
0000
0000
0000
0000
0000
0000
0000
0000
0000
0000
0000
0030
,
0301
0000
1000
0010
1000
0000
0001
0000
1000
0000
0010
0000
1000
0000
0100
0000
,
1000
0000
0001
0010
0001
0000
1000
0000
0001
0000
0010
0000
0001
0000
0100
0000
,
0001
0000
1000
0100
1000
0000
0001
0000
0100
0000
1000
0000
0100
0000
0001
0000
,
0040
0400
0000
0000
0000
0000
0000
0000
0000
0000
0000
0000
0000
0000
0000
0030
,
1300
0000
0001
0100
0001
0000
0010
0000
0001
0000
0100
0000
0010
0000
1000
0000
,
0001
0000
1000
0100
1000
0000
0010
0000
1000
0000
0100
0000
0010
0000
0001
0000
,
0100
0000
0001
1000
0001
0000
0010
0000
1000
0000
0010
0000
0001
0000
0100
0000
,
0040
4000
0000
0000
0000
0000
0000
0000
0000
0000
0000
0000
0000
0000
0000
0030
,
3001
0000
1000
0100
1000
0000
0010
0000
1000
0000
0100
0000
0010
0000
0001
0000
,
1000
0000
0001
0100
0001
0000
0010
0000
0001
0000
0100
0000
0010
0000
1000
0000
,
0100
0000
1000
0001
1000
0000
0010
0000
0001
0000
0010
0000
1000
0000
0100
0000
,
0040
0004
0000
0000
0000
0000
0000
0000
0000
0000
0000
0000
0000
0000
0000
0030
,
2003
0000
0000
3000
,
2002
0000
0000
0000
,
0000
0000
0000
0000
,
3003
0000
0000
0000
;

//---------------dance-single - ----------------
#NOTEDATA:;
#CHARTNAME:;
#STEPSTYPE:dance-single;
#DESCRIPTION:;
#CHARTSTYLE:;
#DIFFICULTY:Hard;
#METER:11;
#RADARVALUES:0.522814,0.518458,0.335915,0.397794,0.000000,414.000000,376.000000,38.000000,45.000000,0.000000,0.000000,0.000000,0.000000,0.000000,0.522814,0.518458,0.335915,0.397794,0.000000,414.000000,376.000000,38.000000,45.000000,0.000000,0.000000,0.000000,0.000000,0.000000;
#CREDIT:;
#NOTES:
0000
0000
0000
0000
,
0000
0000
0000
0000
,
0000
0001
0000
0001
0000
1000
0000
1000
,
0000
0001
0000
0001
0000
1000
0000
1000
,
0000
0100
0000
0100
0000
0010
0000
0010
,
0000
0100
0000
0100
0000
0010
0000
0010
,
1001
0000
1000
0000
0001
0100
0010
1000
,
0001
0000
0001
0000
1000
0100
0010
0001
,
1000
0000
1000
0000
0001
0100
0010
1000
,
0100
0010
0100
0010
0100
0010
0100
0010
,
0220
0000
0000
0000
,
0330
0000
2002
3003
,
0001
1000
0010
1000
0100
1000
0010
1000
,
0001
0010
0000
0011
0000
0000
0011
0000
,
1000
0001
0010
0001
0100
0001
0010
0001
,
1000
0010
0000
1010
0000
0000
1010
0000
,
0001
1000
0100
1000
0010
1000
0100
1000
,
0001
0100
0000
0101
0000
0000
0101
0000
,
1000
0001
0100
0001
0010
0001
0100
0001
,
1000
0100
0000
1100
0000
0100
1000
0001
,
0200
0000
0301
1000
0000
1000
0002
0000
,
0023
0000
0130
1000
0020
0000
1030
0100
,
0020
0000
0031
1000
0000
1000
0010
1000
,
0200
0000
0310
0001
2000
0000
3001
1000
,
0200
0000
1300
0001
0000
0001
2000
0000
,
3020
0000
0130
0001
0020
0000
1030
0010
,
0002
0000
1003
0001
0000
0001
0100
0010
,
0200
0000
1300
0100
0002
0000
1003
0000
,
1010
0110
0101
1001
,
1000
0100
0010
0001
2000
0000
3000
0000
,
0011
0110
1100
1001
,
1000
0010
0100
0001
0020
0000
0031
0000
,
1000
0001
1000
0001
1000
0010
1000
0010
,
1000
0001
1000
0001
1000
0100
1000
0100
,
0010
0100
0010
0100
1000
0010
0100
0001
,
0020
0130
1001
1001
,
0001
1000
0001
1000
0001
0010
0001
0010
,
0001
1000
0001
1000
0001
0100
0001
0100
,
0010
0100
0010
0100
0001
0010
0100
1000
,
0001
0101
2002
3003
,
0002
0000
0103
0001
1000
0001
0200
0000
,
0320
0000
1030
0100
0020
0000
0130
1000
,
0002
0000
1003
0010
0100
0001
0010
0100
,
2000
0000
3001
0100
0020
0000
0130
0001
,
2000
0000
3100
1000
0001
1000
0200
0000
,
0320
0000
0130
1000
0020
0000
0031
0010
,
2000
0000
3100
0010
0001
0100
0010
1000
,
0001
0011
1100
0220
,
0000
0000
0000
0330
,
2002
0000
0000
3003
,
1000
0010
1000
0010
0100
0010
0100
0010
,
0100
0001
0100
0001
1000
0001
1000
0001
,
1000
0100
1000
0100
0010
0001
1000
0010
,
0200
0310
1001
1001
,
0001
0010
0001
0010
0100
0010
0100
0010
,
0100
1000
0100
1000
0001
1000
0001
1000
,
0001
0100
0001
0100
0010
1000
0001
0010
,
0100
1100
0011
1001
,
1000
0010
1000
0001
1000
0100
1000
0001
,
0100
0001
1000
0001
0010
0001
1000
0001
,
0100
0010
0100
0001
1000
0100
0010
0001
,
0200
0310
1001
1001
,
0001
0010
0001
1000
0001
0100
0001
1000
,
0100
1000
0001
1000
0010
1000
0001
1000
,
0100
0010
0100
1000
0001
0100
0010
1000
,
0100
1100
0011
1001
,
0220
0000
0000
0330
,
2002
0000
0000
0000
,
0000
0000
0000
0000
,
3003
0000
0000
0000
;

//---------------dance-single - ----------------
#NOTEDATA:;
#CHARTNAME:;
#STEPSTYPE:dance-single;
#DESCRIPTION:;
#CHARTSTYLE:;
#DIFFICULTY:Medium;
#METER:8;
#RADARVALUES:0.400319,0.487960,0.256356,0.556911,0.000000,317.000000,288.000000,29.000000,63.000000,0.000000,0.000000,0.000000,0.000000,0.000000,0.400319,0.487960,0.256356,0.556911,0.000000,317.000000,288.000000,29.000000,63.000000,0.000000,0.000000,0.000000,0.000000,0.000000;
#CREDIT:;
#NOTES:
0000
0000
0000
0000
,
0000
0000
0000
0000
,
1000
1000
0100
0100
,
0010
0010
0001
0001
,
0100
0100
0010
0010
,
1000
1000
0001
0001
,
1001
0000
1000
0000
0100
0010
0100
0000
,
1001
0000
0001
0000
0100
0010
0100
0000
,
1001
0000
1000
0000
0100
0010
0100
0000
,
1001
1001
1001
1001
,
2002
0000
0000
0000
,
3003
0000
2002
3003
,
0001
0010
0100
1000
,
0001
0100
0000
0110
0000
0000
0110
0000
,
1000
0010
0100
0001
,
1000
0100
0000
0110
0000
0000
0110
0000
,
0001
0100
0010
1000
,
0001
0010
0000
0110
0000
0000
0110
0000
,
1000
0100
0010
0001
,
1000
0010
0000
0110
0000
0000
0010
1000
,
0002
0000
1003
0002
,
0023
0000
0030
0100
2000
0000
0000
0000
,
3002
0000
0000
0000
0103
0000
0100
0010
,
2000
0000
3200
0000
,
2300
0000
3001
2000
,
3020
0000
0030
0100
0002
0000
0000
0000
,
0023
0000
0000
0000
0130
0000
1000
0010
,
0200
0000
0000
0301
0020
0000
0030
0000
,
0011
0011
1100
1100
,
1000
0010
1000
0010
0200
0000
0300
0000
,
1010
1010
0101
0101
,
0001
0010
0001
0010
0200
0000
0300
0000
,
1000
0100
1000
0000
1000
0010
1000
0000
,
0001
0100
0001
0000
0001
0010
0001
0000
,
1000
0100
1000
0000
1000
0001
1000
0000
,
0002
0203
0320
2030
,
3001
0100
0001
0000
0001
0010
0001
0000
,
1000
0100
1000
0000
1000
0010
1000
0000
,
0001
0100
0001
0000
0001
1000
0001
0000
,
2000
3200
0320
0032
,
2003
0010
3010
2000
,
3200
0000
0310
0001
2000
0000
3010
0100
,
0002
0000
1000
0000
1003
0000
0001
0010
,
0200
0000
0310
0001
2000
0000
3001
1000
,
0002
0010
0013
0002
,
0203
0000
0310
1000
0200
0000
0310
0001
,
0200
0000
0010
0000
0310
0000
0100
0001
,
1000
1100
0011
2200
,
0000
0000
0000
3300
,
2002
0000
0000
3003
,
1000
0010
1000
0000
1000
0100
1000
0000
,
0001
0010
0001
0000
0001
0100
0001
0000
,
1000
0010
1000
0000
1000
0001
1000
0000
,
0002
0023
0230
2300
,
3001
0010
0001
0000
0001
0100
0001
0000
,
1000
0010
1000
0000
1000
0100
1000
0000
,
0001
0010
0001
0000
0001
1000
0001
0000
,
2000
3020
0230
0302
,
1003
0100
0010
0000
0001
0010
0100
0000
,
1000
0010
0100
0000
0001
0100
0010
0000
,
1000
0001
0010
0000
0001
1000
0010
0000
,
2000
3200
0320
0032
,
0103
0010
1000
0000
0010
0100
0001
0000
,
0010
0100
1000
0000
0100
0010
0001
0000
,
0100
0001
1000
0000
0100
1000
0001
0000
,
0200
0320
2030
3200
,
0020
0000
0000
0330
,
2002
0000
0000
0000
,
0000
0000
0000
0000
,
3003
0000
0000
0000
;

//---------------dance-single - ----------------
#NOTEDATA:;
#CHARTNAME:;
#STEPSTYPE:dance-single;
#DESCRIPTION:;
#CHARTSTYLE:;
#DIFFICULTY:Easy;
#METER:5;
#RADARVALUES:0.299292,0.365970,0.097238,0.539231,0.000000,237.000000,226.000000,11.000000,61.000000,0.000000,0.000000,0.000000,0.000000,0.000000,0.299292,0.365970,0.097238,0.539231,0.000000,237.000000,226.000000,11.000000,61.000000,0.000000,0.000000,0.000000,0.000000,0.000000;
#CREDIT:;
#NOTES:
0000
0000
0000
0000
,
0000
0000
0000
0000
,
1000
1000
0001
0001
,
1000
1000
0001
0001
,
0100
0100
0010
0010
,
0100
0100
0010
0010
,
1000
1000
0100
0010
,
0001
0001
0100
0010
,
1000
1000
0100
0010
,
0001
1000
0001
1000
,
0220
0000
0000
0000
,
0330
0000
2002
3003
,
0001
1000
0001
0100
,
0010
0000
0010
0010
,
1000
0001
1000
0100
,
0010
0000
0010
0010
,
0001
0100
0010
1000
,
0100
0000
0100
0100
,
1000
0010
0100
0001
,
0010
0000
0010
0100
,
2000
0000
3001
2000
,
3200
0000
0320
0000
,
0032
0000
1003
0001
,
0200
0000
0302
0000
,
2003
0000
3001
2000
,
3200
0000
2300
0000
,
3020
0000
0130
0001
,
0020
0000
0230
0000
,
1300
0100
0010
0001
,
1001
0110
1001
0000
,
0001
0100
0010
1000
,
0110
1001
0110
0000
,
1000
1000
0100
0100
,
0010
0010
0001
0001
,
0100
0100
0010
1000
,
0200
0320
0230
0320
,
0031
0001
0100
0100
,
0010
0010
1000
1000
,
0100
0100
0010
0001
,
0200
0320
0230
0000
,
0302
1000
1003
0002
,
0203
0010
0320
1000
,
2030
0001
3001
1000
,
0200
1000
2300
0001
,
3002
1000
1003
0002
,
0203
0001
0302
0010
,
0023
0100
0130
1000
,
0020
0130
0010
0220
,
0000
0000
0000
0330
,
2002
0000
0000
3003
,
1000
1000
0010
0010
,
0100
0100
0001
0001
,
0010
0010
0100
1000
,
0020
0230
0320
0230
,
0301
0001
0010
0010
,
0100
0100
1000
1000
,
0010
0010
0100
0001
,
0020
0230
0320
0230
,
1300
0010
0100
0001
,
0010
0001
0100
0010
,
1000
0100
0010
0001
,
0020
0230
2300
3002
,
0103
0001
0010
0001
,
0100
0010
1000
0100
,
1000
0010
0100
0001
,
0020
0032
2003
3020
,
0200
0000
0000
0330
,
2002
0000
0000
0000
,
0000
0000
0000
0000
,
3003
0000
0000
0000
;

//---------------dance-single - ----------------
#NOTEDATA:;
#CHARTNAME:;
#STEPSTYPE:dance-single;
#DESCRIPTION:;
#CHARTSTYLE:;
#DIFFICULTY:Beginner;
#METER:2;
#RADARVALUES:0.141438,0.213483,0.017680,0.318235,0.000000,112.000000,110.000000,2.000000,36.000000,0.000000,0.000000,0.000000,0.000000,0.000000,0.141438,0.213483,0.017680,0.318235,0.000000,112.000000,110.000000,2.000000,36.000000,0.000000,0.000000,0.000000,0.000000,0.000000;
#CREDIT:;
#NOTES:
0000
0000
0000
0000
,
0000
0000
0000
0000
,
1000
0000
0000
0000
,
0001
0000
0000
0000
,
1000
0000
0000
0000
,
0001
0000
0000
0000
,
1000
0000
1000
0000
,
0100
0000
0100
0000
,
0010
0000
0010
0000
,
0001
0001
0001
0001
,
0002
0000
0000
0003
0000
0000
0000
0000
,
0000
0000
0000
0000
,
1000
0000
0100
0000
,
0010
0000
0010
0000
,
0001
0000
0100
0000
,
0010
0000
0010
0000
,
0100
0000
0001
0000
,
1000
0000
1000
0000
,
0100
0000
1000
0000
,
0001
0000
0001
0000
,
0200
0000
0300
0000
,
0200
0300
0020
0030
,
2000
0000
3000
0000
,
0002
0003
2000
3000
,
0200
0000
0300
0000
,
0200
0300
0020
0030
,
0002
0000
0003
0000
,
2000
3000
0002
0003
,
0100
0000
0010
0000
,
1000
1000
1000
0000
,
0100
0000
0010
0000
,
0001
0001
0001
0000
,
1000
0000
0010
0000
,
1000
0000
0001
0000
,
1000
0000
0100
0000
,
0020
0000
0030
0000
,
0001
0000
0010
0000
,
0001
0000
1000
0000
,
0001
0000
0100
0000
,
0020
0000
0030
0000
,
2000
0000
3000
0000
,
2000
3000
0200
0300
,
0020
0000
0030
0000
,
0002
0003
0200
0300
,
0002
0000
0003
0000
,
0002
0003
0020
0030
,
0200
0000
0300
0000
,
2000
3000
0002
0003
,
0000
0000
0000
0000
,
2002
0000
3003
0000
,
1000
0000
0100
0000
,
1000
0000
0001
0000
,
1000
0000
0010
0000
,
0200
0000
0300
0000
,
0001
0000
0100
0000
,
0001
0000
1000
0000
,
0001
0000
0010
0000
,
0200
0000
0300
0000
,
1000
0000
0100
0000
,
0010
0000
0001
0000
,
0100
0000
0010
0000
,
2000
0000
3000
0000
,
0001
0000
0100
0000
,
0010
0000
1000
0000
,
0100
0000
0010
0000
,
0002
0000
0003
0000
,
0200
0000
0300
0000
,
2002
0000
0000
0000
,
0000
0000
0000
0000
,
3003
0000
0000
0000
;

//---------------dance-single - [B-SIDE] Campy Horror Movie Sequel----------------
#NOTEDATA:;
#CHARTNAME:[B-SIDE] Campy Horror Movie Sequel;
#STEPSTYPE:dance-single;
#DESCRIPTION:[B-SIDE] Campy Horror Movie Sequel;
#CHARTSTYLE:;
#DIFFICULTY:Edit;
#METER:16;
#RADARVALUES:0.866306,0.945423,0.733708,0.309395,0.632050,686.000000,603.000000,83.000000,35.000000,0.000000,0.000000,0.000000,0.000000,0.000000,0.866306,0.945423,0.733708,0.309395,0.632050,686.000000,603.000000,83.000000,35.000000,0.000000,0.000000,0.000000,0.000000,0.000000;
#CREDIT:[B-SIDE] Campy Horror Movie Sequel;
#NOTES:
// measure 0
0000
0000
0000
0000
,  // measure 1
0000
0000
0000
0000
,  // measure 2
0001
1000
0100
0010
0100
0001
0100
0010
,  // measure 3
0100
1000
0010
0100
0010
0001
0010
0100
,  // measure 4
0010
1000
0100
0010
0100
0001
0100
0010
,  // measure 5
0200
0000
0000
0000
1000
0000
0000
0000
0310
0001
0010
0001
1000
0010
1000
0010
,  // measure 6
0100
0000
0000
0000
0110
0000
0000
0000
0101
0000
0001
0100
0001
0100
0010
1000
,  // measure 7
0100
0000
0000
0000
0110
0000
0000
0000
1100
0000
1000
0100
1000
0100
0010
0001
,  // measure 8
0100
0000
0000
0000
0110
0000
0000
0000
1001
0000
1000
0100
0010
0001
0100
0010
,  // measure 9
1000
1000
0001
0001
1001
1001
0110
0110
,  // measure 10
2002
0000
0000
3003
,  // measure 11
0001
1000
0001
1000
0001
1000
0001
1000
0001
0010
0001
1000
0010
1000
0001
0010
,  // measure 12
0001
0001
0100
0100
0010
0010
1000
1000
,  // measure 13
1010
0000
0001
0010
0001
0000
1010
0000
0000
0000
0010
0000
0110
0000
0000
0000
,  // measure 14
1000
1000
0100
0100
0010
0010
0001
0001
,  // measure 15
0011
0000
1000
0010
1000
0000
0011
0000
0000
0000
0010
0000
0110
0000
0000
0000
,  // measure 16
0001
0001
0100
0100
1000
1000
0100
0100
,  // measure 17
0110
0000
0001
1000
0001
0000
0110
0000
0000
0000
0010
0000
1001
0000
0000
0000
,  // measure 18
1000
1000
0100
0100
0001
0001
0100
0100
,  // measure 19
0110
0000
1000
0001
1000
0000
0110
0000
0000
0000
0001
0000
1000
0010
0100
0001
,  // measure 20
2000
0000
0000
3100
0010
0000
0100
0000
0000
0000
0100
0000
0002
0000
0103
0000
,  // measure 21
2000
0000
0000
3010
0100
0000
0010
0001
0020
0000
0130
0000
0010
0000
0010
0000
,  // measure 22
1020
0000
0000
0130
0001
0000
0010
0000
0000
0000
0010
0000
0100
0000
0010
0100
,  // measure 23
0002
0000
0000
0103
0010
0000
0001
0000
0200
0000
0310
0000
1000
0000
1000
0000
,  // measure 24
0002
0000
0000
0103
0010
0000
0100
0000
0000
0000
0100
0000
2000
0000
3100
0000
,  // measure 25
0002
0000
0000
0013
0100
0000
0010
1000
0020
0000
0130
0000
0010
0000
0010
0000
,  // measure 26
0021
0000
0000
0130
1000
0000
0010
0000
0000
0000
1000
0000
0010
0000
0001
0010
,  // measure 27
2000
0000
0000
3100
0010
0000
0001
0100
0010
1000
0010
1000
0100
0000
0000
0000
,  // measure 28
1000
0000
1000
0010
0100
0000
0100
0001
1000
0000
1000
0001
0010
0000
0010
0100
,  // measure 29
1000
1100
1001
0101
2002
0000
3003
0000
,  // measure 30
0001
0000
0001
0100
0010
0000
0010
1000
0100
0000
0100
1000
0010
0000
0010
0100
,  // measure 31
0001
0000
0011
0000
1001
0000
1010
0000
2001
0000
0000
0000
3001
1000
0001
1000
,  // measure 32
0001
0000
1000
0010
0100
0000
0001
0000
0011
0000
0100
0000
0011
0000
0100
0000
,  // measure 33
1000
0000
0001
0100
0010
0000
1000
0000
1100
0000
0010
0000
1100
0000
0010
0000
,  // measure 34
0001
0000
0100
0010
1000
0000
0100
0000
0110
0000
0011
0000
1001
0000
1010
0000
,  // measure 35
0010
0100
0010
0100
0001
1000
0001
1000
0001
0010
0100
1000
0001
1000
0100
0010
,  // measure 36
0001
0000
0100
0001
0010
0000
0100
0000
1100
0000
0010
0000
0101
0000
0010
0000
,  // measure 37
1000
0000
0010
1000
0100
0000
0010
0000
0011
0000
0100
0000
1010
0000
0100
0000
,  // measure 38
0001
0000
1000
0010
0100
0000
0001
0000
0011
0000
0110
0000
1100
0000
1001
0000
,  // measure 39
0001
0100
0001
0100
0010
1000
0010
1000
0001
0100
0010
1000
0010
0100
0001
0010
,  // measure 40
0200
0000
0000
1300
0100
0000
0001
0000
0100
0000
1000
0000
0020
0000
1030
0000
,  // measure 41
0200
0000
0000
0301
0100
0000
0010
0001
0200
0000
1300
0000
0100
0000
0100
0000
,  // measure 42
0102
0000
0000
1003
0010
0000
0001
0000
1000
0000
0100
0000
0001
0000
0010
0100
,  // measure 43
2000
0000
0000
3001
0100
0000
0010
0000
2000
0000
3001
0000
0010
0000
0001
0000
,  // measure 44
0200
0000
0000
0301
0100
0000
1000
0000
0100
0000
0001
0000
0020
0000
0031
0000
,  // measure 45
0200
0000
0000
1300
0100
0000
0010
1000
0200
0000
0301
0000
0100
0000
0100
0000
,  // measure 46
2100
0000
0000
3001
0010
0000
1000
0000
0010
0000
0001
0000
1000
0000
0001
0100
,  // measure 47
2000
0000
0000
3001
0010
0000
0100
0010
1000
0001
1000
0001
0010
0100
0010
0100
,  // measure 48
1000
0000
0000
0000
,  // measure 49
1000
0100
0010
0001
1000
0100
0010
0001
0100
0010
1000
0100
0010
0001
0100
0010
,  // measure 50
1000
0000
0001
0010
0100
0000
1000
0000
1010
0000
0100
0000
1010
0000
0100
0000
,  // measure 51
0001
0000
1000
0100
0010
0000
0001
0000
0101
0000
0010
0000
0101
0000
0010
0000
,  // measure 52
1000
0000
0100
0010
0001
0000
0100
0000
0110
0000
1010
0000
1001
0000
0011
0000
,  // measure 53
0010
0100
0010
0100
1000
0001
1000
0001
1000
0010
0100
0001
1000
0001
0100
0010
,  // measure 54
1000
0000
0100
1000
0010
0000
0100
0000
0101
0000
0010
0000
1100
0000
0010
0000
,  // measure 55
0001
0000
0010
0001
0100
0000
0010
0000
1010
0000
0100
0000
0011
0000
0100
0000
,  // measure 56
1000
0000
0001
0010
0100
0000
1000
0000
1010
0000
0110
0000
0101
0000
1001
0000
,  // measure 57
1000
0100
1000
0100
0010
0001
0010
0001
1000
0100
0010
0001
0010
0100
1000
0010
,  // measure 58
0100
0000
0001
0100
1000
0000
0100
0000
0110
0000
0001
0000
0101
0000
1000
0000
,  // measure 59
0100
0000
1000
0100
0001
0000
0100
0000
0110
0000
1000
0000
1100
0000
0001
0000
,  // measure 60
0100
0000
0010
1000
0100
0000
0010
0000
0011
0000
1100
0000
1010
0000
0101
0000
,  // measure 61
0001
1000
0001
1000
0100
0010
0100
0010
0001
1000
0010
0100
0001
0010
0100
1000
,  // measure 62
0001
0000
1000
0010
0001
0000
0010
0000
1010
0000
0100
0000
0011
0000
0100
0000
,  // measure 63
1000
0000
0001
0010
1000
0000
0010
0000
0011
0000
0100
0000
1010
0000
0100
0000
,  // measure 64
0001
0000
1000
0100
0010
0000
0001
0000
0101
0000
1010
0000
1100
0000
0011
0000
,  // measure 65
0001
0100
0001
0100
1000
0100
1000
0100
0001
0010
0100
0010
1000
0010
0100
0010
,  // measure 66
0002
0000
0000
0003
,  // measure 67
2002
0000
0000
0000
,  // measure 68
0000
0000
0000
0000
,  // measure 69
3003
0000
0000
0000
;
