#TITLE:Gun's N' Roses;
#SUBTITLE:;
#ARTIST:Paradise Lunch;
#TITLETRANSLIT:;
#SUBTITLETRANSLIT:;
#ARTISTTRANSLIT:;
#GENRE:Big Band;
#CREDIT:;
#BANNER:Gun's N' Roses.png;
#BACKGROUND:Gun's N' Roses-bg.png;
#LYRICSPATH:;
#CDTITLE:cdtitle.png;
#MUSIC:Gun's N' Roses.ogg;
#OFFSET:0.771152;
#SAMPLESTART:9.970778;
#SAMPLELENGTH:14.492510;
#LASTBEATHINT:201.044495;
#SELECTABLE:YES;
#BPMS:0.000000=133.500000
,8.000000=134.500000
,16.000000=134.250000
,17.000000=135.250000
,18.000000=131.500000
,19.000000=132.000000
,20.000000=135.500000
,21.000000=131.500000
,22.000000=135.750000
,23.000000=138.500000
,24.000000=131.000000
,25.000000=131.500000
,26.000000=128.500000
,27.000000=133.250000
,28.000000=129.250000
,29.000000=135.000000
,30.000000=130.250000
,31.000000=135.000000
,32.000000=130.750000
,33.000000=134.250000
,34.000000=132.500000
,35.000000=134.250000
,36.000000=132.750000
,37.000000=132.500000
,38.000000=135.000000
,39.000000=130.750000
,41.000000=135.000000
,42.000000=133.750000
,43.000000=135.750000
,44.000000=131.000000
,45.000000=135.000000
,46.000000=125.999992
,47.000000=133.500000
,48.000000=136.000000
,49.000000=131.750000
,50.000000=131.500000
,51.000000=137.000000
,52.000000=138.500000
,53.000000=132.750000
,53.750000=137.000000
,54.500000=124.000000
,55.250000=125.999992
,56.000000=136.250000
,57.000000=130.750000
,58.000000=131.750000
,59.000000=133.250000
,60.000000=138.750000
,61.000000=130.000000
,62.000000=130.750000
,63.000000=131.750000
,64.000000=135.000000
,65.000000=133.500000
,66.000000=131.750000
,67.000000=133.250000
,68.000000=136.000000
,69.000000=135.250000
,70.000000=133.250000
,71.000000=131.750000
,72.000000=132.250000
,73.000000=132.000000
,74.000000=129.750000
,75.000000=137.000000
,76.000000=132.500000
,77.000000=136.000000
,78.000000=132.500000
,79.000000=128.500000
,80.000000=132.500000
,81.000000=135.000000
,82.000000=128.500000
,83.000000=135.750000
,84.000000=136.000000
,85.000000=131.000000
,86.000000=134.250000
,87.000000=130.000000
,88.000000=134.750000
,88.750000=135.000000
,89.500000=137.500000
,90.000000=132.500000
,90.750000=132.750000
,91.500000=134.000000
,92.000000=132.750000
,92.750000=136.000000
,93.500000=130.500000
,94.000000=131.000000
,94.750000=137.500000
,95.500000=131.000000
,96.000000=130.250000
,96.750000=135.750000
,97.500000=135.000000
,98.000000=131.000000
,98.750000=134.000000
,99.500000=130.250000
,100.000000=134.000000
,100.750000=136.000000
,101.500000=134.000000
,102.000000=137.000000
,102.750000=130.000000
,103.500000=129.000000
,104.000000=139.000000
,104.750000=129.250000
,105.500000=129.500000
,106.000000=131.500000
,106.750000=137.000000
,107.500000=130.000000
,108.000000=129.000000
,108.750000=132.250000
,109.500000=134.000000
,110.000000=136.000000
,110.750000=132.750000
,111.500000=133.750000
,112.000000=127.250000
,112.750000=136.000000
,114.000000=132.500000
,114.750000=131.500000
,115.500000=134.000000
,116.000000=130.000000
,116.750000=137.500000
,117.500000=132.500000
,118.000000=125.999992
,118.500000=135.250000
,120.000000=132.750000
,120.750000=131.500000
,121.500000=133.399994
,123.000000=129.750000
,124.000000=134.399994
,126.000000=134.000000
,128.000000=133.100006
,130.000000=131.300003
,132.000000=133.750000
,134.000000=133.500000
,136.000000=131.899994
,138.000000=132.600006
,140.000000=136.000000
,142.000000=131.899994
,144.000000=132.500000
,146.000000=133.600006
,148.000000=133.500000
,150.000000=132.899994
,152.000000=130.399994
,154.000000=133.899994
,156.000000=133.800003
,158.000000=132.300003
,160.000000=130.899994
,162.000000=136.750000
,164.000000=133.500000
,166.000000=134.800003
,168.000000=130.800003
,170.000000=134.500000
,172.000000=131.600006
,174.000000=135.500000
,176.000000=132.699997
,178.000000=130.000000
,180.000000=131.500000
,180.750000=128.399994
,181.500000=135.000000
,182.500000=131.000000
,183.000000=137.399994
,184.000000=129.250000
,185.000000=134.500000
,186.000000=135.000000
,187.000000=137.500000
,188.000000=133.899994
,190.000000=120.000000
,190.500000=126.500000
,191.250000=132.750000
,192.000000=130.199997
;
#STOPS:
;
#BGCHANGES:1.833=Gun's N' Roses.avi=1.000=0=0=1=====,
201.000=Gun's N' Roses-bg.png=1.000=1=0=1===CrossFade==,
99999=-nosongbg-=1.000=0=0=0 // don't automatically add -songbackground-
;
#KEYSOUNDS:;
#ATTACKS:;

//---------------dance-single - ----------------
#NOTES:
     dance-single:
     :
     Challenge:
     13:
     0.577162,0.679830,0.377375,0.976736,0.649307,364.000000,330.000000,34.000000,88.000000,0.000000,0.000000,0.577162,0.679830,0.377375,0.976736,0.649307,364.000000,330.000000,34.000000,88.000000,0.000000,0.000000:
0000
0000
0000
0000
,
0000
0000
0000
0000
,
0000
0000
0000
0000
,
0000
0000
0000
0000
,
2002
0000
0000
3003
,
0004
4000
0000
0000
0000
0000
0000
0000
0000
0000
0000
0000
3003
0000
0000
0000
,
0001
0010
0001
0010
0100
1000
0000
0001
0000
0200
0000
0000
0301
0000
0000
0000
,
1000
0100
1000
0000
0001
0010
0001
2000
0000
0000
0000
0000
3001
0000
0000
0000
,
1000
0010
1000
0010
0100
0001
0000
1000
0000
0200
0000
0000
1300
0000
0000
0000
,
0001
0010
0001
0000
1000
0010
1000
0002
0000
0000
0000
0000
0103
0000
0000
0000
,
0001
1000
0001
1000
0100
0010
0000
0001
0000
2000
0000
0000
3001
0000
0000
0000
,
1000
0010
1000
0000
0001
0100
0001
1000
0000
0000
1010
0000
0000
0101
0000
0000
,
0100
0010
0100
0010
1000
0001
0000
0010
0000
0200
0000
0000
0310
0000
0000
0000
,
0001
1000
0001
0000
0100
0010
0100
0010
1000
0000
1010
0000
0000
0101
0000
0000
,
0012
0000
0000
0000
1003
0000
0010
0000
0100
0000
0010
0000
0001
0010
0000
2000
,
0000
0000
3001
0000
0001
0000
0010
0000
0100
0000
0010
0000
1000
0010
0000
0002
,
0000
0000
0003
0000
1000
0000
0010
0000
0100
0000
0010
0000
0001
0010
0000
2000
,
0000
0000
3002
0000
1000
0000
0000
1000
0003
0000
1000
0000
0100
0010
0001
0000
,
1000
0000
0001
0000
0100
0000
0010
0000
0002
0000
0000
0023
0000
0000
2030
0000
,
3100
0000
0000
1000
0100
0000
0001
0000
0100
0000
0010
0001
0000
0001
0100
0000
,
0020
0000
0000
2030
0000
0000
3002
0000
0023
0000
0000
0230
0000
0000
0310
0000
,
0001
0000
0000
0000
0000
0000
0100
0000
0000
0000
0000
0000
0010
0000
0000
0200
0000
0000
0000
0000
0000
0000
0000
0000
0310
0000
0000
0000
1000
0000
0000
0000
0001
0000
0000
0000
0010
0000
0000
0000
0100
0000
0000
0000
1000
0000
0000
0000
,
0001
0000
2000
0000
3200
0000
2300
0000
3020
0000
0000
2030
0000
0000
3200
0000
,
0302
0000
0000
0000
0103
0000
0020
0000
0000
0032
0000
0000
0203
0000
0320
0000
,
1030
0000
0002
0000
0203
0000
0302
0000
0023
0000
0000
0032
0000
0000
0203
0000
,
2300
0000
0000
0000
3200
0000
0000
0000
0302
0000
0000
0000
0013
0000
0001
0100
,
0010
0000
2000
0000
3200
0000
2300
0000
3020
0000
0000
2030
0000
0000
3001
0000
,
0010
0000
0000
0000
0220
0000
0000
0000
0030
0000
0320
0000
0000
0032
0000
0000
,
1003
0000
0010
0100
0010
0100
0000
0001
0000
0000
1000
0001
1000
0000
0001
0000
,
0020
0000
0000
0000
0130
1000
0000
0001
0100
0010
2000
0000
0000
0000
3001
0000
,
1001
0000
0000
1100
0000
0000
1002
0000
0000
0000
0000
0000
2003
0000
3200
0000
,
0320
0000
0000
0032
0000
0000
0203
0000
0010
0000
0000
0310
0000
0000
1000
0000
,
0200
0000
0000
2300
0000
0000
3002
0000
0000
0000
0203
0000
0302
0000
0023
0000
,
2030
0000
3010
0001
0000
0001
0100
0000
0010
1000
0000
1000
0001
0000
0010
0000
,
0200
0000
0000
2300
0000
0000
3002
0000
0000
0000
0023
0000
0032
0000
0203
0000
,
0320
0000
1030
0001
1000
0001
0020
0000
0100
0000
0000
0032
0000
0000
0100
0000
,
0203
0000
0000
0320
0000
0000
2030
0000
0000
0000
3010
0000
0010
1000
0100
0010
,
0001
0000
0100
0010
0000
1000
0100
0000
0020
0000
0000
0001
0000
0000
0130
0000
,
0110
0000
0000
0011
0000
0000
1002
0000
0000
0000
0103
0000
0010
0000
1000
0000
,
1010
0000
0000
1001
0000
1000
0200
0000
0010
0000
0000
0310
0000
0000
0001
0000
,
0101
0000
0000
1001
0000
0000
1100
0000
0000
1002
0000
0000
0103
0000
0010
0000
,
1010
0000
0000
1001
0000
0000
0011
0000
0001
1000
0000
1000
0010
0000
0100
0000
,
0101
0000
0000
1010
0000
0000
1001
0000
0000
2100
0000
0000
3100
0000
0010
0000
,
0011
0000
0000
1100
0000
1000
0002
0000
0100
0000
0000
1003
0000
0000
0010
0000
,
1010
0000
0000
1001
0000
0000
0011
0000
0001
0010
0001
0010
0100
1000
0100
1000
,
0001
0000
0100
0010
0000
0100
0020
0000
0000
0000
0100
0000
0130
0010
1000
0000
,
0010
1000
0010
1000
0001
0100
0000
0001
0000
2000
0000
0000
3100
0000
0000
0000
,
1000
0100
1000
0100
0010
0001
0010
0001
1000
0000
1001
0000
0000
0110
0000
0000
,
2002
0000
0000
0000
,
3003
0000
0000
0000
;

//---------------dance-single - ----------------
#NOTES:
     dance-single:
     :
     Hard:
     10:
     0.407502,0.462285,0.233085,1.032232,0.316329,257.000000,236.000000,21.000000,93.000000,0.000000,0.000000,0.407502,0.462285,0.233085,1.032232,0.316329,257.000000,236.000000,21.000000,93.000000,0.000000,0.000000:
0000
0000
0000
0000
,
0000
0000
0000
0000
,
0000
0000
0000
0000
,
0000
0000
0000
0000
,
2002
0000
0000
3003
,
0004
4000
0000
0000
0000
0000
0000
0000
0000
0000
0000
0000
3003
0000
0000
0000
,
1000
0000
0010
0000
0100
0000
0000
0001
0000
2000
0000
0000
3001
0000
0000
0000
,
1000
0000
0100
0000
0010
0000
0000
0002
0000
0000
0000
0000
1003
0000
0000
0000
,
0001
0000
0010
0000
1000
0000
0000
0010
0000
0002
0000
0000
0103
0000
0000
0000
,
0010
0000
1000
0000
0100
0000
0000
0020
0000
0000
0000
0000
0130
0000
0000
0000
,
1000
0000
0001
0000
0100
0000
0000
0010
0000
2000
0000
0000
3001
0000
0000
0000
,
0010
0000
0001
0000
1000
0000
0000
0100
0000
0000
0011
0000
0000
1100
0000
0000
,
0001
0000
0100
0000
1000
0000
0000
0100
0000
0002
0000
0000
0013
0000
0000
0000
,
0001
0000
0100
0000
0010
0000
0000
1000
0000
0000
1001
0000
0000
0110
0000
0000
,
1002
0000
0000
0000
1003
0000
0010
0000
0100
0000
0000
0000
0001
0000
0000
2000
,
0000
0000
3000
0000
0001
0000
0010
0000
0100
0000
0000
0000
1000
0000
0000
0002
,
0000
0000
0003
0000
1000
0000
0010
0000
0100
0000
0000
0000
0001
0000
0000
2000
,
0000
0000
0002
0000
0000
0000
0000
3003
0000
0000
0000
0000
1000
0000
0100
0000
,
0000
0000
0010
0000
0001
0000
0100
0000
0020
0000
0000
2030
0000
0000
3002
0000
,
0000
0003
0000
0000
1000
0000
0100
0000
0010
0000
0000
0001
0000
0000
0100
0000
,
2000
0000
0000
3200
0000
0000
0302
0000
0023
0000
0000
0230
0000
0000
0000
0000
,
0300
0000
0000
0000
0000
0000
1000
0000
0000
0000
0000
0000
0001
0000
0000
2000
0000
0000
0000
0000
0000
0000
0000
0000
3001
0000
0000
0000
0100
0000
0000
0000
0001
0000
0000
0000
0100
0000
0000
0000
0000
0000
0000
0000
0000
0000
0000
0000
,
0001
0000
2000
0000
3200
0000
0320
0000
0032
0000
0000
0203
0000
0000
0320
0000
,
2030
0000
0000
0000
3000
0000
0020
0000
0000
2030
0000
0000
3200
0000
0320
0000
,
0030
0000
0002
0000
0203
0000
0320
0000
2030
0000
0000
3002
0000
0000
2003
0000
,
3200
0000
0320
0000
0032
0000
0103
0010
,
1000
0000
0002
0000
0023
0000
0230
0000
2300
0000
0000
3020
0000
0000
0230
0000
,
0301
0000
0000
0000
2002
0000
0000
0000
3003
0000
2000
0000
0000
3002
0000
0000
,
1003
0000
0100
0000
0001
0000
0000
0100
0000
0000
1000
0000
0100
0000
0010
0000
,
0002
0000
0000
0000
0103
0000
0000
0000
0010
0000
2002
0000
0000
3003
0000
0000
,
1001
0000
0000
0110
0000
0000
1002
0000
0000
0000
0000
0000
0023
0000
0032
0000
,
0203
0000
0000
0320
0000
0000
2030
0000
0001
0000
0000
3001
0000
0000
0001
0000
,
2000
0000
0000
3200
0000
0000
2300
0000
0000
0000
3002
0000
0203
0000
0320
0000
,
2030
0000
0000
3200
0000
0000
0320
0000
0031
0000
0000
0001
0000
0000
1000
0000
,
0002
0000
0000
0203
0000
0000
0302
0000
0000
0000
2003
0000
3020
0000
0230
0000
,
0302
0000
0003
0020
0000
0000
0230
0000
0000
0000
0000
0000
2300
0000
0000
0000
,
3020
0000
0000
0230
0000
0000
0320
0000
0000
0000
1030
0000
0010
0000
0001
0000
,
0010
0000
0000
1000
0000
0000
0100
0000
0020
0000
0000
0001
0000
0000
0031
0000
,
0011
0000
0000
1100
0000
0000
0012
0000
0000
0000
0000
0000
0103
0000
0000
0000
,
1010
0000
0000
0101
0000
0000
2010
0000
0000
0000
0000
0000
3001
0000
0000
0000
,
1000
0000
0000
0100
0000
0000
1000
0000
0000
0001
0000
0000
0100
0000
0010
0000
,
1000
0000
0000
0001
0000
0000
0020
0000
0100
0000
0000
0130
0000
0000
0000
0000
,
0010
0000
0000
0001
0000
0000
1000
0000
0000
0010
0000
0000
0100
0000
0010
0000
,
1000
0000
0000
0001
0000
0000
0020
0000
0001
0030
0000
0010
0000
0000
0100
0000
,
1000
0000
0000
0001
0000
0000
0100
0000
0001
0000
0100
0000
0010
0000
1000
0000
,
1001
0000
0000
0110
0000
0000
2002
0000
0000
0000
0000
0000
3003
0000
0000
0000
,
1000
0000
0100
0000
0001
0000
0000
0100
0000
2000
0000
0000
3010
0000
0000
0000
,
1000
0000
0010
0000
0001
0000
0010
0000
1000
0000
0100
0000
0000
0010
0000
0000
,
2002
0000
0000
0000
,
3003
0000
0000
0000
;

//---------------dance-single - ----------------
#NOTES:
     dance-single:
     :
     Medium:
     8:
     0.334564,0.407898,0.077695,0.432872,0.133191,211.000000,204.000000,7.000000,39.000000,0.000000,0.000000,0.334564,0.407898,0.077695,0.432872,0.133191,211.000000,204.000000,7.000000,39.000000,0.000000,0.000000:
0000
0000
0000
0000
,
0000
0000
0000
0000
,
0000
0000
0000
0000
,
0000
0000
0000
0000
,
2002
0000
0000
3003
,
0004
4000
0000
0000
0000
0000
0000
0000
0000
0000
0000
0000
3003
0000
0000
0000
,
0001
1000
0100
0000
1000
0000
0001
0000
,
0100
0001
0010
0000
0002
0000
0003
0000
,
1000
0010
0100
0000
0001
0000
1000
0000
,
0010
1000
0100
0000
0020
0000
0030
0000
,
0001
0100
0010
0000
0100
0000
0001
0000
,
0010
0000
0100
0000
1000
0000
0000
0000
0020
0000
0100
0000
0030
0100
0000
0000
,
0100
0001
0010
0000
0001
0000
0100
0000
,
0010
0000
0100
0000
0010
0000
0100
0000
0010
0000
1000
0000
0000
0001
0000
0000
,
1002
0000
0103
0010
1000
0000
1000
0010
,
0100
0000
0001
0010
0100
0000
0100
0010
,
0001
0000
0100
0010
1000
0000
1000
0010
,
0200
0000
0301
0000
,
1000
0000
0100
1000
0020
0000
0130
0000
,
0001
0000
0010
0001
0200
0000
0310
0000
,
2000
3100
0002
0013
,
1000
0001
1000
0000
0010
0000
0100
0000
,
0001
0000
0100
0010
2000
0000
0001
0000
,
0200
3300
0012
1000
,
0103
0000
0010
1000
0002
0000
0013
0000
,
2000
3020
0032
0003
,
1001
0000
1000
0010
0200
0000
0001
0000
,
0310
2002
3003
1000
,
0001
0010
0100
0000
0010
0000
0100
0010
,
0002
0000
1003
0000
0010
0200
0000
0000
,
0310
0000
0000
0010
0000
0000
0020
0000
0000
0000
0000
0000
1030
0000
0000
0000
,
0001
0000
0000
1000
0000
0000
0200
0000
0000
0000
0000
0000
0310
0000
0000
0000
,
0001
0000
0000
0100
0000
0000
0020
0000
0000
0000
0130
0000
0010
0000
0000
0000
,
0010
0000
0000
1000
0000
0000
0200
0000
0010
0000
0000
0310
0000
0000
0000
0000
,
0001
0000
0000
1000
0000
0000
0020
0000
0000
0000
1030
0000
0100
0000
0000
0000
,
0100
0000
0000
0010
0000
0000
0002
0000
0000
0000
0000
0000
1003
0000
0000
0000
,
0001
0000
0000
0100
0000
0000
0020
0000
0000
0000
1030
0000
0001
0000
0000
0000
,
0001
0000
0000
0010
0000
0000
0100
0000
2000
0000
0000
0000
3001
0000
0000
0000
,
0100
0000
0000
0100
0000
0000
0002
0000
0000
0000
0000
0000
0013
0000
0000
0000
,
0001
0000
0000
0001
0000
0000
2000
0000
0000
0000
0000
0000
3010
0000
0000
0000
,
1000
0000
0000
0100
0000
0000
1000
0000
0000
0001
0000
0000
0100
0000
0000
0000
,
0010
0000
0000
1000
0000
0000
0002
0000
0010
0000
0000
0013
0000
0000
0000
0000
,
0001
0000
0000
0100
0000
0000
0001
0000
0000
1000
0000
0000
0100
0000
0000
0000
,
0010
0000
0000
0001
0000
0000
2000
0000
0000
0000
0000
0000
3001
0000
0000
0000
,
0100
0000
0000
0010
0000
0000
0100
0000
0001
0000
1000
0000
0001
0000
1000
0000
,
0001
0000
0000
1000
0000
0000
2002
0000
0000
0000
0000
0000
3003
0000
0000
0000
,
1000
0100
0010
0000
0100
0000
1000
0000
,
0001
0000
0100
0000
0001
0000
0100
0000
0010
0000
1000
0000
0000
0001
0000
0000
,
2002
0000
0000
0000
,
3003
0000
0000
0000
;

//---------------dance-single - ----------------
#NOTES:
     dance-single:
     :
     Easy:
     4:
     0.214057,0.244739,0.055496,0.255283,0.000000,135.000000,130.000000,5.000000,23.000000,0.000000,0.000000,0.214057,0.244739,0.055496,0.255283,0.000000,135.000000,130.000000,5.000000,23.000000,0.000000,0.000000:
0000
0000
0000
0000
,
0000
0000
0000
0000
,
0000
0000
0000
0000
,
0000
0000
0000
0000
,
2002
0000
0000
3003
,
0002
0000
0000
0003
,
1000
0100
0010
0000
,
0010
0100
2000
3000
,
0001
0100
0010
0000
,
0010
0100
0002
0003
,
1000
0001
0010
0000
,
0100
1000
0020
0030
,
1000
0001
0010
0000
,
0001
0100
0010
1000
,
0002
0000
1003
0010
,
0100
0000
0010
0100
,
0001
0000
1000
0010
,
0200
0000
0301
0000
,
1000
0100
0020
0030
,
0001
0100
0020
0030
,
1000
0000
0001
0000
,
1000
0100
0010
0001
,
1000
0010
1000
0010
,
2000
0000
3001
0000
,
0001
0010
0001
0010
,
0200
2300
3002
0003
,
0100
0010
0100
0010
,
0100
2002
3003
1000
,
0010
0000
0100
0000
,
0010
1000
2002
3003
,
1000
1000
1000
0000
,
0001
0001
0001
0000
,
0010
0001
0100
0000
,
0010
1000
0100
0000
,
1000
0100
0010
0000
,
0001
0100
0010
0000
,
0100
0001
1000
0000
,
0100
0010
0002
0003
,
0001
0010
1000
0000
,
1000
0010
0001
0000
,
0001
0100
1000
0000
,
1000
0100
0001
0000
,
1000
0100
0001
0000
,
0001
0100
1000
0000
,
1000
0010
0100
0001
,
2002
0000
3003
0000
,
1000
0100
0010
0000
,
0001
0100
0010
1000
,
2002
0000
0000
0000
,
3003
0000
0000
0000
;

//---------------dance-single - ----------------
#NOTES:
     dance-single:
     :
     Beginner:
     1:
     0.085623,0.135966,0.033298,0.088794,0.000000,54.000000,51.000000,3.000000,8.000000,0.000000,0.000000,0.085623,0.135966,0.033298,0.088794,0.000000,54.000000,51.000000,3.000000,8.000000,0.000000,0.000000:
0000
0000
0000
0000
,
0000
0000
0000
0000
,
0000
0000
0000
0000
,
0000
0000
0000
0000
,
2002
0000
0000
0000
,
3003
0000
0000
0000
,
1000
0000
0000
0000
,
0100
0000
0000
0000
,
0010
0000
0000
0000
,
0001
0000
0000
0000
,
0100
0000
0000
0000
,
0010
0000
0000
0000
,
1000
0000
0000
0000
,
0001
0000
1000
0000
,
0001
0000
0000
0000
,
1000
0000
0000
0000
,
0001
0000
0000
0000
,
1000
0000
0000
0000
,
0100
0000
0000
0000
,
0010
0000
0000
0000
,
0001
0000
0000
0000
,
0100
0000
0000
0000
,
0010
0000
0010
0000
,
0020
0000
0030
0000
,
1000
0000
1000
0000
,
0001
0000
0001
0000
,
0010
0000
0010
0000
,
0020
0000
0030
0000
,
0001
0000
0000
0000
,
1000
0000
0001
0000
,
1000
0000
0000
0000
,
0010
0000
0000
0000
,
0100
0000
0000
0000
,
0001
0000
0000
0000
,
0010
0000
0000
0000
,
0001
0000
0000
0000
,
0100
0000
0000
0000
,
0010
0000
0000
0000
,
1000
0000
0000
0000
,
0100
0000
0000
0000
,
0010
0000
0000
0000
,
0001
0000
0000
0000
,
0100
0000
0000
0000
,
0010
0000
0000
0000
,
1000
0000
0000
0000
,
2002
0000
3003
0000
,
1000
0000
0000
0000
,
0001
0000
1000
0000
,
2002
0000
0000
0000
,
3003
0000
0000
0000
;
