#VERSION:0.83;
#TITLE:Freal Luv;
#SUBTITLE:(ft. Chanyeol & Tinashe);
#ARTIST:Far East Movement x marshmello;
#TITLETRANSLIT:;
#SUBTITLETRANSLIT:;
#ARTISTTRANSLIT:;
#GENRE:Hybrid Trap;
#ORIGIN:;
#CREDIT:;
#BANNER:Freal Luv (ft. Chanyeol & Tinashe).png;
#BACKGROUND:Freal Luv (ft. Chanyeol & Tinashe)-bg.png;
#PREVIEWVID:;
#JACKET:Freal Luv (ft. Chanyeol & Tinashe)-jacket.png;
#CDIMAGE:;
#DISCIMAGE:;
#LYRICSPATH:;
#CDTITLE:cdtitle.png;
#MUSIC:Freal Luv (ft. Chanyeol & Tinashe).ogg;
#OFFSET:-0.183198;
#SAMPLESTART:39.905956;
#SAMPLELENGTH:13.241379;
#SELECTABLE:YES;
#BPMS:0.000=72.500,
44.000=145.000;
#STOPS:48.500=1.241;
#DELAYS:;
#WARPS:;
#TIMESIGNATURES:0.000=4=4;
#TICKCOUNTS:0.000=4;
#COMBOS:0.000=1;
#SPEEDS:0.000=1.000=0.000=0;
#SCROLLS:0.000=1.000;
#FAKES:;
#LABELS:0.000=Song Start;
#BGCHANGES:;
#KEYSOUNDS:;
#ATTACKS:
;

//---------------dance-single - ----------------
#NOTEDATA:;
#CHARTNAME:;
#STEPSTYPE:dance-single;
#DESCRIPTION:;
#CHARTSTYLE:;
#DIFFICULTY:Challenge;
#METER:13;
#RADARVALUES:0.588947,0.670350,0.046114,0.534927,0.820836,447.000000,442.000000,5.000000,58.000000,0.000000,0.000000,0.000000,0.000000,0.000000,0.588947,0.670350,0.046114,0.534927,0.820836,447.000000,442.000000,5.000000,58.000000,0.000000,0.000000,0.000000,0.000000,0.000000;
#CREDIT:;
#OFFSET:-0.183198;
#BPMS:0.000000=72.500000
,48.000000=145.000000
;
#STOPS:;
#DELAYS:;
#WARPS:;
#TIMESIGNATURES:0.000000=4=4
;
#TICKCOUNTS:0.000000=4
;
#COMBOS:0.000000=1
;
#SPEEDS:0.000000=1.000000=0.000000=0
;
#SCROLLS:0.000000=1.000000
,46.250000=0.000000
,47.750000=2.000000
,48.000000=1.000000
;
#FAKES:;
#LABELS:0.000000=Song Start
;
#NOTES:
0000
0000
0000
0000
,
0000
0000
0000
0000
0000
0000
0000
0000
0000
0000
0000
0000
0000
0000
0000
1000
,
0020
0000
0100
0000
1000
1000
0000
2030
0000
0100
0100
0000
0001
3001
0000
0001
,
0020
0000
0100
0000
0001
0001
0000
0032
0000
0100
0100
0000
1000
1003
0000
0001
,
0100
0000
0100
0000
0100
0020
1000
1000
0000
1000
1030
0010
0100
0001
1000
0100
,
0020
0000
0100
0000
0130
0100
1000
0001
0000
0100
0100
0000
1000
0100
0001
0010
,
0100
0000
0100
0000
0100
0020
0001
0001
0000
0001
0031
0010
0100
1000
0001
0100
,
0020
0000
0100
0000
0130
0100
0001
1000
0000
0100
0100
0000
0001
0100
0010
0001
,
0100
0000
0001
0100
1000
0100
0020
1000
1030
0000
1000
0100
0001
0100
0020
0001
,
0031
0000
0001
0100
2000
0000
3020
0000
0031
0100
0001
0100
0001
0100
1000
0010
,
0001
0000
1000
0100
0001
0100
0020
0001
0031
0000
0001
0100
1000
0100
0020
1000
,
1030
0000
0010
1000
0200
0000
0302
0000
0013
1000
0000
0000
0000
0000
0000
0000
,
2000
0000
0000
3100
0002
0000
0000
0103
,
2000
0000
0000
3020
0000
0000
0032
0000
0000
2003
0000
0000
3100
0000
0001
0000
,
0020
0000
0000
0000
0031
0000
0100
0000
0110
0000
0000
0010
0000
0000
2000
0000
,
0100
0000
3200
0000
0000
0000
0301
0000
0100
1000
0000
1000
0010
0000
0100
0000
,
0001
0000
0000
0000
1000
0000
0100
0000
0110
0000
0000
0010
0000
0000
0001
0000
,
0100
0000
0000
1000
0000
0000
0100
0000
0010
1000
0000
1000
0001
0000
0100
0000
,
0020
0000
0000
0000
1030
0000
0100
0000
0110
0000
0000
0010
0000
0000
0002
0000
,
0100
0000
0203
0000
0000
0000
1300
0000
0100
0001
0000
0001
0010
0000
0100
0000
,
1000
0001
0001
0100
0102
0000
1003
0100
,
2100
0000
0000
0001
3000
0000
0001
0000
0002
1000
0000
0000
1003
0000
0100
0000
,
0010
0000
0001
0000
0100
0000
1000
0000
0100
0000
0000
0001
0000
0000
0010
0000
,
1000
0000
0000
1000
0010
0000
0001
0000
0100
0001
0000
0001
0010
0000
0100
0000
,
1000
0000
0010
0000
0001
0000
0010
0000
1000
0000
0000
0100
0000
0000
0010
0000
,
0001
0000
0000
0001
0010
0000
0100
0000
1000
0010
0000
0100
0001
0000
1000
0000
,
0010
0000
1000
0000
0100
0000
0001
0000
0100
0000
0000
1000
0000
0000
0010
0000
,
0001
0000
0000
0001
0010
0000
1000
0000
0100
0010
0000
0010
0001
0000
0100
0000
,
0010
1000
0010
2000
0000
3010
1000
0010
1000
0020
0000
1030
,
0010
1000
0010
2000
0000
3010
1000
0010
1000
0001
0000
0000
,
0010
0001
0010
0002
0000
0013
0001
0010
0001
0020
0000
0031
,
0010
0001
0010
0001
0010
0001
0010
0001
0010
0100
0000
0000
,
1000
0001
1000
0002
0000
0000
0103
0010
0100
0010
0100
0010
,
0200
0000
0000
0301
1000
0001
1000
0001
1000
0100
0000
0000
,
0010
0001
0010
0002
0000
0000
1003
0010
1000
0010
1000
0010
,
0100
0001
0100
0001
0100
0001
1000
0100
0010
0002
0000
0000
,
1003
0100
1000
0100
1000
0100
0020
0000
0000
0031
0100
0001
,
0100
0001
0100
0020
0000
0000
0031
0010
1000
0200
0000
0000
,
0310
0001
0010
0001
0010
0001
0200
0000
0000
0310
1000
0010
,
1000
0010
1000
0200
0000
0000
0301
0100
1000
0020
0000
0000
,
0130
0000
0000
0000
0001
0000
0000
0000
0100
0000
0000
0000
0001
0000
0000
0000
0000
0000
1000
0000
0000
0001
0000
0000
2000
0000
0000
0000
0000
0000
0000
0000
0000
0000
0000
0000
3100
0000
0000
0000
1000
0000
0000
0000
0100
0000
0000
0000
,
1000
0000
0001
0000
0001
0000
0001
0000
1000
0000
0010
0100
0020
0000
0000
0000
,
1030
0000
0000
0000
0010
0000
0000
0000
0100
0000
0000
0000
0002
0000
0000
0000
0000
0000
0000
0000
0000
0000
0000
0000
1003
0000
0000
0000
0100
0000
0000
0000
0010
0000
0000
0000
0002
0000
0000
0000
0000
0000
1003
0000
0000
0010
0000
0000
,
1000
0000
0010
0000
1000
0000
0001
0000
0100
0000
0001
0000
1000
0000
0010
0000
1000
0000
0001
0000
0000
1000
0000
0000
,
0200
0000
0000
0000
0001
0000
0001
0000
0001
0000
0000
0010
0000
0000
1000
0000
,
2300
0000
0000
0100
0000
0000
0001
0000
3001
0010
0000
0100
1000
0000
0001
0000
,
0200
0000
0000
0000
1000
0000
1000
0000
1000
0000
0000
0010
0000
0000
0001
0000
,
0302
0000
0000
0100
0000
0000
1003
0000
1000
0100
0000
0010
0001
0000
1000
0000
,
0020
0000
0000
0000
0001
0000
0001
0000
0001
0000
0000
0100
0000
0000
1000
0000
,
2030
0000
0000
0010
0000
0000
0001
0000
3001
0100
0000
0010
1000
0000
0001
0000
,
0020
0000
0000
0000
1000
0000
1000
0000
1000
0000
0000
0100
0000
0000
0001
0000
,
0032
0000
0000
0000
0000
0000
0000
0000
0000
0010
0000
0000
0000
0000
0000
0000
0000
0000
1003
0000
0000
0000
0000
0000
0001
0000
0000
0000
0100
0000
0000
0000
0001
0000
0000
0000
1000
0000
0000
0000
0100
0000
0000
0000
1000
0000
0000
0000
;

//---------------dance-single - ----------------
#NOTEDATA:;
#CHARTNAME:;
#STEPSTYPE:dance-single;
#DESCRIPTION:;
#CHARTSTYLE:;
#DIFFICULTY:Hard;
#METER:10;
#RADARVALUES:0.383408,0.499938,0.000000,0.498036,0.239795,291.000000,291.000000,0.000000,54.000000,0.000000,0.000000,0.000000,0.000000,0.000000,0.383408,0.499938,0.000000,0.498036,0.239795,291.000000,291.000000,0.000000,54.000000,0.000000,0.000000,0.000000,0.000000,0.000000;
#CREDIT:;
#OFFSET:-0.183198;
#BPMS:0.000000=72.500000
,48.000000=145.000000
;
#STOPS:158.250000=0.413790
;
#DELAYS:;
#WARPS:;
#TIMESIGNATURES:0.000000=4=4
;
#TICKCOUNTS:0.000000=4
;
#COMBOS:0.000000=1
;
#SPEEDS:0.000000=1.000000=0.000000=0
;
#SCROLLS:0.000000=1.000000
,46.250000=0.000000
,47.750000=2.000000
,48.000000=1.000000
,141.500000=0.000000
,143.000000=1.000000
;
#FAKES:;
#LABELS:0.000000=Song Start
;
#NOTES:
0000
0000
0000
0000
,
0000
0000
0000
0000
0000
0000
0000
0000
0000
0000
0000
0000
0000
0000
0000
0001
,
0020
0000
0001
0000
0001
0000
0000
0230
0000
0000
1000
0000
1300
0000
0000
1000
,
0020
0000
1000
0000
1000
0000
0000
0230
0000
0000
0001
0000
0301
0000
0000
0000
,
1000
0000
1000
0000
0010
2000
0000
0000
0100
0000
3100
0000
0010
0000
0010
0002
,
0000
0000
1003
0000
0001
0100
0000
0001
0000
0100
0010
0000
1000
0000
0001
1000
,
0001
0000
0001
0000
0010
0002
0000
0000
0100
0000
0103
0000
0010
0000
0010
2000
,
0000
0000
3001
0000
1000
0100
0000
1000
0000
0100
0010
0000
0001
0000
0200
0000
,
0301
0000
1000
0010
0100
0000
0020
0000
1030
0000
0001
0010
0100
0000
0020
0000
,
0031
0000
1000
0100
2000
0000
3020
0000
0032
0000
0203
0000
2300
0000
0000
0000
,
3001
0000
0100
0001
0010
0000
0200
0000
1300
0000
0100
1000
0010
0000
0200
0000
,
0301
0000
1000
0100
2000
0000
3020
0000
0100
0130
0000
0000
0000
0000
0000
0000
,
0001
0000
0000
0001
1000
0000
0000
1000
,
0100
0000
0000
0010
0000
0000
0100
0000
0000
0010
0000
0000
0100
0000
1000
0000
,
0002
0000
0000
0000
0103
0000
0010
0000
1000
0000
0000
1000
0000
0000
2000
0000
,
0000
3200
0000
0001
0302
0000
0203
0000
,
1300
0000
0000
0000
0001
0000
0100
0000
0010
0000
0000
0010
0000
0000
0010
0000
,
1000
0000
0000
0010
0000
0000
1000
0000
0200
0000
0000
0000
0310
0000
0001
0000
,
2000
0000
0000
0000
3100
0000
0010
0000
0001
0000
0000
0001
0000
0000
0002
0000
,
0000
0203
0000
1000
2300
0000
3200
0000
,
0300
0001
0002
0000
0023
0000
2030
0000
,
3020
0032
0203
0320
,
1030
0000
0000
0000
0100
0000
1000
0000
0001
0000
0000
0001
0000
0000
0001
0000
,
0100
0000
0001
0100
0010
1000
0001
0000
,
1000
0000
0000
0000
0001
0000
0010
0000
0100
0000
0000
0100
0000
0000
0100
0000
,
1000
0000
0100
1000
0010
0000
0100
0000
,
0002
0000
0000
0000
0013
0000
0100
0000
1000
0000
0000
1000
0000
0000
2000
0000
,
0000
3020
0000
0001
0032
0000
0023
0000
,
1030
0000
0000
1000
0100
0000
0000
1000
,
0001
0000
0000
0001
0000
0000
1000
0000
0000
1000
0000
0000
0010
0000
1000
0000
,
0001
0000
0000
0001
0100
0000
0000
0001
,
1000
0000
0000
1000
0000
0000
0001
0000
0000
0001
0000
0000
0010
0000
0001
0000
,
0100
0000
0000
0100
0010
0000
0000
0100
,
0001
0000
0000
0001
0000
0000
1000
0000
0000
1000
0000
0000
0010
0000
1000
0000
,
0100
0000
0000
0100
0010
0000
0000
0100
,
1000
0000
0000
0001
0000
0000
1000
0000
0000
0000
0000
0000
0000
0000
0000
0000
,
1000
0000
0010
1000
0100
0000
0010
0001
,
0100
0000
0000
1000
0000
0000
0100
0000
0000
0001
0000
0000
0010
0000
0100
0000
,
0010
0000
0001
0100
1000
0000
1000
0100
,
0001
0000
0000
0010
0000
0000
0100
0000
0000
1000
0000
0000
0001
0000
0000
0000
,
0010
0001
0100
0000
0010
1000
0100
0010
,
0010
0100
1000
0000
0010
0100
0001
0000
,
1000
0000
0100
0000
0001
0000
0000
0000
0001
0000
0100
0000
1000
0000
0000
0100
,
0000
0000
0010
0000
0000
0001
0000
0000
0100
0000
0010
0000
2000
0000
0000
0000
,
0000
0000
0010
0000
3002
0000
0000
0000
0000
0000
0010
0000
2003
0000
0000
0100
,
0000
0000
0100
0000
0000
3100
0000
0000
0100
0000
0010
0000
0002
0000
0000
0000
,
0000
0000
0010
0000
2003
0000
0000
0000
0000
0000
0010
0000
3002
0000
0000
0100
,
0000
0000
0100
0000
0000
0103
0000
0000
0100
0000
0010
0000
2000
0000
0000
0000
,
0000
0000
0100
0000
3002
0000
0000
0000
0000
0000
0100
0000
2003
0000
0000
0010
,
0000
0000
0010
0000
0000
0010
0000
0000
3010
0000
0100
0000
0002
0000
0000
0000
,
0000
0000
0100
0000
2003
0000
0000
0000
0000
0000
0100
0000
3001
0000
0000
0010
,
0000
0000
0100
0000
0000
1000
0000
0000
0010
0000
0001
0000
0000
0000
0000
0000
;

//---------------dance-single - ----------------
#NOTEDATA:;
#CHARTNAME:;
#STEPSTYPE:dance-single;
#DESCRIPTION:;
#CHARTSTYLE:;
#DIFFICULTY:Medium;
#METER:7;
#RADARVALUES:0.288544,0.331678,0.036892,0.544150,0.004611,219.000000,215.000000,4.000000,59.000000,0.000000,0.000000,0.000000,0.000000,0.000000,0.288544,0.331678,0.036892,0.544150,0.004611,219.000000,215.000000,4.000000,59.000000,0.000000,0.000000,0.000000,0.000000,0.000000;
#CREDIT:;
#OFFSET:-0.183198;
#BPMS:0.000000=72.500000
,48.000000=145.000000
;
#STOPS:142.000000=0.413790
,157.000000=0.413806
;
#DELAYS:;
#WARPS:;
#TIMESIGNATURES:0.000000=4=4
;
#TICKCOUNTS:0.000000=4
;
#COMBOS:0.000000=1
;
#SPEEDS:0.000000=1.000000=0.000000=0
;
#SCROLLS:0.000000=1.000000
;
#FAKES:;
#LABELS:0.000000=Song Start
;
#NOTES:
0000
0000
0000
0000
,
0000
0000
0000
0000
,
2000
0010
0200
3300
,
0002
0010
0200
0303
,
0001
0001
0200
0000
0310
1000
0100
0010
,
0002
0000
0013
0000
0001
0100
0010
0000
,
1000
1000
0200
0000
0310
0001
0100
0010
,
2000
0000
3010
0000
1000
0100
0010
0002
,
0003
1000
0100
0002
0000
0103
0001
0020
,
0000
0031
0010
1000
0200
0320
0032
0003
,
0000
0001
0100
2000
0000
3100
1000
0020
,
0031
0000
0001
0000
1000
0000
1000
0000
0010
0100
0000
0000
0000
0000
0000
0000
,
0002
0003
2000
3000
,
0100
0100
0200
0300
,
1002
0000
0100
0000
1003
0000
0000
2000
,
0000
3200
0000
0302
0023
0000
2030
0000
,
3001
0000
0100
0000
0100
0010
0000
1000
,
0000
1000
0000
0100
0010
0000
0100
0000
,
2001
0000
0100
0000
3001
0000
0000
0002
,
0000
0203
0000
2300
3020
0000
0032
0000
,
0003
1000
2000
0000
3200
0000
0320
0000
,
0032
0203
0320
2030
,
3001
0002
0203
0320
,
2030
3200
0302
0203
,
1300
0000
0010
0000
0010
0100
0000
0001
,
0000
0001
0000
0010
0100
0000
0010
0000
,
1002
0000
0100
0000
1003
0000
0000
0002
,
0000
0023
0000
2030
3200
0000
0302
0000
,
1003
0000
0000
1000
0100
0000
0000
0100
,
1000
0001
0100
0100
,
0001
0000
0000
0001
0100
0000
0000
0100
,
0001
1000
0100
0100
,
0010
0000
0000
0100
1000
0000
0000
0001
,
0100
0010
0010
1000
,
0010
0000
0000
0100
0001
0000
0000
1000
,
0100
0100
0000
1000
,
1000
0000
0010
0000
0100
0001
0010
0000
,
0001
0000
0100
0010
1000
0000
0001
0000
,
0001
0000
0010
0000
0100
1000
0010
0000
,
1000
1001
0001
0001
,
0100
0000
0010
0000
1000
0100
1000
0100
,
0010
0001
1000
1000
,
0100
0000
0010
0001
0100
0000
0010
0000
,
1000
0100
0010
0000
0002
0000
0000
0000
,
0203
0000
0000
0000
1300
0000
0100
0001
,
0100
0001
2000
0000
,
3200
0000
0000
0000
0301
0000
0100
1000
,
0100
1000
2000
0000
,
3020
0000
0000
0000
0031
0000
0010
1000
,
0010
1000
0002
0000
,
0023
0000
0000
0000
1030
0000
0010
0001
,
0010
0000
0001
1000
0000
0000
0000
0000
;

//---------------dance-single - ----------------
#NOTEDATA:;
#CHARTNAME:;
#STEPSTYPE:dance-single;
#DESCRIPTION:;
#CHARTSTYLE:;
#DIFFICULTY:Easy;
#METER:4;
#RADARVALUES:0.184458,0.235183,0.064560,0.212126,0.000000,140.000000,133.000000,7.000000,23.000000,0.000000,0.000000,0.000000,0.000000,0.000000,0.184458,0.235183,0.064560,0.212126,0.000000,140.000000,133.000000,7.000000,23.000000,0.000000,0.000000,0.000000,0.000000,0.000000;
#CREDIT:;
#OFFSET:-0.183198;
#BPMS:0.000000=72.500000
,48.000000=145.000000
;
#STOPS:142.000000=0.413790
,157.000000=0.413798
;
#DELAYS:;
#WARPS:;
#TIMESIGNATURES:0.000000=4=4
;
#TICKCOUNTS:0.000000=4
;
#COMBOS:0.000000=1
;
#SPEEDS:0.000000=1.000000=0.000000=0
;
#SCROLLS:0.000000=1.000000
;
#FAKES:;
#LABELS:0.000000=Song Start
;
#NOTES:
0000
0000
0000
0000
,
0000
0000
0000
0000
,
2000
3010
2000
3000
,
0002
0013
0002
0003
,
1000
2000
3000
0010
,
0200
0300
0100
0000
,
0001
0002
0003
0010
,
0200
0300
0100
0000
,
1000
1000
0010
0010
,
0001
0100
2000
3000
,
0001
0001
0010
0010
,
0001
1000
0001
1000
0001
0000
0000
0000
,
0002
0003
2000
3000
,
0100
0100
0200
0300
,
2001
0000
3010
0000
,
1000
0100
0010
0001
,
1000
0000
0001
0000
,
0100
0100
0100
0000
,
1002
0000
0013
0000
,
0001
0100
0010
1000
,
0001
0000
0001
0000
,
0001
0100
0010
1000
,
0100
0000
0100
0000
,
0100
1000
0010
0100
,
0001
0000
1000
0000
,
0100
0100
0100
0000
,
2001
0000
3010
0000
,
1000
0100
0010
0001
,
1000
0000
1000
0000
,
0010
0000
0010
0000
,
0100
0000
0100
0000
,
0001
0000
0001
0000
,
1000
0000
0100
0000
,
0010
0000
0001
0000
,
1000
0000
0010
0000
,
0100
0001
0000
1000
,
0100
0010
0010
0100
,
1000
0010
0000
0100
,
0010
1000
1000
0100
,
0010
0001
0001
0100
,
0010
0010
0100
0001
,
0010
0000
0100
0010
,
0001
0001
0100
0010
,
1000
0000
1002
0000
,
0010
0000
0200
0000
,
0303
0000
2001
0000
,
0010
0000
0200
0000
,
3300
0000
0201
0000
,
1000
0000
0002
0000
,
0303
0000
1200
0000
,
0001
0000
2000
0000
,
3300
0000
0000
0000
;

//---------------dance-single - ----------------
#NOTEDATA:;
#CHARTNAME:;
#STEPSTYPE:dance-single;
#DESCRIPTION:;
#CHARTSTYLE:;
#DIFFICULTY:Beginner;
#METER:2;
#RADARVALUES:0.105404,0.175696,0.027669,0.147566,0.000000,80.000000,77.000000,3.000000,16.000000,0.000000,0.000000,0.000000,0.000000,0.000000,0.105404,0.175696,0.027669,0.147566,0.000000,80.000000,77.000000,3.000000,16.000000,0.000000,0.000000,0.000000,0.000000,0.000000;
#CREDIT:;
#OFFSET:-0.183198;
#BPMS:0.000000=145.000000
;
#STOPS:;
#DELAYS:;
#WARPS:;
#TIMESIGNATURES:0.000000=4=4
;
#TICKCOUNTS:0.000000=4
;
#COMBOS:0.000000=1
;
#SPEEDS:0.000000=1.000000=0.000000=0
;
#SCROLLS:0.000000=1.000000
;
#FAKES:;
#LABELS:0.000000=Song Start
;
#NOTES:
0000
0000
0000
0000
,
0000
0000
0000
0000
,
0000
0000
0000
0000
,
0000
0000
0000
0000
,
2000
0000
0000
0000
,
0000
0000
3000
0000
,
0002
0000
0000
0000
,
0000
0000
0003
0000
,
1000
0000
1000
0000
,
0000
0000
0100
0000
,
0100
0000
0000
0000
,
0010
0000
0000
0000
,
0001
0000
0001
0000
,
0000
0000
0100
0000
,
0100
0000
0000
0000
,
0010
0000
0000
0000
,
1000
0000
0000
0000
,
0010
0000
0000
0000
,
1000
0000
1000
0000
,
1000
0000
0000
0000
,
0001
0000
0000
0000
,
0010
0000
0000
0000
,
0001
0000
0001
0000
,
0001
0000
0000
0000
,
1000
0000
1000
0000
,
0100
0000
0100
0000
,
2002
0000
3003
0000
,
0001
0000
1000
0000
,
0001
0000
0001
0000
,
0100
0000
0100
0000
,
2002
0000
3003
0000
,
1000
0000
0001
0000
,
0010
0000
0010
0000
,
0010
0000
0000
0000
,
0100
0000
0100
0000
,
0100
0000
0000
0000
,
1000
0000
0001
0000
,
0100
0000
0100
0000
,
2002
0000
3003
0000
,
1000
0000
0001
0000
,
1000
0000
0000
0000
,
1000
0000
0000
0000
,
0001
0000
0000
0000
,
0001
0000
0000
0000
,
0010
0000
0000
0000
,
0010
0000
0000
0000
,
0100
0000
0000
0000
,
0100
0000
0000
0000
,
1000
0000
0100
0000
,
1000
0000
0000
0000
,
0001
0000
0100
0000
,
0001
0000
0000
0000
,
1000
0000
0010
0000
,
1000
0000
0000
0000
,
0001
0000
0010
0000
,
0001
0000
0000
0000
,
0200
0000
0300
0000
,
0002
0000
0003
0000
,
2000
0000
3000
0000
,
0200
0000
0300
0000
,
0020
0000
0030
0000
,
0002
0000
0003
0000
,
2000
0000
3000
0000
,
0020
0000
0030
0000
;
