#VERSION:0.83;
#TITLE:Force of Ra;
#SUBTITLE:;
#ARTIST:Memme;
#TITLETRANSLIT:;
#SUBTITLETRANSLIT:;
#ARTISTTRANSLIT:;
#GENRE:Egyptian Hardcore;
#ORIGIN:;
#CREDIT:;
#BANNER:Force of Ra.png;
#BACKGROUND:Force of Ra-bg.png;
#PREVIEWVID:;
#JACKET:Force of Ra-jacket.png;
#CDIMAGE:;
#DISCIMAGE:;
#LYRICSPATH:;
#CDTITLE:cdtitle.png;
#MUSIC:Force of Ra.ogg;
#OFFSET:2.369376;
#SAMPLESTART:22.965958;
#SAMPLELENGTH:10.666666;
#SELECTABLE:YES;
#DISPLAYBPM:90.000000:180.000000;
#BPMS:0.000=180.000,
172.000=90.000,
185.750=360.000,
186.250=180.000;
#STOPS:186.250=0.167;
#DELAYS:;
#WARPS:;
#TIMESIGNATURES:0.000=4=4;
#TICKCOUNTS:0.000=4;
#COMBOS:0.000=1;
#SPEEDS:0.000=1.000=0.000=0;
#SCROLLS:0.000=1.000;
#FAKES:;
#LABELS:0.000=Song Start;
#BGCHANGES:3.250=Force of Ra.avi=1.000=1=0=0=StretchNoLoop==CrossFade==,
326.000=Force of Ra-bg.png=1.000=1=0=1===CrossFade==,
99999=-nosongbg-=1.000=0=0=0 // don't automatically add -songbackground-
;
#KEYSOUNDS:;
#ATTACKS:
;

//---------------dance-single - ----------------
#NOTEDATA:;
#CHARTNAME:;
#STEPSTYPE:dance-single;
#DESCRIPTION:;
#CHARTSTYLE:;
#DIFFICULTY:Challenge;
#METER:16;
#RADARVALUES:0.867136,1.005198,0.581447,0.484539,0.572637,689.000000,623.000000,66.000000,55.000000,28.000000,0.000000,0.000000,0.000000,0.000000,0.867136,1.005198,0.581447,0.484539,0.572637,689.000000,623.000000,66.000000,55.000000,28.000000,0.000000,0.000000,0.000000,0.000000;
#CREDIT:;
#OFFSET:2.369376;
#BPMS:0.000000=180.000000
,172.000000=90.000000
,185.750000=360.000000
,186.250000=180.000000
;
#STOPS:186.250000=0.166664
;
#DELAYS:;
#WARPS:;
#TIMESIGNATURES:0.000000=4=4
;
#TICKCOUNTS:0.000000=4
;
#COMBOS:0.000000=1
;
#SPEEDS:0.000000=1.000000=0.000000=0
;
#SCROLLS:0.000000=1.000000
;
#FAKES:;
#LABELS:0.000000=Song Start
;
#DISPLAYBPM:90.000000:180.000000;
#NOTES:
// measure 0
0000
0000
0000
0000
,  // measure 1
0000
0000
0000
0000
,  // measure 2
0000
0000
0000
0000
,  // measure 3
0000
0000
0000
0000
,  // measure 4
0000
0000
0000
0000
,  // measure 5
0000
0000
0000
0000
0000
0000
0000
0110
,  // measure 6
1002
1000
0100
0010
,  // measure 7
0010
0000
0100
0000
1003
0000
1000
1100
,  // measure 8
0022
0000
0000
0033
0000
0000
2002
0000
0000
3003
0000
0000
0202
0000
0000
0303
,  // measure 9
0000
0000
0220
0000
0000
0330
0000
0000
1010
0000
0000
0000
1001
0000
0000
0000
,  // measure 10
1200
0000
0000
0000
0000
0310
1001
MMMM
,  // measure 11
1020
0000
0001
0000
2030
0000
3010
1000
,  // measure 12
0100
0000
0010
0100
0010
0000
0100
0000
1000
0000
0001
0000
0100
0010
0100
0000
,  // measure 13
0001
0000
0010
0000
1000
0000
0010
0000
0001
0000
1000
0010
1000
0000
0001
0100
,  // measure 14
0001
0000
0100
0000
1000
0000
0001
0000
0010
0000
1000
0001
1000
0000
0100
0000
,  // measure 15
0120
0000
1000
0000
0032
0000
0013
0001
,  // measure 16
0100
1000
0200
0000
0301
1000
0100
0010
,  // measure 17
0001
0000
0100
0000
0010
0000
1000
0001
1000
0000
0001
1000
0001
0000
1000
0000
,  // measure 18
0100
0000
0100
0000
1000
0001
1000
0002
0000
0000
0103
0000
0110
0000
0000
0000
,  // measure 19
2001
0000
0000
0000
3001
0000
1000
0000
0020
0000
0000
1030
0010
MM00
0010
0001
,  // measure 20
1000
0000
1000
0001
0010
0000
0100
0000
0020
0000
0000
0000
0031
0000
0100
0000
,  // measure 21
0020
0000
1030
0010
0001
0010
1000
0200
,  // measure 22
0000
0000
0301
0100
0001
0000
0100
0000
1000
0000
0010
0000
0200
0000
0000
0000
,  // measure 23
0301
0000
1000
0100
1000
0000
0001
0000
1000
0000
0010
0100
0010
0000
0002
0000
,  // measure 24
0000
0000
1003
0000
0100
0000
0001
0000
0010
0100
0010
0000
0100
0000
2000
0000
,  // measure 25
0000
0000
3010
0100
0001
0000
0020
0000
0000
0000
0130
0010
0100
0000
0010
0000
,  // measure 26
0001
0000
0100
0000
1000
0000
0100
0000
0001
0000
0010
0100
1000
0000
0001
0000
,  // measure 27
1002
0000
0000
0000
1003
0000
0001
0000
0020
0000
0000
0031
0010
0M0M
0010
1000
,  // measure 28
0001
0000
0001
1000
0010
0000
0100
0000
0020
0000
0000
0000
1030
0000
0100
0000
,  // measure 29
0002
0000
1003
0010
0001
0100
1000
0200
,  // measure 30
0000
0000
0310
0100
0010
0000
0001
0000
0010
0000
1000
0000
0200
0000
0000
0000
,  // measure 31
1300
0000
0001
0100
0001
0000
1000
0000
0001
0000
0010
0100
0010
0000
2001
0000
,  // measure 32
0000
0000
3001
0100
0001
0000
1000
0000
0100
0010
0100
0000
1000
0000
0001
0000
,  // measure 33
1000
0000
0010
0100
0010
0000
0001
0000
0010
0100
0010
0000
1000
0000
0100
0010
,  // measure 34
0100
0001
0100
0110
1100
0000
1001
MMMM
,  // measure 35
0001
0100
0001
0010
1000
0010
0001
0100
,  // measure 36
1000
0100
0001
1000
0100
0001
0100
1000
,  // measure 37
0001
0100
0010
1000
0001
1000
0100
1000
,  // measure 38
0001
0000
1000
0001
1000
0001
1000
0000
1001
0000
0000
1010
0000
0000
0101
0000
,  // measure 39
1001
0000
1000
0100
0001
0100
1000
0010
,  // measure 40
0001
0010
1000
0001
0010
1000
0010
0001
,  // measure 41
0100
0000
0010
0000
1000
0000
0100
0000
0010
0000
0001
0000
1000
0000
0001
1000
,  // measure 42
0010
0000
0010
0000
1000
0000
0100
0010
0000
0010
0001
0000
0100
0010
1000
0000
,  // measure 43
1001
0000
0001
0100
0010
0000
1000
0001
0000
0001
1000
0000
0100
0000
0010
0000
,  // measure 44
0100
0000
1000
0010
0100
0000
0001
1000
0000
1000
0001
0000
0010
0001
0100
0001
,  // measure 45
1000
0000
0010
0100
0001
0000
1000
0100
0000
0100
0010
0000
0001
0000
0100
0010
,  // measure 46
0000
0010
1000
0000
0001
0000
1000
2002
0000
3003
1000
0000
0100
0000
0001
0000
,  // measure 47
0100
0000
1000
0010
1000
0000
2002
0000
0000
0000
3003
0000
1001
0000
0000
0000
,  // measure 48
1010
1001
1100
1001
,  // measure 49
1010
0101
1001
0011
,  // measure 50
1001
0101
1001
0011
,  // measure 51
1100
0000
1001
2002
3003
0110
0110
0000
,  // measure 52
1001
1010
0011
0101
,  // measure 53
1100
0000
1001
0000
0001
1000
0100
0001
,  // measure 54
1000
0000
0010
0000
0001
0000
0100
0000
0010
0000
1000
0010
1000
0001
1000
0100
,  // measure 55
0010
0000
0100
0000
0110
0000
MMMM
0000
2001
0000
0000
0000
3001
0000
0100
0010
,  // measure 56
1000
0000
0010
0100
0001
1000
0200
0000
0000
0000
0010
0000
0310
0000
0100
0010
,  // measure 57
0001
0000
0100
0010
1000
0000
0001
0010
0001
0000
0001
1000
0001
0000
0001
0100
,  // measure 58
0001
0000
0001
1000
0001
0000
1000
0100
0010
0001
0010
0100
1000
0000
0001
0100
,  // measure 59
0010
0000
0100
0010
1000
0000
1010
0000
1002
0000
0000
0000
1003
0000
0100
0010
,  // measure 60
0001
0000
1000
0010
0100
0001
0020
0000
0000
0000
0100
0000
0130
0000
0010
0001
,  // measure 61
0100
0000
0010
1000
0100
0000
1000
0001
1000
0000
1000
0010
1000
0000
1000
0001
,  // measure 62
1000
0000
1000
0100
1000
0000
1002
0000
0000
0000
0103
0000
1000
0000
0100
0000
,  // measure 63
0001
0010
0100
0000
0110
0000
MMMM
0000
1002
0000
0000
0000
1003
0000
0010
0100
,  // measure 64
0001
0000
0010
0100
1000
0001
0200
0000
0310
0000
0100
0000
0100
0000
0010
1000
,  // measure 65
0001
0000
0001
1000
0100
0000
1000
0010
1000
0000
1000
0001
1000
0000
1000
0100
,  // measure 66
1000
0000
1000
0001
1000
0000
0001
0100
0010
1000
0001
1000
0100
0000
0010
0100
,  // measure 67
1000
0000
0010
0100
0001
0000
1000
0000
2001
0000
0000
0000
3001
0000
0100
0010
,  // measure 68
1000
0000
0001
0010
0100
1000
0020
0000
0000
0000
0031
0000
0010
0000
1000
0100
,  // measure 69
0010
0000
0001
0100
0010
0000
1000
0000
0001
0000
1000
0100
0010
0001
1000
0000
,  // measure 70
0001
0100
0010
1000
0001
0000
0010
0001
0100
0010
1000
0000
0010
1000
0100
0010
,  // measure 71
0001
1000
0010
0000
0110
0000
MMMM
0000
1001
0000
0000
0000
1000
0000
0100
0000
,  // measure 72
0010
0100
0001
0100
0001
0100
0010
0100
,  // measure 73
1000
0010
0100
0001
1002
0000
0013
0001
,  // measure 74
1000
0000
0001
0000
0100
0000
1000
0000
0001
0000
0010
0000
1000
0010
1000
0010
,  // measure 75
1000
0001
1000
0001
1000
0100
1000
0100
0020
0000
0000
0000
0031
0000
0100
0001
,  // measure 76
0100
0000
0010
1000
0010
0000
0100
0001
0100
0000
0001
1000
0001
0000
1000
0100
,  // measure 77
1000
0000
0001
0100
0001
0100
0001
0000
1000
0100
0010
0001
1000
0000
0001
0100
,  // measure 78
0010
1000
0001
0000
0010
0001
0100
0010
1000
0000
0010
1000
0100
0010
0001
0000
,  // measure 79
0100
0010
1010
MMMM
0022
0000
0033
2200
,  // measure 80
0000
3300
0022
0000
0000
0000
0000
0000
,  // measure 81
0000
0000
0033
0000
;

//---------------dance-single - ----------------
#NOTEDATA:;
#CHARTNAME:;
#STEPSTYPE:dance-single;
#DESCRIPTION:;
#CHARTSTYLE:;
#DIFFICULTY:Hard;
#METER:13;
#RADARVALUES:0.680871,0.861598,0.713593,0.669545,0.079288,541.000000,460.000000,81.000000,76.000000,0.000000,0.000000,0.000000,0.000000,0.000000,0.680871,0.861598,0.713593,0.669545,0.079288,541.000000,460.000000,81.000000,76.000000,0.000000,0.000000,0.000000,0.000000,0.000000;
#CREDIT:;
#OFFSET:2.369376;
#BPMS:0.000000=180.000000
,172.000000=90.000000
,185.750000=360.000000
,186.250000=180.000000
;
#STOPS:186.250000=0.166664
;
#DELAYS:;
#WARPS:;
#TIMESIGNATURES:0.000000=4=4
;
#TICKCOUNTS:0.000000=4
;
#COMBOS:0.000000=1
;
#SPEEDS:0.000000=1.000000=0.000000=0
;
#SCROLLS:0.000000=1.000000
;
#FAKES:;
#LABELS:0.000000=Song Start
;
#DISPLAYBPM:90.000000:180.000000;
#NOTES:
// measure 0
0000
0000
0000
0000
,  // measure 1
0000
0000
0000
0000
,  // measure 2
0000
0000
0000
0000
,  // measure 3
0000
0000
0000
0000
,  // measure 4
0000
0000
0000
0000
,  // measure 5
0000
0000
0000
0000
0000
0000
0000
1001
,  // measure 6
2001
0001
0100
0010
,  // measure 7
0010
0000
0100
0000
3001
0000
1000
0100
,  // measure 8
0220
0000
0000
0330
0000
0000
0022
0000
0000
0033
0000
0000
2002
0000
0000
3003
,  // measure 9
0000
0000
2020
0000
0000
3030
0000
0000
0110
0000
0000
0000
0101
0000
0000
0000
,  // measure 10
2001
0000
0000
0000
0000
3100
1100
0000
,  // measure 11
2001
0000
3020
0000
0032
0000
0013
1000
,  // measure 12
0100
0010
0001
0100
1000
0100
0001
1000
,  // measure 13
0200
0010
0001
0010
,  // measure 14
1300
0100
0010
0001
1000
0010
0100
0001
,  // measure 15
2000
0000
3200
0000
0302
0000
0103
0010
,  // measure 16
0001
0100
2000
0000
3100
0001
0010
0001
,  // measure 17
0200
0000
1000
0000
0010
0000
0301
0100
,  // measure 18
0010
0000
1000
0000
0100
0000
0000
0020
0000
0000
0130
0000
0110
0000
0000
0000
,  // measure 19
1001
0000
1000
0010
0001
0000
0001
0010
,  // measure 20
1000
0000
1000
0100
0010
0000
0010
0100
,  // measure 21
2000
0000
3001
0100
0010
1000
0100
0020
,  // measure 22
0000
0130
0010
0001
0100
0010
1000
0000
,  // measure 23
1001
0000
1000
0001
0010
0100
0010
2000
,  // measure 24
0000
3010
0100
0010
0001
0100
0010
2000
,  // measure 25
0000
3100
0010
0002
0000
0103
0010
1000
,  // measure 26
0001
1000
0100
0001
0100
1000
0010
1000
,  // measure 27
1001
0000
0001
0010
1000
0000
1000
0010
,  // measure 28
0001
0000
0001
0100
0010
0000
0010
1000
,  // measure 29
0200
0000
0301
0100
1000
0010
0001
0020
,  // measure 30
0000
1030
0100
0001
0100
1000
0010
0000
,  // measure 31
1001
0000
0001
1000
0100
0010
0001
0012
,  // measure 32
0000
0103
1000
0100
0001
0010
0100
1000
,  // measure 33
2001
0000
3010
2010
0000
3001
1002
0000
,  // measure 34
0013
0012
0000
1003
1001
0000
0110
0000
,  // measure 35
2001
0000
3100
0020
0000
0031
1000
0010
,  // measure 36
0200
0000
0001
0000
0301
0100
1000
0100
,  // measure 37
0001
0010
0100
0002
0000
0103
0010
0001
,  // measure 38
0100
0000
0010
0000
1000
0000
0001
0000
0011
0000
0000
1100
0000
0000
1001
0000
,  // measure 39
1001
0000
0002
0000
0203
0000
0310
1000
,  // measure 40
0200
0000
0302
0000
0203
0000
0310
0001
,  // measure 41
1000
0010
0100
2000
0000
3100
0010
1000
,  // measure 42
0001
0000
0001
0000
1000
0000
0100
0010
0000
0100
0010
0000
0001
0000
1000
0000
,  // measure 43
1001
0000
0001
0100
0001
0000
1000
0100
0000
0100
1000
0000
0001
0000
0100
0000
,  // measure 44
0010
0000
1000
0001
1000
0000
0001
0010
0000
0010
0001
0000
1000
0001
0100
0001
,  // measure 45
1000
0000
0100
0010
0001
0000
0100
0010
0000
0010
1000
0000
0001
0000
0010
0100
,  // measure 46
0000
0010
0100
0000
1000
0000
0001
2002
0000
3003
1000
0000
0010
0000
0001
0000
,  // measure 47
0010
1000
0100
0220
0000
0330
0011
0000
,  // measure 48
1001
0101
1001
0011
,  // measure 49
1001
0101
1010
1001
,  // measure 50
1100
1001
1010
0110
,  // measure 51
0101
0000
0001
1002
0000
1003
1001
0000
,  // measure 52
1100
0101
0011
1010
,  // measure 53
1100
0000
0101
0000
0001
0010
1000
0010
,  // measure 54
0001
0100
1000
0100
0002
0000
0000
0000
,  // measure 55
0013
0100
0110
0000
1002
0000
0013
0001
,  // measure 56
1000
0001
0100
0120
0000
1030
0010
1000
,  // measure 57
0100
0001
0100
1000
0010
0100
0010
0001
,  // measure 58
0010
0100
0010
2010
0000
0001
3002
0000
,  // measure 59
0013
0001
0100
0010
2001
0000
3010
1000
,  // measure 60
0001
1000
0100
0120
0000
0031
0010
0001
,  // measure 61
0100
1000
0100
0001
0010
0100
0010
1000
,  // measure 62
0010
0100
0010
0012
0000
1000
2003
0000
,  // measure 63
3010
0100
0110
0000
2001
0000
3010
1000
,  // measure 64
0100
0001
0100
2000
0000
3010
0100
0001
,  // measure 65
1000
0100
0010
0001
0100
0010
0100
1000
,  // measure 66
0100
0010
0100
0001
0010
1000
0010
0001
,  // measure 67
0100
0010
1000
0001
1002
0000
0013
1000
,  // measure 68
0010
0001
0100
0120
0000
1030
0010
0001
,  // measure 69
0010
0100
0001
1000
1200
0000
0301
0201
,  // measure 70
0000
1300
1200
0000
0301
0201
0000
1300
,  // measure 71
1100
0011
1001
1000
,  // measure 72
0010
0100
0100
0010
,  // measure 73
1000
0000
0001
0010
0200
0000
1300
0000
,  // measure 74
0001
0000
1000
0020
0000
0130
0001
0010
,  // measure 75
1000
0010
0001
0100
0101
0000
1000
0010
,  // measure 76
1000
0001
1000
0100
0010
0001
1000
0001
,  // measure 77
0100
0001
1000
0100
0120
0000
0031
1002
,  // measure 78
0000
0103
0120
0000
1030
2001
0000
3100
,  // measure 79
1100
0000
0011
0000
2020
0000
3030
0202
,  // measure 80
0000
0303
2020
0000
0000
0000
0000
0000
,  // measure 81
0000
0000
3030
0000
;

//---------------dance-single - ----------------
#NOTEDATA:;
#CHARTNAME:;
#STEPSTYPE:dance-single;
#DESCRIPTION:;
#CHARTSTYLE:;
#DIFFICULTY:Medium;
#METER:10;
#RADARVALUES:0.531105,0.646199,0.643115,0.766452,0.013215,422.000000,349.000000,73.000000,87.000000,0.000000,0.000000,0.000000,0.000000,0.000000,0.531105,0.646199,0.643115,0.766452,0.013215,422.000000,349.000000,73.000000,87.000000,0.000000,0.000000,0.000000,0.000000,0.000000;
#CREDIT:;
#OFFSET:2.369376;
#BPMS:0.000000=180.000000
,172.000000=90.000000
,186.000000=180.000000
;
#STOPS:;
#DELAYS:;
#WARPS:;
#TIMESIGNATURES:0.000000=4=4
;
#TICKCOUNTS:0.000000=4
;
#COMBOS:0.000000=1
;
#SPEEDS:0.000000=1.000000=0.000000=0
;
#SCROLLS:0.000000=1.000000
,185.750000=2.000000
,186.000000=1.000000
;
#FAKES:;
#LABELS:0.000000=Song Start
;
#DISPLAYBPM:90.000000:180.000000;
#NOTES:
// measure 0
0000
0000
0000
0000
,  // measure 1
0000
0000
0000
0000
,  // measure 2
0000
0000
0000
0000
,  // measure 3
0000
0000
0000
0000
,  // measure 4
0000
0000
0000
0000
,  // measure 5
0000
0000
0000
0000
0000
0000
0000
1000
,  // measure 6
0002
0010
0010
1000
,  // measure 7
1000
0000
0100
0000
0103
0000
0001
2000
,  // measure 8
0200
0000
0000
3300
0000
0000
0022
0000
0000
0033
0000
0000
0202
0000
0000
0303
,  // measure 9
0000
0000
2020
0000
0000
3030
0000
0000
1001
0000
0000
0000
0110
0000
0000
0000
,  // measure 10
2002
0000
0000
0000
0000
3003
1001
0000
,  // measure 11
2000
0000
3200
0000
0320
0000
0000
0130
,  // measure 12
0010
0100
2000
0000
3010
1000
0010
1000
,  // measure 13
0002
0010
1000
0103
,  // measure 14
0001
0100
0010
1000
,  // measure 15
0002
0000
0023
0000
0230
0000
0000
0310
,  // measure 16
0100
0010
0002
0000
0103
0010
0100
0010
,  // measure 17
2000
0010
0001
3100
,  // measure 18
2002
0000
3003
0110
,  // measure 19
2001
0000
0000
3100
0010
0000
0010
0001
,  // measure 20
1000
0000
1000
0001
0100
0000
0100
0001
,  // measure 21
1000
0000
0100
0000
0010
0000
0100
2000
,  // measure 22
0000
3001
0100
0000
0010
0100
0001
0000
,  // measure 23
1000
0000
1000
0001
0010
0000
0100
0020
,  // measure 24
0000
0031
1000
0002
0000
0103
0010
0200
,  // measure 25
0000
0310
1000
0002
0000
0000
1003
0000
,  // measure 26
1001
0000
0000
0000
1000
0001
1000
0000
,  // measure 27
1002
0000
0000
0103
0010
0000
0010
1000
,  // measure 28
0001
0000
0001
1000
0100
0000
0100
0010
,  // measure 29
0001
0000
0100
0000
1000
0000
0100
0002
,  // measure 30
0000
0013
0100
0010
0100
0000
1000
0000
,  // measure 31
0001
0000
0001
1000
0010
0000
0100
0002
,  // measure 32
0000
1003
0100
2000
0000
3001
0100
0002
,  // measure 33
0200
0000
0000
0303
0000
0000
2020
0000
0000
3030
0000
0000
2200
0000
0000
3300
,  // measure 34
0000
0000
0022
0000
0000
0033
0000
0000
1001
0000
0000
0000
0110
0000
0000
0000
,  // measure 35
1001
0000
0001
0100
0000
0010
1000
0010
,  // measure 36
1000
0000
1000
0000
0001
1000
0100
0000
,  // measure 37
0010
0100
1000
0000
0001
0000
0001
0000
,  // measure 38
0100
0000
0010
0000
1000
0000
0000
0000
2002
0000
0000
0003
0000
0000
3000
0000
,  // measure 39
0001
0000
1000
0000
0100
0000
0100
1000
,  // measure 40
0001
0000
1000
0000
0010
0100
0010
0100
,  // measure 41
0001
0000
1000
0000
1000
0100
0010
0001
,  // measure 42
0200
0000
0000
0300
,  // measure 43
2001
0010
0010
0001
0001
0100
0100
3001
,  // measure 44
0002
0100
0100
1000
1000
0010
0010
1003
,  // measure 45
2000
0000
0100
0000
0100
0000
0001
0000
0001
0000
0010
0000
3010
0000
1000
0001
,  // measure 46
0000
0000
0001
0000
1000
0000
0000
0000
0100
0000
0000
0000
0000
0000
0220
0330
0000
0000
0000
0000
0000
0000
0000
0000
0001
0000
0000
0000
0000
0000
0000
0000
,  // measure 47
1000
0000
0002
2000
0000
3003
1001
0000
,  // measure 48
1010
1001
0011
1001
,  // measure 49
1010
0110
0101
1001
,  // measure 50
1100
1001
0101
1001
,  // measure 51
1100
0000
1000
0020
0000
0130
0001
0000
,  // measure 52
0011
1100
0011
1100
,  // measure 53
0011
0000
1001
0000
0001
0100
0001
0100
,  // measure 54
0010
1000
0010
1000
0002
0000
0000
0000
,  // measure 55
1003
0000
0110
0000
2001
0000
3001
0100
,  // measure 56
0001
0000
1000
0200
0000
1300
0001
0000
,  // measure 57
0001
0100
0001
0000
0011
0000
0110
0000
,  // measure 58
1100
0000
2000
0002
0000
0000
0000
0000
,  // measure 59
0000
3000
0003
1000
0002
0000
1003
0010
,  // measure 60
1000
0000
0001
0020
0000
0031
1000
0000
,  // measure 61
0010
0100
0010
0000
1010
0000
1001
0000
,  // measure 62
0011
0000
0002
2000
0000
0000
0000
0000
,  // measure 63
3003
0000
0110
0000
1002
0000
1003
0100
,  // measure 64
1000
0000
0010
0100
0000
0100
0001
0000
,  // measure 65
1000
0001
1000
0000
1100
0000
0110
0000
,  // measure 66
0011
0000
1001
0000
1000
0010
1000
0000
,  // measure 67
0001
0010
0001
0000
2001
0000
3001
0100
,  // measure 68
0001
0000
0010
0200
0000
1300
0001
0000
,  // measure 69
1000
0000
0010
0000
1000
0000
0000
0000
2002
0000
0000
3003
0000
0000
0202
0000
,  // measure 70
0000
0303
0000
0000
2002
0000
0000
3003
0000
0000
2200
0000
0000
3300
0000
0000
,  // measure 71
1001
0110
1001
0001
,  // measure 72
0100
0010
1000
0010
,  // measure 73
0100
0000
0001
1000
0200
0000
0310
0000
,  // measure 74
0010
0000
0001
2000
0000
3001
1000
0000
,  // measure 75
0010
0110
1001
1000
,  // measure 76
0100
0000
0010
0001
0000
0001
0100
0000
,  // measure 77
0010
0000
0000
0000
1000
0000
0000
0000
2020
0000
0000
3030
0000
0000
0202
0000
,  // measure 78
0000
0303
0000
0000
0022
0000
0000
0033
0000
0000
1200
0000
0000
0000
0310
0000
,  // measure 79
0001
0000
0000
0000
1001
0000
0000
0000
0202
0000
0000
0303
0000
0000
2020
0000
,  // measure 80
0000
3030
0000
0000
0202
0000
0000
0000
0000
0000
0000
0000
0000
0000
0000
0000
,  // measure 81
0000
0000
0303
0000
;

//---------------dance-single - ----------------
#NOTEDATA:;
#CHARTNAME:;
#STEPSTYPE:dance-single;
#DESCRIPTION:;
#CHARTSTYLE:;
#DIFFICULTY:Easy;
#METER:7;
#RADARVALUES:0.390148,0.502599,0.440490,0.572637,0.004405,310.000000,260.000000,50.000000,65.000000,0.000000,0.000000,0.000000,0.000000,0.000000,0.390148,0.502599,0.440490,0.572637,0.004405,310.000000,260.000000,50.000000,65.000000,0.000000,0.000000,0.000000,0.000000,0.000000;
#CREDIT:;
#OFFSET:2.369376;
#BPMS:0.000000=180.000000
,172.000000=90.000000
,186.000000=180.000000
;
#STOPS:;
#DELAYS:;
#WARPS:;
#TIMESIGNATURES:0.000000=4=4
;
#TICKCOUNTS:0.000000=4
;
#COMBOS:0.000000=1
;
#SPEEDS:0.000000=1.000000=0.000000=0
;
#SCROLLS:0.000000=1.000000
,185.750000=2.000000
,186.000000=1.000000
;
#FAKES:;
#LABELS:0.000000=Song Start
;
#DISPLAYBPM:90.000000:180.000000;
#NOTES:
// measure 0
0000
0000
0000
0000
,  // measure 1
0000
0000
0000
0000
,  // measure 2
0000
0000
0000
0000
,  // measure 3
0000
0000
0000
0000
,  // measure 4
0000
0000
0000
0000
,  // measure 5
0000
0000
0000
0000
,  // measure 6
1002
0100
1000
0010
,  // measure 7
0010
1000
0103
0001
,  // measure 8
0011
0000
0000
1001
0000
0000
1010
0000
,  // measure 9
0000
1001
0000
0000
0011
0000
0110
0000
,  // measure 10
2200
0000
3300
1001
,  // measure 11
0001
0100
0020
0000
,  // measure 12
0130
0001
1000
0100
,  // measure 13
0010
0002
0203
0320
,  // measure 14
2030
3100
0001
0100
,  // measure 15
1000
0010
0200
0000
,  // measure 16
0310
1000
0001
0010
,  // measure 17
0100
2000
3020
0230
,  // measure 18
0002
0000
0303
0110
,  // measure 19
2001
0000
3001
0001
,  // measure 20
0010
0001
1000
1000
,  // measure 21
0010
0000
1000
0000
0100
0000
0000
0020
,  // measure 22
0000
0130
1000
0010
,  // measure 23
0100
0000
0001
0000
0001
0000
0000
2000
,  // measure 24
0000
3001
0001
0010
,  // measure 25
0100
1000
2000
3001
,  // measure 26
1001
0000
0001
1000
,  // measure 27
1002
0000
1003
1000
,  // measure 28
0010
1000
0001
0001
,  // measure 29
0010
0000
0100
0000
1000
0000
0000
0020
,  // measure 30
0000
0130
0001
1000
,  // measure 31
0100
0000
0010
0000
0010
0000
0000
1002
,  // measure 32
0000
0100
0103
0001
,  // measure 33
1001
0000
0000
1010
0000
0000
1001
0000
,  // measure 34
0000
0011
0000
0000
1001
0000
0110
0000
,  // measure 35
1000
1000
0100
0100
,  // measure 36
0010
0001
0100
1000
,  // measure 37
0100
0100
0001
0001
,  // measure 38
1000
0100
0220
0330
,  // measure 39
0001
0001
0100
0100
,  // measure 40
1000
0100
0001
0010
,  // measure 41
0100
0100
1000
0001
,  // measure 42
2002
0000
0000
3003
,  // measure 43
0002
0023
2030
3020
,  // measure 44
0032
0203
2300
3200
,  // measure 45
0320
2030
3002
0023
,  // measure 46
0230
0000
0000
0000
0000
0000
0000
0000
2300
0000
0000
0000
0000
0000
0002
3003
0000
0000
0000
0000
0000
0000
0000
0000
0100
0000
0000
0000
0000
0000
0000
0000
,  // measure 47
0010
0000
0000
1002
0000
0000
1003
0000
,  // measure 48
0100
0010
0100
0001
,  // measure 49
0100
0010
0001
0100
,  // measure 50
0010
0100
1000
0100
,  // measure 51
0001
0000
0000
2001
0000
0000
3001
0000
,  // measure 52
0010
0100
0010
1000
,  // measure 53
0010
0001
1000
0010
,  // measure 54
0001
0010
2000
0000
,  // measure 55
3001
0011
2100
0001
,  // measure 56
3001
0000
0000
0102
0000
0000
1000
0000
,  // measure 57
1003
0000
0100
0000
0002
0003
0200
0300
,  // measure 58
2000
3000
0000
2020
0000
0000
0000
0000
,  // measure 59
0000
3030
0012
1000
,  // measure 60
1003
0000
0000
2010
0000
0000
0001
0000
,  // measure 61
3001
0000
0010
0000
2000
3000
0020
0030
,  // measure 62
0002
0003
0000
1002
0000
0000
0000
0000
,  // measure 63
0103
0110
2001
0100
,  // measure 64
3100
0010
0002
0100
,  // measure 65
0103
0000
0010
0000
0200
0300
2000
3000
,  // measure 66
0200
0300
0002
0003
0010
0000
0001
0000
,  // measure 67
1000
0010
1002
0010
,  // measure 68
0013
0000
0000
2001
0000
0000
0010
0000
,  // measure 69
3010
0000
1000
0000
1100
0000
0000
0011
,  // measure 70
0000
0000
0101
0000
0000
1010
0000
0000
,  // measure 71
1001
0110
1000
1000
,  // measure 72
0100
0010
0001
0010
,  // measure 73
0100
1000
0010
0100
,  // measure 74
0100
0001
1000
0100
,  // measure 75
0001
0100
1000
1000
,  // measure 76
0010
0100
0001
0010
,  // measure 77
0100
0000
1000
0000
1001
0000
0000
1100
,  // measure 78
0000
0000
0011
0000
0000
0101
0000
0000
,  // measure 79
1010
0000
0101
0000
1001
0000
0000
1001
,  // measure 80
0000
2002
0000
0000
,  // measure 81
0000
0000
3003
0000
;

//---------------dance-single - ----------------
#NOTEDATA:;
#CHARTNAME:;
#STEPSTYPE:dance-single;
#DESCRIPTION:;
#CHARTSTYLE:;
#DIFFICULTY:Beginner;
#METER:4;
#RADARVALUES:0.217728,0.374416,0.193816,0.185006,0.000000,173.000000,151.000000,22.000000,21.000000,0.000000,0.000000,0.000000,0.000000,0.000000,0.217728,0.374416,0.193816,0.185006,0.000000,173.000000,151.000000,22.000000,21.000000,0.000000,0.000000,0.000000,0.000000,0.000000;
#CREDIT:;
#OFFSET:2.369376;
#BPMS:0.000000=180.000000
;
#STOPS:;
#DELAYS:;
#WARPS:;
#TIMESIGNATURES:0.000000=4=4
;
#TICKCOUNTS:0.000000=4
;
#COMBOS:0.000000=1
;
#SPEEDS:0.000000=1.000000=0.000000=0
;
#SCROLLS:0.000000=1.000000
;
#FAKES:;
#LABELS:0.000000=Song Start
;
#DISPLAYBPM:90.000000:180.000000;
#NOTES:
// measure 0
0000
0000
0000
0000
,  // measure 1
0000
0000
0000
0000
,  // measure 2
0000
0000
0000
0000
,  // measure 3
0000
0000
0000
0000
,  // measure 4
0000
0000
0000
0000
,  // measure 5
0000
0000
0000
0000
,  // measure 6
2002
0000
0000
0000
,  // measure 7
0000
0000
3003
0000
,  // measure 8
2000
0000
0000
3000
0000
0000
0002
0000
,  // measure 9
0000
0003
0000
0000
0110
0000
0000
0000
,  // measure 10
2002
0000
3003
1000
,  // measure 11
1000
0000
0100
0000
,  // measure 12
0100
0000
1000
0000
,  // measure 13
0001
0000
0100
0000
,  // measure 14
0010
0000
1000
0000
,  // measure 15
0001
0000
0010
0000
,  // measure 16
0010
0000
0001
0000
,  // measure 17
1000
0000
0010
0000
,  // measure 18
1001
0000
0000
1000
,  // measure 19
1000
0000
0001
0001
,  // measure 20
0001
0000
1000
0000
,  // measure 21
0100
0000
0010
0000
,  // measure 22
0001
0000
1000
0000
,  // measure 23
0001
0001
0001
0000
,  // measure 24
0100
0100
0100
0000
,  // measure 25
0010
0000
1000
0000
,  // measure 26
1001
0000
0000
0001
,  // measure 27
0001
0000
1000
1000
,  // measure 28
1000
0000
0100
0000
,  // measure 29
0010
0000
0001
0000
,  // measure 30
0100
0000
0010
0000
,  // measure 31
1000
1000
1000
0000
,  // measure 32
0001
0001
0001
0000
,  // measure 33
0020
0000
0000
0030
0000
0000
0200
0000
,  // measure 34
0000
0300
0000
0000
1001
0000
1001
0000
,  // measure 35
1001
0000
1000
0000
,  // measure 36
0001
0000
0001
0000
,  // measure 37
0100
0000
0010
0000
,  // measure 38
1000
0000
0001
0000
,  // measure 39
1000
0000
1000
0000
,  // measure 40
0001
0000
0001
0000
,  // measure 41
0010
0000
0100
0000
,  // measure 42
2000
0000
0000
3000
,  // measure 43
0001
0000
0000
0000
,  // measure 44
0100
0000
0000
0000
,  // measure 45
0010
0000
0000
0000
,  // measure 46
1000
0000
0000
0000
,  // measure 47
0100
0000
0000
0000
,  // measure 48
0010
0000
0000
0000
,  // measure 49
0001
0000
0000
0000
,  // measure 50
0000
0000
0000
0000
,  // measure 51
1001
0000
1000
0000
,  // measure 52
0100
0000
0010
0000
,  // measure 53
0001
0000
0100
0000
,  // measure 54
0010
0000
1000
0000
,  // measure 55
1001
0000
0001
0000
,  // measure 56
0010
0000
0100
0000
,  // measure 57
1000
0000
0010
0000
,  // measure 58
1001
0000
0000
0000
,  // measure 59
0001
0001
0001
0000
,  // measure 60
0010
0000
0001
0000
,  // measure 61
0100
0100
0100
0000
,  // measure 62
2002
0000
3003
0000
,  // measure 63
1000
1000
1000
0000
,  // measure 64
0010
0000
1000
0000
,  // measure 65
0100
0100
0100
0000
,  // measure 66
2002
0000
3003
0000
,  // measure 67
0001
0001
0001
0000
,  // measure 68
0100
0000
0010
0000
,  // measure 69
1000
1000
1000
0000
,  // measure 70
0100
0000
0010
0000
,  // measure 71
0100
0100
0100
0000
,  // measure 72
1001
0000
0010
0000
,  // measure 73
2002
0000
0000
3003
0000
0000
2002
0000
,  // measure 74
0000
3003
0000
0000
1001
0000
1001
0000
,  // measure 75
1001
0000
1000
0000
,  // measure 76
0001
0000
0001
0000
,  // measure 77
0010
0000
0001
0000
,  // measure 78
0100
0000
0010
0000
,  // measure 79
1000
0000
1000
0000
,  // measure 80
0001
0000
0001
0000
,  // measure 81
0020
0000
0000
0030
0000
0000
0200
0000
,  // measure 82
0000
0300
0000
0000
1001
0000
1001
0000
,  // measure 83
2002
0000
0000
0000
,  // measure 84
0000
0000
0000
0000
,  // measure 85
3003
0000
0000
0000
;
