#VERSION:0.83;
#TITLE:FIGHT!;
#SUBTITLE:;
#ARTIST:aests;
#TITLETRANSLIT:;
#SUBTITLETRANSLIT:;
#ARTISTTRANSLIT:;
#GENRE:Future Funk;
#ORIGIN:;
#CREDIT:;
#BANNER:FIGHT!.png;
#BACKGROUND:FIGHT!-bg.png;
#PREVIEWVID:;
#JACKET:FIGHT!-jacket.png;
#CDIMAGE:;
#DISCIMAGE:;
#LYRICSPATH:;
#CDTITLE:cdtitle.png;
#MUSIC:FIGHT!.ogg;
#OFFSET:-0.047105;
#SAMPLESTART:34.050106;
#SAMPLELENGTH:16.000000;
#SELECTABLE:YES;
#BPMS:0.000=120.000;
#STOPS:90.000=0.500,
145.000=0.500,
425.000=0.500;
#DELAYS:;
#WARPS:0.000=8.000,
10.000=7.500,
20.000=8.500,
30.000=8.000,
40.000=8.000,
50.000=7.500,
60.000=8.500,
70.000=8.000,
82.000=8.000,
137.000=8.000,
210.750=8.000,
221.000=16.000,
239.000=15.500,
257.000=15.500,
274.000=16.000,
292.000=16.000,
310.000=15.500,
328.000=15.500,
345.000=16.000,
417.000=8.000,
461.438=16.000;
#TIMESIGNATURES:0.000=4=4;
#TICKCOUNTS:0.000=4;
#COMBOS:0.000=1;
#SPEEDS:0.000=1.000=0.000=0;
#SCROLLS:0.000=1.000,
8.000=0.000,
10.000=0.500,
11.000=1.000,
17.500=0.000,
20.000=0.500,
21.000=1.000,
28.500=0.000,
30.000=0.500,
31.000=1.000,
38.000=0.000,
40.000=0.500,
41.000=1.000,
48.000=0.000,
50.000=0.500,
51.000=1.000,
57.500=0.000,
60.000=0.500,
61.000=1.000,
68.500=0.000,
70.000=0.500,
71.000=1.000,
78.000=0.000,
79.000=0.500,
80.000=1.000,
90.000=0.500,
91.000=1.000,
145.000=0.500,
146.000=1.000,
208.000=0.000,
210.750=1.000,
218.750=0.000,
221.000=1.000,
237.000=0.000,
239.000=0.500,
240.000=1.000,
254.500=0.000,
257.000=0.500,
258.000=1.000,
272.500=0.000,
274.000=0.500,
275.000=1.000,
290.000=0.000,
292.000=0.500,
293.000=1.000,
308.000=0.000,
310.000=0.500,
311.000=1.000,
325.500=0.000,
328.000=0.500,
329.000=1.000,
343.500=0.000,
345.000=0.500,
346.000=1.000,
361.000=0.000,
362.000=0.500,
363.000=1.000,
425.000=0.500,
426.000=1.000,
457.875=0.000,
461.875=1.000;
#FAKES:;
#LABELS:0.000=Song Start;
#BGCHANGES:;
#KEYSOUNDS:;
#ATTACKS:
;

//---------------dance-single - ----------------
#NOTEDATA:;
#CHARTNAME:;
#STEPSTYPE:dance-single;
#DESCRIPTION:;
#CHARTSTYLE:;
#DIFFICULTY:Challenge;
#METER:12;
#RADARVALUES:0.490086,1.062187,0.204690,0.163752,0.642726,419.000000,394.000000,25.000000,20.000000,45.000000,0.000000,0.000000,0.000000,473.000000,0.490086,1.062187,0.204690,0.163752,0.642726,419.000000,394.000000,25.000000,20.000000,45.000000,0.000000,0.000000,0.000000,473.000000;
#CREDIT:;
#OFFSET:-0.047105;
#BPMS:0.000000=120.000000
;
#STOPS:90.000000=0.500000
,145.000000=0.500000
,425.000000=0.500000
;
#DELAYS:;
#WARPS:0.000000=8.000000
,10.000000=7.500000
,20.000000=8.500000
,30.000000=8.000000
,40.000000=8.000000
,50.000000=7.500000
,60.000000=8.500000
,70.000000=8.000000
,82.000000=8.000000
,137.000000=8.000000
,210.750000=8.000000
,221.000000=16.000000
,239.000000=15.500000
,257.000000=15.500000
,274.000000=16.000000
,292.000000=16.000000
,310.000000=15.500000
,328.000000=15.500000
,345.000000=16.000000
,417.000000=8.000000
,463.500000=16.000000
;
#TIMESIGNATURES:0.000000=4=4
;
#TICKCOUNTS:0.000000=4
;
#COMBOS:0.000000=1
;
#SPEEDS:0.000000=1.000000=0.000000=0
;
#SCROLLS:0.000000=1.000000
,8.000000=0.000000
,10.000000=0.500000
,11.000000=1.000000
,17.500000=0.000000
,20.000000=0.500000
,21.000000=1.000000
,28.500000=0.000000
,30.000000=0.500000
,31.000000=1.000000
,38.000000=0.000000
,40.000000=0.500000
,41.000000=1.000000
,48.000000=0.000000
,50.000000=0.500000
,51.000000=1.000000
,57.500000=0.000000
,60.000000=0.500000
,61.000000=1.000000
,68.500000=0.000000
,70.000000=0.500000
,71.000000=1.000000
,78.000000=0.000000
,79.000000=0.500000
,80.000000=1.000000
,90.000000=0.500000
,91.000000=1.000000
,145.000000=0.500000
,146.000000=1.000000
,208.000000=0.000000
,210.750000=1.000000
,218.750000=0.000000
,221.000000=1.000000
,237.000000=0.000000
,239.000000=0.500000
,240.000000=1.000000
,254.500000=0.000000
,257.000000=0.500000
,258.000000=1.000000
,272.500000=0.000000
,274.000000=0.500000
,275.000000=1.000000
,290.000000=0.000000
,292.000000=0.500000
,293.000000=1.000000
,308.000000=0.000000
,310.000000=0.500000
,311.000000=1.000000
,325.500000=0.000000
,328.000000=0.500000
,329.000000=1.000000
,343.500000=0.000000
,345.000000=0.500000
,346.000000=1.000000
,361.000000=0.000000
,362.000000=0.500000
,363.000000=1.000000
,425.000000=0.500000
,426.000000=1.000000
,457.875000=0.000000
,463.875000=1.000000
;
#FAKES:;
#LABELS:0.000000=Song Start
;
#ATTACKS:TIME=119.493896:LEN=5.000000:MODS=*0.62 stealth:TIME=119.493896:LEN=5.000000:MODS=*0.62 dark;
#NOTES:
0000
0000
0000
0000
,
0000
0000
0000
0000
,
0000
0000
0000
0000
0000
0000
1000
1000
,
1000
1000
1000
1000
0000
0000
0000
0000
0000
0000
0000
0000
0000
0000
0000
0000
,
0000
0000
0000
0000
,
0000
0000
0000
0000
1100
0000
1100
0000
1100
1100
1100
1100
0000
0000
0000
0000
,
0000
0000
0000
0000
,
0000
0000
0000
0000
0000
0000
1110
1110
,
1110
1110
1110
1110
0000
0000
0000
0000
0000
0000
0000
0000
0000
0000
0000
0000
,
0000
0000
0000
0000
,
0000
0000
0000
0000
1111
0000
1111
0000
1111
1111
1111
1111
0000
0000
0000
0000
,
0000
0000
0000
0000
,
0000
0000
0000
0000
0000
0000
0111
1111
,
0111
1111
0111
1111
0000
0000
0000
0000
0000
0000
0000
0000
0000
0000
0000
0000
,
0000
0000
0000
0000
,
0000
0000
0000
0000
0011
0000
1011
0000
0011
1011
0011
1011
0000
0000
0000
0000
,
0000
0000
0000
0000
,
0000
0000
0000
0000
0000
0000
0001
1001
,
0001
1001
0001
1001
0000
0000
0000
0000
0000
0000
0000
0000
0000
0000
0000
0000
,
0000
0000
0000
0000
,
0001
0000
1000
0000
0001
1000
0001
1000
0000
0000
0000
0000
0000
0000
0000
0000
,
0000
0000
0000
0000
,
0000
0000
0000
0000
0000
0000
0000
0000
0000
0000
0000
0000
0001
0000
0010
0001
,
0000
0001
0000
0100
0010
0000
1000
0000
0001
0000
0000
0000
1000
0000
0100
0010
,
0000
0010
0000
0100
1000
0000
0001
0000
0100
0000
0010
0000
0010
0000
0100
0001
,
0000
0001
0000
1000
0100
0000
0010
0000
0001
0000
0000
0000
1000
0000
0001
0100
,
0000
0100
0000
0001
1000
0000
0100
0000
0010
0000
0000
0000
0001
0000
1000
0010
,
0000
0010
0000
1000
0100
0000
0010
0000
0001
0000
0000
0000
1000
0000
0001
0100
,
0000
0100
0000
0001
1000
0000
0100
0000
0010
0001
0010
0001
1000
0000
0010
0100
,
0000
0100
0000
0010
1000
0000
0001
0000
0010
0000
0000
0000
0001
0000
0000
1000
,
0000
1000
0000
0000
0001
0000
0100
0000
0010
0100
0010
0100
0002
0000
0000
0000
,
0003
1000
0200
0000
0302
0000
0103
0010
,
0001
0100
0000
0100
0010
0000
0000
0000
1001
0000
0000
0000
1000
0000
0010
0000
,
1000
0000
0010
0002
0000
0000
0013
0000
1000
0000
0100
0000
0020
0000
0000
0000
,
0200
0330
0000
0000
,
0000
0000
0000
0000
,
0000
0000
0000
0000
0000
0000
0000
0000
1000
0000
0010
1000
0100
0000
0001
0000
,
0100
0000
1000
0000
0010
0000
0M00
0010
0001
0000
0100
0000
1000
0000
0100
0000
,
0001
0000
0001
0010
0100
0000
1000
0000
0001
0000
0010
0001
0100
0000
1000
0000
,
0100
0000
0001
0000
0010
0000
0M00
0010
1000
0000
0100
0000
0001
0000
0100
0000
,
1000
0000
1000
0100
0010
0000
0001
0000
1000
0000
0001
0100
0010
0000
0001
0000
,
0010
0000
1000
0000
0100
0000
00M0
0100
0001
0000
0010
0000
1000
0000
0010
0000
,
0001
0000
0001
0100
0010
0000
1000
0000
0001
0000
1000
0100
0010
0000
1000
0000
,
0010
0000
0001
0000
0100
0000
00M0
0100
1000
0000
0010
0000
0001
0000
0010
0000
,
1000
0000
1000
0100
0010
0001
0010
0001
1000
0000
M000
0000
1000
0000
M000
0000
,
1001
0000
M00M
0000
0110
0000
0000
0001
0100
0000
0M10
0000
1000
0000
M000
0000
,
1001
0000
M00M
0000
0110
0000
0000
1000
0001
0000
000M
0000
0001
0000
000M
0000
,
1001
0000
M00M
0000
0110
0000
0000
1000
0100
0000
0M10
0000
0001
0000
000M
0000
,
0001
0000
100M
0000
0001
1000
0001
1000
0001
0000
0010
0100
0001
0000
0100
0000
,
0010
0000
0001
0000
0100
0000
00M0
0100
1000
0000
0010
0000
0001
0000
0010
0000
,
1000
0000
1000
0100
0010
0000
0001
0000
1000
0000
0010
0100
1000
0000
0100
0000
,
0010
0000
1000
0000
0100
0000
00M0
0100
0001
0000
0010
0000
0100
0000
1000
0000
,
2002
0000
0000
3003
,
0000
0000
0000
0000
,
0000
0000
0000
0000
,
0000
0000
0000
0000
,
0000
0000
0000
0000
,
0000
0000
0000
0000
,
0000
0000
0000
0000
,
0000
0000
0000
0000
,
1000
0000
1000
0000
1000
1000
1000
1000
0000
0000
1000
0000
M000
0000
1000
0000
,
M000
0000
1000
0000
1000
1000
1000
1000
0000
0000
1000
0000
M000
1000
0000
1000
,
0000
0000
0000
0000
,
0000
0000
0000
0000
,
0000
0000
0000
0000
0000
0000
0000
0000
1100
0000
1100
0000
1100
1100
1100
1100
,
0000
0000
1100
0000
MM00
0000
1100
0000
MM00
0000
1100
0000
1100
1100
1100
1100
,
0000
0000
1100
0000
MM00
1100
0000
1100
0000
0000
0000
0000
0000
0000
0000
0000
,
0000
0000
0000
0000
,
0000
0000
0000
0000
0000
0000
1110
1110
,
1110
1110
1110
1110
0000
0000
1110
0000
MMM0
0000
1110
0000
MMM0
0000
1110
0000
,
1110
1110
1110
1110
0000
0000
1110
0000
MMM0
1110
0000
1110
0000
0000
0000
0000
,
0000
0000
0000
0000
,
0000
0000
0000
0000
,
0000
0000
0000
0000
1111
0000
1111
0000
1111
1111
1111
1111
0000
0000
1111
0000
,
MMMM
0000
1111
0000
MMMM
0000
1111
0000
1111
1111
1111
1111
0000
0000
1111
0000
,
MMMM
1111
0000
1111
0000
0000
0000
0000
0000
0000
0000
0000
0000
0000
0000
0000
,
0000
0000
0000
0000
,
0000
0000
0000
0000
0000
0000
1111
0111
,
1111
0111
0111
0111
0000
0000
0111
0000
0MMM
0000
1111
0000
MMMM
0000
1111
0000
,
0111
0111
0111
1111
0000
0000
0111
0000
0MMM
1111
0000
1111
0000
0000
0000
0000
,
0000
0000
0000
0000
,
0000
0000
0000
0000
,
0000
0000
0000
0000
1011
0000
0011
0000
1011
0011
0111
0011
0000
0000
0111
0000
,
0MMM
0000
1011
0000
M0MM
0000
1011
0000
0111
0011
0011
1011
0000
0000
0011
0000
,
00MM
1111
0000
1011
0000
0000
0000
0000
0000
0000
0000
0000
0000
0000
0000
0000
,
0000
0000
0000
0000
,
0000
0000
0000
0000
0000
0000
0000
0000
1001
0000
0011
0000
1001
0011
0101
0001
,
0000
0000
0111
0000
0MMM
0000
1001
0000
M00M
0000
1001
0000
0101
0011
0001
1001
,
0000
0000
0011
0000
00MM
1101
0000
1001
0000
0000
0000
0000
0000
0000
0000
0000
,
0000
0000
0000
0000
,
0000
0000
0000
0000
0000
0000
1000
0010
,
1000
0010
0100
0001
0000
0000
0110
0000
0MM0
0000
1001
0000
M00M
0000
1000
0000
,
0100
0010
0001
1000
0000
0000
0011
0000
00MM
1100
0000
1000
0001
0000
0100
0000
,
0001
0100
0010
1000
0000
0000
0110
0000
0MM0
0000
1001
0000
M002
0000
0000
0000
,
1003
0100
0010
0001
0000
0000
0110
0000
0MM0
1001
0000
0001
0100
0000
0010
0000
,
1000
0100
0010
0001
0000
0000
0101
0000
0M0M
0000
1100
0000
MM00
0000
1000
0000
,
0010
1000
0001
0010
0000
0000
1100
0000
MM00
0011
0000
0010
0100
0000
1000
0000
,
0001
0100
0010
1000
0000
0000
1100
0000
MM00
0000
0101
0000
020M
0000
0000
0000
,
0310
1000
0001
0010
0000
0000
1100
0000
0000
1001
0000
1000
0020
0000
0000
0000
,
0000
0230
0000
0302
,
0000
0000
0000
0000
2003
0000
0000
0000
3100
0010
0100
0010
0002
0000
0000
0000
,
0000
1003
0020
0000
0032
0000
1003
0100
,
0001
0010
0000
0010
0100
0000
0000
0000
1001
0000
0000
0000
0001
0000
0010
0000
,
0001
0000
0010
2000
0000
0000
3001
0000
0100
0000
1000
0000
0020
0000
0000
0000
,
0200
0330
0000
0000
,
0000
0000
0000
0000
,
0000
0000
0000
0000
0000
0000
0000
0000
0001
0000
1000
0010
0100
0000
1000
0000
,
0100
0000
0001
0000
0010
0000
0M00
0010
1000
0000
0100
0000
0001
0000
0100
0000
,
1000
0000
1000
0010
0100
0000
0001
0000
1000
0000
0001
0010
0100
0000
0001
0000
,
0100
0000
1000
0000
0010
0000
0M00
0010
0001
0000
0100
0000
1000
0000
0100
0000
,
0001
0000
0001
0010
0100
0000
1000
0000
0001
0000
0100
0001
0010
0000
1000
0000
,
0010
0000
0001
0000
0100
0000
00M0
0100
1000
0000
0010
0000
0001
0000
0010
0000
,
1000
0000
1000
0100
0010
0000
0001
0000
1000
0000
0100
1000
0010
0000
0001
0000
,
0010
0000
1000
0000
0100
0000
00M0
0100
0001
0000
0010
0000
1000
0000
0010
0000
,
0001
0000
0001
0100
0010
1000
0010
1000
0000
0000
0000
0000
0000
0000
0000
0000
,
0000
0000
0000
0000
,
0001
0000
000M
0000
0001
0000
000M
0000
1001
0000
M00M
0000
0110
0000
0000
1000
,
0100
0000
0M10
0000
0001
0000
000M
0000
1001
0000
M00M
0000
0110
0000
0000
0001
;

//---------------dance-single - ----------------
#NOTEDATA:;
#CHARTNAME:;
#STEPSTYPE:dance-single;
#DESCRIPTION:;
#CHARTSTYLE:;
#DIFFICULTY:Hard;
#METER:9;
#RADARVALUES:0.355576,0.771271,0.131002,0.155564,0.053219,304.000000,288.000000,16.000000,19.000000,10.000000,0.000000,0.000000,0.000000,293.000000,0.355576,0.771271,0.131002,0.155564,0.053219,304.000000,288.000000,16.000000,19.000000,10.000000,0.000000,0.000000,0.000000,293.000000;
#CREDIT:;
#OFFSET:-0.047105;
#BPMS:0.000000=120.000000
;
#STOPS:90.000000=0.500000
,145.000000=0.500000
,425.000000=0.500000
;
#DELAYS:;
#WARPS:0.000000=8.000000
,10.000000=7.500000
,20.000000=8.500000
,30.000000=8.000000
,40.000000=8.000000
,50.000000=7.500000
,60.000000=8.500000
,70.000000=8.000000
,82.000000=8.000000
,137.000000=8.000000
,210.750000=8.000000
,221.000000=16.000000
,239.000000=15.500000
,257.000000=15.500000
,274.000000=16.000000
,292.000000=16.000000
,310.000000=15.500000
,328.000000=15.500000
,345.000000=16.000000
,417.000000=8.000000
,463.500000=16.000000
;
#TIMESIGNATURES:0.000000=4=4
;
#TICKCOUNTS:0.000000=4
;
#COMBOS:0.000000=1
;
#SPEEDS:0.000000=1.000000=0.000000=0
;
#SCROLLS:0.000000=1.000000
,8.000000=0.000000
,10.000000=0.500000
,11.000000=1.000000
,17.500000=0.000000
,20.000000=0.500000
,21.000000=1.000000
,28.500000=0.000000
,30.000000=0.500000
,31.000000=1.000000
,38.000000=0.000000
,40.000000=0.500000
,41.000000=1.000000
,48.000000=0.000000
,50.000000=0.500000
,51.000000=1.000000
,57.500000=0.000000
,60.000000=0.500000
,61.000000=1.000000
,68.500000=0.000000
,70.000000=0.500000
,71.000000=1.000000
,78.000000=0.000000
,79.000000=0.500000
,80.000000=1.000000
,90.000000=0.500000
,91.000000=1.000000
,145.000000=0.500000
,146.000000=1.000000
,208.000000=0.000000
,210.750000=1.000000
,218.750000=0.000000
,221.000000=1.000000
,237.000000=0.000000
,239.000000=0.500000
,240.000000=1.000000
,254.500000=0.000000
,257.000000=0.500000
,258.000000=1.000000
,272.500000=0.000000
,274.000000=0.500000
,275.000000=1.000000
,290.000000=0.000000
,292.000000=0.500000
,293.000000=1.000000
,308.000000=0.000000
,310.000000=0.500000
,311.000000=1.000000
,325.500000=0.000000
,328.000000=0.500000
,329.000000=1.000000
,343.500000=0.000000
,345.000000=0.500000
,346.000000=1.000000
,361.000000=0.000000
,362.000000=0.500000
,363.000000=1.000000
,425.000000=0.500000
,426.000000=1.000000
,457.875000=0.000000
,463.875000=1.000000
;
#FAKES:;
#LABELS:0.000000=Song Start
;
#ATTACKS:TIME=119.499527:LEN=5.000000:MODS=*0.62 stealth:TIME=119.499527:LEN=5.000000:MODS=*0.62 dark;
#NOTES:
0000
0000
0000
0000
,
0000
0000
0000
0000
,
0000
0000
0000
0000
0000
0000
1000
1000
,
1000
1000
0000
0000
0000
0000
0000
0000
,
0000
0000
0000
0000
,
0000
0000
1100
1100
1100
1100
0000
0000
,
0000
0000
0000
0000
,
0000
0000
0000
0000
0000
0000
1110
1110
,
1110
1110
0000
0000
0000
0000
0000
0000
,
0000
0000
0000
0000
,
0000
0000
1111
1111
1111
1111
0000
0000
,
0000
0000
0000
0000
,
0000
0000
0000
0000
0000
0000
0111
0111
,
1111
0111
0000
0000
0000
0000
0000
0000
,
0000
0000
0000
0000
,
0000
0000
0011
0011
1011
0011
0000
0000
,
0000
0000
0000
0000
,
0000
0000
0000
0000
0000
0000
0001
0001
,
1001
0001
0000
0000
0000
0000
0000
0000
,
0000
0000
0000
0000
,
0001
0001
1000
0001
0000
0000
0000
0000
,
0000
0000
0000
0000
,
0000
0000
0000
0001
,
0001
0000
0010
0001
0100
0000
0010
0000
,
0010
0000
0100
0001
0010
0001
1000
0000
,
1000
0000
0010
1000
0100
0000
0010
0000
,
0010
0000
0100
1000
0010
0000
0100
0000
,
0100
0000
0010
1000
0100
0000
0010
0000
,
0010
0000
0100
1000
0001
0100
0010
0000
,
0010
0000
0100
0001
1000
0000
0001
0000
,
0001
0000
1000
0000
0100
0010
0002
0000
,
0003
0100
0020
0000
0230
0000
0301
0100
,
1000
0100
0001
0000
0101
0000
0100
0001
,
0010
0000
0000
0200
0000
0000
1300
0000
0010
0000
0100
0000
0002
0000
0000
0000
,
2000
3003
0000
0000
,
0000
0000
0000
0000
,
0000
0000
0000
0000
0001
1000
0001
1000
,
0010
1000
0100
00M0
0100
0001
0010
0001
,
0100
0000
0010
0000
1000
0001
1000
0001
,
0010
0001
0100
00M0
0100
1000
0010
1000
,
0100
0000
0010
0000
0001
0100
0001
1000
,
0100
1000
0010
0M00
0010
0001
0100
0001
,
0010
0000
0001
0000
1000
0100
1000
0001
,
0100
0001
0010
0M00
0010
1000
0100
1000
,
0010
0000
1000
1000
1000
0000
1000
0000
,
0110
0000
1001
0000
0001
0001
0001
0000
,
0110
1001
0100
0100
,
1001
0000
0110
0000
0001
0001
0001
0000
,
1000
1000
1000
0000
0001
0010
0001
1000
,
0010
1000
0100
00M0
0100
0001
0010
0001
,
0100
0000
0001
0000
1000
0010
1000
0001
,
0010
0001
0100
00M0
0100
1000
0010
0100
,
0002
0000
0000
0003
,
0000
0000
0000
0000
,
0000
0000
0000
0000
,
0000
0000
0000
0000
,
0000
0000
0000
0000
,
0000
0000
0000
0000
,
0000
0000
0000
0000
,
0000
0000
0000
0000
,
1000
1000
1000
1000
0000
1000
0000
1000
,
0000
0000
1000
0000
1000
0000
1000
0000
1000
0000
1000
0000
0000
1000
0000
0000
,
0000
0000
0000
0000
,
0000
0000
0000
0000
,
0000
0000
0000
0000
1100
1100
1100
1100
,
0000
1100
0000
1100
0000
1100
1100
1100
,
1100
0000
1100
0000
0000
1100
0000
0000
0000
0000
0000
0000
0000
0000
0000
0000
,
0000
0000
0000
0000
,
0000
0000
0000
0000
0000
0000
1110
1110
,
1110
1110
0000
1110
0000
1110
0000
1110
,
1110
0000
1110
0000
1110
0000
1110
0000
0000
1110
0000
0000
0000
0000
0000
0000
,
0000
0000
0000
0000
,
0000
0000
0000
0000
,
0000
0000
1111
1111
1111
1111
0000
1111
,
0000
1111
0000
1111
1111
1111
1111
1111
,
0000
1111
0000
0000
0000
0000
0000
0000
0000
0000
0000
0000
0000
0000
0000
0000
,
0000
0000
0000
0000
,
0000
0000
0000
0000
0000
0000
1111
0111
,
0111
0111
0000
1111
0000
0111
0000
1111
,
0111
0000
0111
0000
0111
0000
1111
0000
0000
0111
0000
0000
0000
0000
0000
0000
,
0000
0000
0000
0000
,
0000
0000
0000
0000
,
0000
0000
1011
0111
0011
0011
0000
1111
,
0000
0011
0000
1011
0111
0011
0011
1011
,
0000
0011
0000
0000
0000
0000
0000
0000
0000
0000
0000
0000
0000
0000
0000
0000
,
0000
0000
0000
0000
,
0000
0000
0000
0000
1001
0101
0011
0001
,
0000
1101
0000
0011
0000
1001
0101
0011
,
0001
0000
1001
0000
0000
0001
0000
0000
0000
0000
0000
0000
0000
0000
0000
0000
,
0000
0000
0000
0000
,
0000
0000
0000
0000
0000
0000
1000
0100
,
0010
0001
0000
1100
0000
0011
0000
1000
,
0100
0000
0010
0000
0001
0000
1000
0000
0000
0001
0000
0000
1000
0000
0010
0000
,
0100
0001
0000
1010
0000
0101
0002
0000
,
1003
0000
0010
0000
0100
0000
0001
0000
0000
1000
0000
0000
0001
0000
0010
0000
,
0001
0100
0000
1010
0000
0101
0000
1000
,
0010
0000
1000
0000
0100
0000
1000
0000
0000
0001
0000
0000
1000
0000
0010
0000
,
1000
0100
0000
0011
0000
1100
2000
0000
,
3001
0000
0100
0000
0010
0000
1000
0000
0000
1000
0000
0000
2000
0000
0000
0000
,
0000
3200
0000
0320
,
0000
0000
0032
0000
0103
0010
2000
0000
,
3000
0100
0020
0000
0230
0000
1300
0100
,
0001
0100
1000
0000
1100
0000
0100
1000
,
0010
0000
0000
0200
0000
0000
0301
0000
0010
0000
0100
0000
2000
0000
0000
0000
,
0002
3003
0000
0000
,
0000
0000
0000
0000
,
0000
0000
0000
0000
0010
0001
0100
1000
,
0100
0001
0010
0M00
0010
1000
0100
1000
,
0010
0000
0100
0000
0010
1000
0100
0001
,
0100
1000
0010
0M00
0010
0001
0100
0001
,
0010
0000
0001
0000
0100
0001
0010
1000
,
0010
0001
0100
00M0
0100
1000
0010
1000
,
0100
0000
0010
0000
0100
1000
0010
0001
,
0010
1000
0100
00M0
0100
0001
0010
0001
,
0100
0000
0001
0001
0000
0000
0000
0000
,
0000
0000
0000
0000
,
0001
0001
0110
1001
,
1000
1000
1000
0000
0110
0000
1001
0000
;

//---------------dance-single - ----------------
#NOTEDATA:;
#CHARTNAME:;
#STEPSTYPE:dance-single;
#DESCRIPTION:;
#CHARTSTYLE:;
#DIFFICULTY:Medium;
#METER:7;
#RADARVALUES:0.284226,0.625327,0.032750,0.163752,0.000000,243.000000,239.000000,4.000000,20.000000,0.000000,0.000000,0.000000,0.000000,257.000000,0.284226,0.625327,0.032750,0.163752,0.000000,243.000000,239.000000,4.000000,20.000000,0.000000,0.000000,0.000000,0.000000,257.000000;
#CREDIT:;
#OFFSET:-0.047105;
#BPMS:0.000000=120.000000
;
#STOPS:90.000000=0.500000
,145.000000=0.500000
,425.000000=0.500000
;
#DELAYS:;
#WARPS:0.000000=8.000000
,10.000000=7.500000
,20.000000=8.500000
,30.000000=8.000000
,40.000000=8.000000
,50.000000=7.500000
,60.000000=8.500000
,70.000000=8.000000
,82.000000=8.000000
,137.000000=8.000000
,210.750000=8.000000
,221.000000=16.000000
,239.000000=15.500000
,257.000000=15.500000
,274.000000=16.000000
,292.000000=16.000000
,310.000000=15.500000
,328.000000=15.500000
,345.000000=16.000000
,417.000000=8.000000
,463.500000=16.000000
;
#TIMESIGNATURES:0.000000=4=4
;
#TICKCOUNTS:0.000000=4
;
#COMBOS:0.000000=1
;
#SPEEDS:0.000000=1.000000=0.000000=0
;
#SCROLLS:0.000000=1.000000
,8.000000=0.000000
,10.000000=1.000000
,17.500000=0.000000
,20.000000=1.000000
,28.500000=0.000000
,30.000000=1.000000
,38.000000=0.000000
,40.000000=1.000000
,48.000000=0.000000
,50.000000=1.000000
,57.500000=0.000000
,60.000000=1.000000
,68.500000=0.000000
,70.000000=1.000000
,78.000000=0.000000
,79.000000=1.000000
,208.000000=0.000000
,210.750000=1.000000
,218.750000=0.000000
,221.000000=1.000000
,237.000000=0.000000
,239.000000=1.000000
,254.500000=0.000000
,257.000000=1.000000
,272.500000=0.000000
,274.000000=1.000000
,290.000000=0.000000
,292.000000=1.000000
,308.000000=0.000000
,310.000000=1.000000
,325.500000=0.000000
,328.000000=1.000000
,343.500000=0.000000
,345.000000=1.000000
,361.000000=0.000000
,362.000000=1.000000
,457.875000=0.000000
,463.875000=1.000000
;
#FAKES:;
#LABELS:0.000000=Song Start
;
#ATTACKS:TIME=119.500000:LEN=5.000000:MODS=*0.62 stealth:TIME=119.500000:LEN=5.000000:MODS=*0.62 dark;
#NOTES:
0000
0000
0000
0000
,
0000
0000
0000
0000
,
0000
0000
0000
0000
0000
0000
1000
1000
,
1000
1000
0000
0000
0000
0000
0000
0000
,
0000
0000
0000
0000
,
0000
0000
1100
1100
1100
1100
0000
0000
,
0000
0000
0000
0000
,
0000
0000
0000
0000
0000
0000
1110
1110
,
1110
1110
0000
0000
0000
0000
0000
0000
,
0000
0000
0000
0000
,
0000
0000
1111
1111
1111
1111
0000
0000
,
0000
0000
0000
0000
,
0000
0000
0000
0000
0000
0000
0111
1111
,
0111
1111
0000
0000
0000
0000
0000
0000
,
0000
0000
0000
0000
,
0000
0000
0011
1011
0011
1011
0000
0000
,
0000
0000
0000
0000
,
0000
0000
0000
0000
0000
0000
0001
1001
,
0001
1001
0000
0000
0000
0000
0000
0000
,
0000
0000
0000
0000
,
0001
1000
0001
1000
0000
0000
0000
0000
,
0000
0000
0000
0000
,
0000
0000
0000
0001
,
0010
0000
0001
0010
0001
0000
1000
0000
,
0010
0000
1000
0010
1000
0010
1000
0000
,
0100
0000
1000
0100
1000
0000
0001
0000
,
0100
0000
0001
0100
0001
0000
0010
0000
,
0100
0000
0010
0100
0010
0000
0001
0000
,
1000
0000
0001
1000
0001
1000
0010
0000
,
0100
0000
0010
0100
0010
0000
1000
0000
,
0100
0010
0001
0002
,
0000
0003
0200
0000
0320
0000
1030
0010
,
0100
0000
0001
0000
0001
0000
1000
0100
,
0010
0000
0002
0000
0103
0010
2000
0000
,
0002
3003
0000
0000
,
0000
0000
0000
0000
,
0000
0000
0001
0001
,
0010
0001
0100
0000
1000
0100
0001
0000
,
0010
0100
1000
1000
,
0010
1000
0100
0000
0001
0100
1000
0000
,
0010
0100
0010
0010
,
0100
0001
0010
0000
1000
0010
0001
0000
,
0100
0001
0010
0010
,
0100
1000
0010
0000
0001
0010
1000
0000
,
0100
0000
0010
0100
0010
0000
0010
0000
,
1001
0000
0000
0000
0001
1000
0001
0000
,
0110
0000
0100
0100
,
1001
0000
0000
0000
1000
0001
1000
0000
,
0001
1000
0001
0000
0010
0000
0010
0000
,
0100
1000
0010
0000
0001
0010
1000
0000
,
0100
1000
0010
0010
,
0100
0001
0010
0000
1000
0010
0001
0000
,
2002
0000
0000
3003
,
0000
0000
0000
0000
,
0000
0000
0000
0000
,
0000
0000
0000
0000
,
0000
0000
0000
0000
,
0000
0000
0000
0000
,
0000
0000
0000
0000
,
0000
0000
0000
0000
,
1000
0000
1000
0000
1000
1000
0000
1000
,
1000
0000
1000
1000
0000
1000
0000
1000
,
0000
0000
0000
0000
,
0000
0000
0000
0000
,
0000
0000
1100
1100
,
1100
1100
0000
1100
1100
0000
1100
1100
,
0000
1100
0000
1100
0000
0000
0000
0000
,
0000
0000
0000
0000
,
0000
0000
0000
1110
,
1110
0000
1110
1110
0000
1110
1110
0000
,
1110
1110
0000
1110
0000
1110
0000
0000
,
0000
0000
0000
0000
,
0000
0000
0000
0000
,
0000
0000
1111
0000
1111
0000
1111
1111
,
0000
1111
1111
0000
1111
1111
0000
1111
,
0000
1111
0000
0000
0000
0000
0000
0000
,
0000
0000
0000
0000
,
0000
0000
0000
1111
,
0111
0000
1111
0111
0000
0111
1111
0000
,
0111
0111
0000
0111
0000
0111
0000
0000
,
0000
0000
0000
0000
,
0000
0000
0000
0000
,
0000
0000
1011
0000
0011
0000
1011
0111
,
0000
0111
1011
0000
0011
0111
0000
0111
,
0000
0111
0000
0000
0000
0000
0000
0000
,
0000
0000
0000
0000
,
0000
0000
1001
0001
,
1001
0100
0001
0100
1001
0000
0001
0101
,
0000
0101
0000
0101
0000
0000
0000
0000
,
0000
0000
0000
0000
,
0000
0000
0000
1000
,
0001
0000
1000
0100
0000
0100
1000
0000
,
0001
0100
0000
0100
0000
0100
0001
0000
,
1000
0000
0001
0010
0000
0001
2000
0000
,
3001
0010
0000
0010
0000
0010
0001
0000
,
1000
0000
0001
0100
0000
0100
0001
0000
,
1000
0100
0000
0100
0000
0100
1000
0000
,
0001
0000
1000
0010
0000
1000
0002
0000
,
1003
0100
0000
0100
0000
0100
2000
0000
,
0000
3200
0000
0320
,
0000
0032
1003
2000
,
0000
0000
3200
0000
0320
0000
0031
0100
,
0010
0000
1000
0000
1000
0000
0001
0010
,
0100
0000
2000
0000
3010
0100
0002
0000
,
2000
3003
0000
0000
,
0000
0000
0000
0000
,
0000
0000
0001
0001
,
1000
0100
0001
0000
0001
0010
1000
0000
,
0001
0001
1000
1000
,
0001
0100
1000
0000
1000
0010
0001
0000
,
1000
1000
0001
0001
,
1000
0010
0001
0000
0001
0100
1000
0000
,
0001
0001
1000
1000
,
0001
0010
1000
0000
1000
0100
0001
0000
,
1000
0000
1000
0001
0000
0000
0000
0000
,
0000
0000
0000
0000
,
1000
1000
0110
0000
,
0001
1000
0001
0000
0110
0000
0000
0000
;

//---------------dance-single - ----------------
#NOTEDATA:;
#CHARTNAME:;
#STEPSTYPE:dance-single;
#DESCRIPTION:;
#CHARTSTYLE:;
#DIFFICULTY:Easy;
#METER:4;
#RADARVALUES:0.182466,0.432919,0.008188,0.131002,0.000000,156.000000,155.000000,1.000000,16.000000,0.000000,0.000000,0.000000,0.000000,146.000000,0.182466,0.432919,0.008188,0.131002,0.000000,156.000000,155.000000,1.000000,16.000000,0.000000,0.000000,0.000000,0.000000,146.000000;
#CREDIT:;
#OFFSET:-0.047105;
#BPMS:0.000000=120.000000
;
#STOPS:90.000000=0.500000
,145.000000=0.500000
,425.000000=0.500000
;
#DELAYS:;
#WARPS:0.000000=8.000000
,10.000000=7.500000
,20.000000=8.500000
,30.000000=8.000000
,40.000000=8.000000
,50.000000=7.500000
,60.000000=8.500000
,70.000000=8.000000
,82.000000=8.000000
,137.000000=8.000000
,210.750000=8.000000
,221.000000=16.000000
,239.000000=15.500000
,257.000000=15.500000
,274.000000=16.000000
,292.000000=16.000000
,310.000000=15.500000
,328.000000=15.500000
,345.000000=16.000000
,417.000000=8.000000
,463.500000=16.000000
;
#TIMESIGNATURES:0.000000=4=4
;
#TICKCOUNTS:0.000000=4
;
#COMBOS:0.000000=1
;
#SPEEDS:0.000000=1.000000=0.000000=0
;
#SCROLLS:0.000000=1.000000
,8.000000=0.000000
,10.000000=1.000000
,17.500000=0.000000
,20.000000=1.000000
,28.500000=0.000000
,30.000000=1.000000
,38.000000=0.000000
,40.000000=1.000000
,48.000000=0.000000
,50.000000=1.000000
,57.500000=0.000000
,60.000000=1.000000
,68.500000=0.000000
,70.000000=1.000000
,78.000000=0.000000
,79.000000=1.000000
,208.000000=0.000000
,210.750000=1.000000
,218.750000=0.000000
,221.000000=1.000000
,237.000000=0.000000
,239.000000=1.000000
,254.500000=0.000000
,257.000000=1.000000
,272.500000=0.000000
,274.000000=1.000000
,290.000000=0.000000
,292.000000=1.000000
,308.000000=0.000000
,310.000000=1.000000
,325.500000=0.000000
,328.000000=1.000000
,343.500000=0.000000
,345.000000=1.000000
,361.000000=0.000000
,362.000000=1.000000
,457.875000=0.000000
,463.875000=1.000000
;
#FAKES:;
#LABELS:0.000000=Song Start
;
#ATTACKS:TIME=119.500000:LEN=5.000000:MODS=*0.62 stealth:TIME=119.500000:LEN=5.000000:MODS=*0.62 dark;
#NOTES:
0000
0000
0000
0000
,
0000
0000
0000
0000
,
0000
0000
0000
1000
,
1000
0000
0000
0000
,
0000
0000
0000
0000
,
0000
1100
1100
0000
,
0000
0000
0000
0000
,
0000
0000
0000
1110
,
1110
0000
0000
0000
,
0000
0000
0000
0000
,
0000
1111
1111
0000
,
0000
0000
0000
0000
,
0000
0000
0000
0111
,
2111
3000
0000
0000
,
0000
0000
0000
0000
,
0000
0011
2011
3000
,
0000
0000
0000
0000
,
0000
0000
0000
0001
,
2001
3000
0000
0000
,
0000
0000
0000
0000
,
0002
2003
3000
0000
,
0000
0000
0000
0000
,
0000
0000
0000
0001
,
0010
0001
0000
1000
,
0010
1000
0000
0001
,
0100
0001
0000
1000
,
0100
1000
0000
0010
,
0100
0001
0000
0010
,
0100
1000
0001
0001
,
0100
0010
0000
0100
,
0010
1000
0000
0002
,
0000
0023
0000
0130
,
1000
0001
0000
0001
,
0001
0100
0010
2000
,
0002
3003
0000
0000
,
0000
0000
0000
0000
,
0000
0000
1000
1000
,
1000
0000
0001
0010
,
0100
1000
0001
0001
,
0001
0000
1000
0010
,
0100
0001
1000
1000
,
1000
0000
0100
0010
,
0001
1000
0001
0001
,
0001
0000
0100
0010
,
1000
0001
1000
1000
,
0010
0000
1000
0001
,
0010
0000
0001
0001
,
0100
0000
0001
1000
,
0100
0100
1000
1000
,
1000
0000
0010
1000
,
0100
0010
0001
0001
,
0001
0000
0100
0010
,
2002
0000
0000
3003
,
0000
0000
0000
0000
,
0000
0000
0000
0000
,
0000
0000
0000
0000
,
0000
0000
0000
0000
,
0000
0000
0000
0000
,
0000
0000
0000
0000
,
0000
0000
0000
0000
,
1000
1000
1000
0000
,
1000
1000
1000
0000
,
0000
0000
0000
0000
,
0000
0000
0000
0000
,
0000
0000
1100
1100
,
1100
0000
1100
1100
,
1100
0000
0000
0000
,
0000
0000
0000
0000
,
0000
0000
0000
1110
,
1110
1110
0000
1110
,
1110
1110
0000
0000
,
0000
0000
0000
0000
,
0000
0000
0000
0000
,
0000
1111
1111
1111
,
0000
1111
1111
1111
,
0000
0000
0000
0000
,
0000
0000
0000
0000
,
0000
0000
0000
1111
,
0111
0111
0000
0111
,
0111
0111
0000
0000
,
0000
0000
0000
0000
,
0000
0000
0000
0000
,
0000
1011
0011
0111
,
0000
0011
0111
0011
,
0000
0000
0000
0000
,
0000
0000
0000
0000
,
0000
0000
1001
0011
,
0101
0000
0011
0101
,
0001
0000
0000
0000
,
0000
0000
0000
0000
,
0000
0000
0000
1000
,
0010
0100
0000
0010
,
0100
0001
0000
0001
,
0010
0100
0000
0020
,
0030
0100
0000
0010
,
0001
0100
0000
0010
,
1000
0100
0000
0010
,
0100
1000
0000
0002
,
0003
0100
0000
0002
,
0000
0000
0000
2003
,
0000
0000
0000
3002
,
0000
0203
0000
0310
,
1000
0001
0000
0001
,
0001
0010
0100
2000
,
0002
3003
0000
0000
,
0000
0000
0000
0000
,
0000
0000
1000
1000
,
1000
0000
0010
1000
,
0100
1000
0001
0001
,
0001
0000
0010
0001
,
0100
0001
1000
1000
,
1000
0000
0100
0010
,
0100
1000
0001
0001
,
0001
0000
0100
0010
,
1000
0001
0000
0000
,
0000
0000
0000
0000
,
1000
1000
0010
0000
,
1000
0001
0010
0000
;

//---------------dance-single - ----------------
#NOTEDATA:;
#CHARTNAME:;
#STEPSTYPE:dance-single;
#DESCRIPTION:;
#CHARTSTYLE:;
#DIFFICULTY:Beginner;
#METER:1;
#RADARVALUES:0.079537,0.121279,0.008188,0.081876,0.000000,68.000000,67.000000,1.000000,10.000000,0.000000,0.000000,0.000000,0.000000,0.000000,0.079537,0.121279,0.008188,0.081876,0.000000,68.000000,67.000000,1.000000,10.000000,0.000000,0.000000,0.000000,0.000000,0.000000;
#CREDIT:;
#OFFSET:-0.047105;
#BPMS:0.000000=120.000000
;
#STOPS:;
#DELAYS:;
#WARPS:;
#TIMESIGNATURES:0.000000=4=4
;
#TICKCOUNTS:0.000000=4
;
#COMBOS:0.000000=1
;
#SPEEDS:0.000000=1.000000=0.000000=0
;
#SCROLLS:0.000000=1.000000
;
#FAKES:;
#LABELS:0.000000=Song Start
;
#NOTES:
0000
0000
0000
0000
,
0000
0000
0000
0000
,
0000
0000
0000
0000
,
0000
0000
0000
0000
,
1001
0000
0000
0000
,
0001
0000
0000
0000
,
1000
0000
0000
0000
,
0100
0000
0000
0000
,
0010
0000
0000
0000
,
0001
0000
0000
0000
,
0100
0000
0000
0000
,
0010
0000
0000
0000
,
1000
0000
0000
0000
,
0002
0000
0003
0000
,
0020
0000
0030
0000
,
0200
0000
0300
0000
,
2000
0000
3000
0000
,
0001
0000
0001
0000
,
1000
0000
1000
0000
,
0001
0000
0001
0000
,
1000
0000
1000
0000
,
0010
0000
0010
0000
,
0100
0000
0100
0000
,
0010
0000
0010
0000
,
0100
0000
0100
0000
,
0010
0000
0000
0000
,
1000
0000
0000
0000
,
0001
0000
0000
0000
,
0010
0000
0000
0000
,
0100
0000
0000
0000
,
1000
0000
0000
0000
,
0001
0000
0000
0000
,
0100
0000
0000
0000
,
0000
0000
0000
0000
,
0000
0000
0000
0000
,
0000
0000
0000
0000
,
0000
0000
0000
0000
,
0000
0000
0000
1000
,
0000
0000
0000
0010
,
0000
0000
0000
0100
,
0000
0000
0000
0002
,
0003
0000
0000
0010
,
0000
0000
0000
0100
,
0000
0000
0000
1000
,
0000
0000
0000
0002
,
0003
0000
0000
0100
,
0000
0000
0000
0010
,
0000
0000
0000
2000
,
0000
3000
0000
0200
,
0000
0300
0000
0020
,
0000
0030
0000
0002
,
0000
0003
0000
1000
,
0000
1000
0000
0001
,
0000
0001
0000
1000
,
0000
1000
0000
0001
,
0000
0001
0000
0010
,
0000
0010
0000
0100
,
0000
0100
0000
0010
,
0000
0010
0000
0100
,
0000
0100
0000
0000
;
