#VERSION:0.83;
#TITLE:Elektrick U-Phoria;
#SUBTITLE:;
#ARTIST:DJ Noriken;
#TITLETRANSLIT:;
#SUBTITLETRANSLIT:;
#ARTISTTRANSLIT:;
#GENRE:UK Hardcore;
#ORIGIN:;
#CREDIT:;
#BANNER:Elektrick U-Phoria.png;
#BACKGROUND:Elektrick U-Phoria-bg.png;
#PREVIEWVID:;
#JACKET:Elektrick U-Phoria-jacket.png;
#CDIMAGE:;
#DISCIMAGE:;
#LYRICSPATH:;
#CDTITLE:cdtitle.png;
#MUSIC:Elektrick U-Phoria.ogg;
#OFFSET:-0.114150;
#SAMPLESTART:86.782814;
#SAMPLELENGTH:10.666672;
#SELECTABLE:YES;
#BPMS:0.000=180.000;
#STOPS:;
#DELAYS:;
#WARPS:;
#TIMESIGNATURES:0.000=4=4;
#TICKCOUNTS:0.000=4;
#COMBOS:0.000=1;
#SPEEDS:0.000=1.000=0.000=0;
#SCROLLS:0.000=1.000;
#FAKES:;
#LABELS:0.000=Song Start;
#BGCHANGES:;
#KEYSOUNDS:;
#ATTACKS:
;

//---------------dance-single - ----------------
#NOTEDATA:;
#CHARTNAME:;
#STEPSTYPE:dance-single;
#DESCRIPTION:;
#CHARTSTYLE:;
#DIFFICULTY:Challenge;
#METER:16;
#RADARVALUES:0.833358,0.955330,0.437926,0.330510,0.722991,706.000000,653.000000,53.000000,40.000000,0.000000,0.000000,0.000000,0.000000,0.000000,0.833358,0.955330,0.437926,0.330510,0.722991,706.000000,653.000000,53.000000,40.000000,0.000000,0.000000,0.000000,0.000000,0.000000;
#CREDIT:;
#NOTES:
// measure 0
0000
0000
0000
0000
,  // measure 1
0000
0000
0000
0000
,  // measure 2
0000
0000
0000
0000
,  // measure 3
0000
0000
0000
0000
,  // measure 4
0000
0000
0000
0000
,  // measure 5
1100
1100
0011
0011
,  // measure 6
0101
0101
1010
1010
,  // measure 7
0010
0000
1000
0000
0100
0000
0010
0000
0001
1000
0001
1000
0100
0010
0100
0010
,  // measure 8
0200
0000
0000
0300
,  // measure 9
0022
0000
0033
2002
0000
3003
0202
0000
,  // measure 10
0303
0220
0000
0000
0000
0000
0330
0000
,  // measure 11
0202
0000
0303
2200
0000
3300
0202
0000
,  // measure 12
0303
0000
0022
0000
0000
0000
0033
0000
0001
0010
0100
1000
0001
0100
0010
2000
,  // measure 13
0020
0000
3030
0220
0000
0330
0202
0000
,  // measure 14
0303
2002
0000
0000
0000
0000
3003
0000
,  // measure 15
2200
0000
3300
0202
0000
0303
0022
0000
,  // measure 16
0033
2020
0000
0000
0000
0000
3030
0000
,  // measure 17
0010
1000
0100
0000
0010
0001
0100
0000
,  // measure 18
1000
0100
0001
0000
1000
0100
0001
0000
,  // measure 19
0100
1000
0010
0000
0100
0001
0010
0000
,  // measure 20
1000
0000
0010
0000
0001
0000
0000
0000
1000
0010
0100
0001
1000
0100
0010
0001
,  // measure 21
1000
0010
1000
0010
0100
0001
0100
0001
,  // measure 22
1000
0100
1000
0100
0010
0001
0010
0001
,  // measure 23
1000
0000
1000
0000
0001
0000
0001
0000
1000
0001
1000
0001
0010
0100
0010
0100
,  // measure 24
2000
0002
0000
3003
,  // measure 25
1000
0000
0000
0100
0000
0000
0010
0000
0001
0000
0000
0100
0000
0000
0010
0000
,  // measure 26
1000
0000
0000
0001
0000
0000
0010
0000
0100
0000
0000
1000
0000
0000
0001
0000
,  // measure 27
1000
0000
0000
0100
0000
0000
0001
0000
0000
1000
0000
0000
0010
0000
0001
0000
,  // measure 28
0100
0000
0000
1000
0000
0000
0001
0000
0000
0010
0000
0000
1000
0000
0100
0000
,  // measure 29
0010
0000
0001
1000
0001
0000
0100
0000
0001
1000
0001
0000
1000
0000
0010
0000
,  // measure 30
1000
0000
0100
0010
0100
0000
0001
0000
0100
0010
0100
0000
1000
0000
0010
0000
,  // measure 31
1000
0000
1000
0000
0001
0000
0001
0000
1000
0010
1000
0010
0100
0001
0100
0001
,  // measure 32
1000
0000
1000
0000
0002
0000
0000
0000
1003
0100
1000
0100
0010
0001
1000
0000
,  // measure 33
0001
0100
0001
0000
1000
0100
0000
0100
1000
0000
0010
0100
0000
0100
0001
0000
,  // measure 34
1000
0010
1000
0000
0001
0100
0000
0100
0001
0000
1000
0100
0000
0100
0010
0001
,  // measure 35
1000
0100
1000
0000
0001
0100
0000
0100
0001
0000
1000
0010
0000
0010
0100
0000
,  // measure 36
0001
1000
0001
0000
1000
0100
0000
0100
0010
0001
0010
0001
1000
0010
0100
0001
,  // measure 37
1000
0010
1000
0000
0001
0100
0000
0100
0001
0000
0010
0100
0000
0100
1000
0000
,  // measure 38
0001
0010
0001
0000
1000
0010
0000
0010
1000
0000
0001
0010
0000
0010
0100
1000
,  // measure 39
0001
0010
0001
0000
1000
0010
0000
0010
1000
0000
0001
0010
0000
0010
0100
0000
,  // measure 40
1000
0000
0010
0000
0010
0000
0100
0000
0001
1000
0001
1000
0001
0010
0100
1000
,  // measure 41
0001
0000
0100
0010
0100
0000
0001
0000
0010
0100
0010
0000
0001
0000
1000
0000
,  // measure 42
0010
0000
1000
0100
1000
0000
0010
0000
0100
0001
0100
0000
0010
0000
1000
0000
,  // measure 43
0100
0000
0010
0001
0010
0000
0100
0000
1000
0010
1000
0000
0001
0000
0100
0000
,  // measure 44
1001
0000
0000
0000
0001
1000
0001
1000
0001
1000
0001
1000
0010
0100
0001
1000
,  // measure 45
0100
0000
0000
0010
0000
0000
0100
0000
1100
0000
0000
0000
1000
0100
0010
0001
,  // measure 46
1000
0000
0000
0010
0000
0000
0100
0000
0001
0000
0001
0000
1000
0000
1000
0000
,  // measure 47
1001
0000
0000
0000
0110
0000
0000
0000
0001
0000
1000
0000
0001
0010
0100
1000
,  // measure 48
0001
1000
0002
0000
1003
0000
1001
0000
,  // measure 49
1000
0000
0010
0000
0100
0100
0000
0010
,  // measure 50
0000
1000
0001
1000
0100
1000
0001
0100
,  // measure 51
0001
0000
0010
0000
0100
0100
0000
0010
,  // measure 52
0000
0000
0000
0001
0000
0000
0100
0000
0000
0010
0000
0000
1000
0000
0000
0100
0010
0100
0010
0000
0000
0001
0000
0000
,  // measure 53
1000
0000
0010
0000
0100
0100
0000
0001
,  // measure 54
0000
0010
0001
1000
0001
0100
0010
1000
,  // measure 55
0001
0000
0010
0000
0100
0100
0000
1100
,  // measure 56
0000
1000
0100
0001
0101
0000
1100
0000
,  // measure 57
1000
0000
0000
0010
0000
0000
1000
0000
0001
0000
0000
0010
0000
0000
0001
0000
,  // measure 58
1000
0000
0000
0100
0000
0000
0010
0000
0001
0000
0000
0100
0000
0000
0010
0000
,  // measure 59
1000
0000
0000
0100
0000
0000
0001
0000
0100
0000
0000
1000
0000
0000
0010
0000
,  // measure 60
0001
0000
0000
0010
0000
0000
1000
0000
0100
0000
0000
0010
0000
0000
0001
0000
,  // measure 61
1000
0000
0000
1000
0010
0000
0100
0000
0001
0000
0000
0001
0010
0000
0100
0000
,  // measure 62
1000
0000
0000
1000
0010
0000
0100
0000
0001
0000
0000
0001
0010
0000
0100
0000
,  // measure 63
1000
0000
1000
0000
0001
0000
0001
0000
1000
0100
1000
0100
0010
0001
0010
0001
,  // measure 64
1000
0000
0001
0000
2000
0000
0000
0000
3001
0000
0000
0000
0001
0100
0010
1000
,  // measure 65
0001
0000
0000
0101
0000
0000
0001
0000
0010
0000
0000
0011
0000
0001
0010
0100
,  // measure 66
1000
0000
0010
0000
1000
0010
0100
0001
0010
0000
0000
0110
0000
0000
0010
0000
,  // measure 67
0001
0000
0000
0101
0000
0000
1000
0000
0100
0000
0000
1100
0000
1000
0100
1000
,  // measure 68
0001
0000
0100
0000
0010
0000
1000
0000
0001
0000
0000
1001
0000
0001
0010
0100
,  // measure 69
1000
0000
0000
1100
0000
0000
1000
0000
0010
0000
0000
1010
0000
1000
0010
0100
,  // measure 70
0001
0000
0010
0000
0001
0010
0100
1000
0010
0000
0000
0110
0000
0000
0010
0000
,  // measure 71
1000
0000
0000
1100
0000
0000
0001
0000
0100
0000
0000
0101
0000
0001
0100
0001
,  // measure 72
1000
0000
0100
0000
0010
0100
0010
0100
1000
0001
1000
0001
1000
0100
0010
0001
,  // measure 73
0100
0000
0000
0000
1001
0000
0001
0000
0100
0000
0000
0110
0000
0010
1000
0100
,  // measure 74
0010
0000
0100
0000
0010
0001
0100
0010
1000
0000
0000
1001
0000
0000
0001
0000
,  // measure 75
0100
0000
0000
0110
0000
0000
1000
0000
0100
0000
0000
0110
0000
0010
0001
0100
,  // measure 76
0010
0000
1000
0000
0001
0000
0010
0000
0100
0000
0000
0110
0000
0100
1000
0001
,  // measure 77
0100
0000
0000
0010
0000
0000
0100
0000
0101
0000
0000
0000
0001
0100
0010
1000
,  // measure 78
0100
0000
0001
0000
0100
1000
0010
0100
0001
0000
0001
0000
1000
0000
1000
0000
,  // measure 79
1001
0000
0000
0000
0110
0000
0001
0000
1000
0000
0001
0000
1000
0100
0010
0001
,  // measure 80
1000
0000
0001
0000
1000
0000
0000
0000
0001
0100
0010
1000
0100
1000
0010
0100
,  // measure 81
0001
0010
0100
0010
0001
0010
0100
0010
,  // measure 82
0001
0100
0010
0100
0001
0100
0010
0100
,  // measure 83
0001
0010
0100
0010
0001
0010
0100
0010
,  // measure 84
0001
0100
0010
0100
0001
0010
0100
1000
,  // measure 85
1001
0010
0100
0010
1000
0010
0100
0010
,  // measure 86
1000
0100
0010
0100
1000
0100
0010
0100
,  // measure 87
1000
0010
0100
0010
1000
0010
0100
0001
,  // measure 88
2002
0000
0000
0000
3003
0000
0000
0000
1000
0100
0010
0001
1000
0010
0100
0001
;

//---------------dance-single - ----------------
#NOTEDATA:;
#CHARTNAME:;
#STEPSTYPE:dance-single;
#DESCRIPTION:;
#CHARTSTYLE:;
#DIFFICULTY:Hard;
#METER:13;
#RADARVALUES:0.630330,0.660917,0.437926,0.446189,0.252014,534.000000,481.000000,53.000000,54.000000,0.000000,0.000000,0.000000,0.000000,0.000000,0.630330,0.660917,0.437926,0.446189,0.252014,534.000000,481.000000,53.000000,54.000000,0.000000,0.000000,0.000000,0.000000,0.000000;
#CREDIT:;
#NOTES:
0000
0000
0000
0000
,
0000
0000
0000
0000
,
0000
0000
0000
0000
,
0000
0000
0000
0000
,
0000
0000
0000
0000
,
1010
1010
0101
0101
,
0011
0011
1100
1100
,
1000
0100
0010
0001
0100
1000
0100
0001
,
0020
0000
0000
0030
,
2002
0000
3003
2020
0000
3030
2002
0000
,
3003
0022
0000
0000
0000
0000
0033
0000
,
2002
0000
3003
2200
0000
3300
2002
0000
,
3003
0202
0000
0300
1003
0010
0100
0010
,
2002
0000
3003
0022
0000
0033
2002
0000
,
3003
2020
0000
0000
0000
0000
3030
0000
,
2200
0000
3300
0202
0000
0303
0022
0000
,
0033
2020
0000
0000
0000
0000
3030
0000
,
0001
0010
0100
0000
0100
0010
0001
0000
,
1000
0010
0100
0000
0100
0010
1000
0000
,
0100
1000
0010
0000
0010
1000
0100
0000
,
0010
0001
1000
0000
0001
0010
1000
0010
,
0001
0001
0101
0101
,
1000
1000
1100
1100
,
0001
1000
0001
1000
0100
0001
0100
1000
,
0020
0200
0000
0330
,
0001
0000
0000
0001
0000
0000
0100
0000
0001
0000
0000
1000
0000
0000
0100
0000
,
1000
0000
0000
1000
0000
0000
0100
0000
1000
0000
0000
0001
0000
0000
0100
0000
,
0010
0000
0000
0010
0000
0000
0010
0000
0000
0010
0000
0000
0100
0000
0001
0000
,
0010
0000
0000
0010
0000
0000
0010
0000
0000
0010
0000
0000
0100
0000
1000
0000
,
0010
0000
0000
0100
0000
0000
0010
0000
0100
0000
0001
0000
1000
0000
0001
0000
,
0010
0000
0000
0100
0000
0000
0010
0000
0100
0000
1000
0000
0001
0000
0100
0000
,
0010
1000
0010
1000
0100
0001
1000
0010
,
0001
0001
0001
0000
1001
0000
1001
0000
,
0001
0000
0100
0000
0010
0000
0100
0000
0001
0000
0000
0010
0000
0000
0001
0000
,
0100
0000
0010
0000
1000
0000
0100
0000
0010
0000
0000
0001
0000
0000
1000
0001
,
1000
0000
0100
0000
0010
0000
0100
0000
1000
0000
0000
0010
0000
0000
1000
0000
,
0001
0000
0100
0000
0010
0000
1000
0000
0100
0010
0100
0000
0010
0000
0000
0000
,
0001
0000
0010
0000
0100
0000
1000
0000
0010
0000
0000
0100
0000
0000
0010
0000
,
1000
0000
0100
0000
0001
0000
0100
0000
1000
0000
0000
0001
0000
0000
1000
0001
,
1000
0000
0010
0000
0100
0000
0001
0000
0010
0000
0000
0100
0000
0000
1000
0000
,
0000
1000
0010
0100
0101
0000
1100
0000
,
1001
0000
0000
0001
0100
0000
0010
0000
0100
0000
0010
0000
1000
0000
0001
0000
,
0010
0000
0000
0010
0100
0000
1000
0000
0100
0000
1000
0000
0010
0000
0100
0000
,
0001
0000
0000
0001
1000
0000
0010
0000
0100
0000
0010
0000
0100
0000
0001
0000
,
2002
0000
3003
0000
0001
0010
0100
1000
,
1001
0000
0000
0000
0010
0000
0000
0000
1001
0000
0000
0000
0001
1000
0001
1000
,
0001
0000
1000
0000
0001
0100
1000
0100
,
0001
0000
0000
0000
0011
0000
0000
0000
0010
0000
0100
0000
1000
0001
1000
0001
,
1000
0001
1000
0000
1001
0000
1001
0000
,
1000
0000
0010
0000
0100
0100
0000
0001
,
0000
1000
0001
1000
0100
1000
0001
0100
,
0001
0000
0010
0000
0100
0100
0000
1000
,
0000
0001
0100
0010
1000
0100
0010
0001
,
1000
0000
0010
0000
0100
0100
0000
0001
,
0000
1000
0001
0100
0001
1000
0100
1000
,
0001
0000
0100
0000
0010
0010
0000
1001
,
0000
1000
0100
0010
0110
0000
1001
0000
,
0001
0000
0000
0001
0000
0000
0100
0000
0010
0000
0000
0010
0000
0000
1000
0000
,
0001
0000
0000
0001
0000
0000
0010
0000
0100
0000
0000
0100
0000
0000
1000
0000
,
0001
0000
0000
0100
0000
0000
0001
0000
1000
0000
0000
0100
0000
0000
1000
0000
,
0001
0000
0000
0010
0000
0000
0001
0000
1000
0000
0000
0010
0000
0000
1000
0000
,
0001
0001
0011
0011
,
1000
1000
1010
1010
,
0001
1000
0001
1000
0100
0001
1000
0010
,
0001
0001
0001
0000
1001
0000
0001
0100
,
0010
0000
0000
1000
0000
0000
0100
0000
0010
0000
0000
0001
0000
0000
1000
0010
,
1000
0000
0100
0000
0010
0000
0001
0000
0100
0000
0000
1000
0000
0000
0100
0000
,
0001
0000
0000
0010
0000
0000
0001
0000
1000
0000
0000
0010
0000
0000
1000
0001
,
1000
0000
0100
0000
0010
0000
0001
0000
0100
0000
0000
0010
0000
0000
0100
0001
,
0100
0000
0000
0010
0000
0000
1000
0000
0100
0000
0000
0010
0000
0000
0001
0010
,
0001
0000
0100
0000
0010
0000
1000
0000
0100
0000
0000
0001
0000
0000
0100
0000
,
1000
0000
0000
0010
0000
0000
1000
0000
0001
0000
0000
0010
0000
0000
0001
1000
,
0001
1000
0010
0100
0001
0000
0022
0000
,
0033
0000
0000
0000
1001
0000
0001
0000
0100
0000
0000
0010
0000
0000
1000
0001
,
1000
0000
0100
0000
0001
0000
0100
0000
1000
0000
0000
0010
0000
0000
0100
0000
,
0001
0000
0000
0010
0000
0000
0100
0000
1000
0000
0000
0010
0000
0000
1000
0001
,
1000
0000
0010
0000
0001
0000
0010
0000
1000
0000
0000
0100
0000
0000
1000
0000
,
1001
0000
0000
0000
0010
0000
0000
0000
1001
0000
0000
0000
1000
0001
1000
0001
,
1000
0000
0001
0000
1000
0100
0001
0100
,
1000
0000
0000
0000
1010
0000
0000
0000
0010
0000
0100
0000
0001
1000
0001
1000
,
0001
1000
0001
0000
1000
0100
0010
0001
,
2000
3010
0020
0031
,
0002
0103
0200
1300
,
2000
3010
0020
0031
,
0002
0000
0103
0000
0100
1000
0010
1000
,
0200
0301
0002
0013
,
0020
1030
2000
3100
,
0200
0301
0002
0013
,
2020
0000
3030
0000
1000
0010
0001
1000
;

//---------------dance-single - ----------------
#NOTEDATA:;
#CHARTNAME:;
#STEPSTYPE:dance-single;
#DESCRIPTION:;
#CHARTSTYLE:;
#DIFFICULTY:Medium;
#METER:9;
#RADARVALUES:0.428483,0.624200,0.198306,0.206569,0.000000,363.000000,339.000000,24.000000,25.000000,0.000000,0.000000,0.000000,0.000000,0.000000,0.428483,0.624200,0.198306,0.206569,0.000000,363.000000,339.000000,24.000000,25.000000,0.000000,0.000000,0.000000,0.000000,0.000000;
#CREDIT:;
#NOTES:
0000
0000
0000
0000
,
0000
0000
0000
0000
,
0000
0000
0000
0000
,
0000
0000
0000
0000
,
0000
0000
0000
0000
,
1010
1010
0101
0101
,
0011
0011
1100
1100
,
1000
0100
0010
0001
1000
0001
1000
0000
,
1001
0000
0000
0000
,
1002
0000
0000
0010
0000
0000
1000
0000
,
0000
0200
0000
0000
0000
0000
0303
0000
,
0210
0000
0000
1000
0000
0000
0010
0000
,
0000
0001
0000
0000
0301
0100
0010
0000
,
2001
0000
0000
0010
0000
0000
0001
0000
,
0000
0200
0000
0000
0000
0000
3300
0000
,
0210
0000
0000
0001
0000
0000
1000
0000
,
0000
0020
0000
0000
0000
0000
0330
0000
,
1001
0001
0100
0100
,
0010
0010
1000
1000
,
0100
0100
0010
0010
,
0001
0000
0001
0000
0100
0010
0100
0010
,
1000
0001
1000
0001
,
0010
0100
0010
0100
,
1000
0001
1000
0001
1000
0010
0100
0001
,
0020
0200
0000
0030
,
1300
0000
0100
0000
,
0001
0000
0100
0000
,
1000
1000
0100
0000
,
0001
0001
0100
0000
,
1000
1000
0001
0001
,
1000
1000
0001
0001
,
1000
0001
1000
0001
1000
0100
0010
0001
,
2000
0000
0010
3010
,
1000
0000
0010
0000
0100
0000
0010
1000
,
0001
0000
0010
0000
0100
0000
1000
0001
,
0100
0000
0010
0000
1000
0000
0001
0010
,
0100
0000
0010
0000
0001
0100
0010
1000
,
0001
0000
0100
0000
0010
0000
1000
0100
,
0010
0000
0100
0000
1000
0000
0001
0100
,
0010
0000
1000
0000
0001
0000
0010
0100
,
0000
1000
0100
0010
0001
0000
1000
0000
,
0001
0000
0100
0000
0001
0000
0010
0001
,
1000
0000
0100
0000
1000
0000
0010
0100
,
0001
0000
0010
0000
0100
0000
1000
0010
,
0200
0000
0000
0000
0310
0000
1000
0001
,
0010
0000
0000
0000
1001
0000
0001
1000
,
0010
0000
0000
0000
1000
0100
0010
0100
,
1000
0000
0110
0000
0001
0100
0010
0100
,
0002
0000
0100
0103
,
0001
0000
1000
0000
0100
0000
0000
0010
,
0000
0100
1000
0001
,
0100
0000
0010
0000
1000
0000
0000
0001
,
0000
0010
1000
0010
,
0001
0000
0100
0000
0010
0000
0000
1000
,
0000
0001
0010
0100
,
1000
0000
0001
0000
0100
0000
0000
0110
,
0000
1000
0010
0100
0001
0000
1001
0000
,
2000
0100
0001
0001
,
3002
0010
1000
1003
,
0002
0100
1000
1000
,
2003
0010
0001
3100
,
1000
1000
0001
0001
,
0010
0010
0100
0100
,
1000
0001
1000
0001
1000
0100
0010
0001
,
2000
0000
0010
3010
,
1000
0000
0001
0010
0001
0000
0010
0100
,
0010
0001
1000
0000
0001
0000
0100
0000
,
0001
0000
1000
0010
1000
0000
0010
0100
,
0010
1000
0001
0000
0010
0000
0010
0000
,
0001
0000
1000
0100
1000
0000
0100
0010
,
0100
1000
0001
0000
0100
0000
0010
0000
,
1000
0000
0001
0100
0001
0000
0100
0010
,
0000
0100
0001
1000
0100
0000
0100
0000
,
0000
0000
1001
0000
0001
0000
0100
0010
,
1000
0001
0010
0000
0001
0000
0100
0000
,
0010
0000
1000
0001
0010
0000
0001
0010
,
0001
1000
0010
0000
0100
0000
0001
1000
,
0100
0000
0000
0000
1001
0000
1000
0001
,
0100
0000
0000
0000
0001
0100
0010
0100
,
0001
0000
0110
0000
1000
0100
0010
0100
,
2000
0000
0010
3010
,
1002
0000
0000
0003
,
0200
0000
0000
0300
,
0020
0000
0000
0030
,
2000
0000
0000
3001
,
1002
0000
0000
0003
,
0020
0000
0000
0030
,
0200
0000
0000
0300
,
1001
0000
0000
0000
1000
0001
1000
0001
;

//---------------dance-single - ----------------
#NOTEDATA:;
#CHARTNAME:;
#STEPSTYPE:dance-single;
#DESCRIPTION:;
#CHARTSTYLE:;
#DIFFICULTY:Easy;
#METER:6;
#RADARVALUES:0.316345,0.366660,0.371824,0.347036,0.000000,268.000000,223.000000,45.000000,42.000000,0.000000,0.000000,0.000000,0.000000,0.000000,0.316345,0.366660,0.371824,0.347036,0.000000,268.000000,223.000000,45.000000,42.000000,0.000000,0.000000,0.000000,0.000000,0.000000;
#CREDIT:;
#NOTES:
0000
0000
0000
0000
,
0000
0000
0000
0000
,
0000
0000
0000
0000
,
0000
0000
0000
0000
,
0000
0000
0000
0000
,
0001
0001
0100
0100
,
0010
0010
1000
1000
,
0001
0010
0100
1000
,
1001
0000
0000
0000
,
0011
0000
0000
0011
0000
0000
1100
0000
,
0000
2200
0000
0000
0000
0000
3300
0000
,
1010
0000
0000
1010
0000
0000
0101
0000
,
0000
0202
0000
0000
0000
0000
0303
0000
,
1001
0000
0000
0110
0000
0000
0110
0000
,
0000
2002
0000
0000
0000
0000
3003
0000
,
1100
0000
0000
1010
0000
0000
0101
0000
,
0000
0022
0000
0000
0000
0000
0033
0000
,
0001
0000
0100
0000
,
0010
0000
1000
0000
,
0001
0000
0010
0000
,
0100
0000
1000
0010
,
1000
1000
0001
0001
,
0010
0010
0100
0100
,
1000
0010
0100
0001
,
0020
0200
0000
0030
,
1300
0000
0100
0000
,
0010
0000
0001
0000
,
1000
1000
1000
0000
,
0001
0001
0001
0000
,
0100
0100
0010
0010
,
1000
1000
0001
0001
,
1000
0100
0010
0001
,
2002
0000
0000
3003
,
1000
0010
0100
0000
,
0010
1000
0100
0000
,
0010
0001
0100
0000
,
0010
0100
0001
0010
,
0001
1000
0010
0000
,
1000
0001
0010
0000
,
0100
1000
0001
0000
,
0100
0010
2002
3003
,
1000
0010
0010
0000
,
0100
0001
0001
0000
,
0010
0001
0001
0000
,
2002
3003
0001
0100
,
0110
0000
0010
0010
,
1001
0000
1000
0001
,
1000
0100
0010
0001
,
2002
0000
0000
3003
,
1000
0000
1000
0000
,
0010
0000
0010
1000
,
0001
0000
0001
0000
,
0010
0000
0100
1000
,
0001
0000
0001
0000
,
0100
0000
0100
0001
,
1000
0000
0000
0000
0100
0000
0000
0110
,
0000
0110
1001
0000
,
1000
0000
0010
0000
,
1000
0000
0001
0000
,
0010
0000
0001
0000
,
0100
0000
0010
0000
,
1000
1000
0001
0001
,
0010
0010
0100
0100
,
1000
0010
0100
0001
,
2002
0000
0000
3003
,
0102
0003
2100
3000
,
0010
1000
0100
0010
,
0012
0003
2010
3000
,
0010
1000
0001
0010
,
2100
3000
0102
0003
,
0010
0001
0100
0010
,
2010
3000
0012
0003
,
0100
0010
0200
0300
,
0000
0110
1001
0000
,
1000
0010
0001
0010
,
2020
3030
0202
0303
,
0001
0010
1000
0010
,
0011
0000
1000
0010
,
1010
0000
1000
0001
,
1000
0100
0010
0001
,
0100
0010
2002
3003
,
1002
0000
0000
0003
,
0200
0000
0000
0300
,
0020
0000
0000
0030
,
2000
0000
0000
3001
,
1002
0000
0000
0003
,
0020
0000
0000
0030
,
0200
0000
0000
0300
,
1001
0000
1000
0001
;

//---------------dance-single - ----------------
#NOTEDATA:;
#CHARTNAME:;
#STEPSTYPE:dance-single;
#DESCRIPTION:;
#CHARTSTYLE:;
#DIFFICULTY:Beginner;
#METER:3;
#RADARVALUES:0.184141,0.293328,0.148730,0.132204,0.000000,156.000000,138.000000,18.000000,16.000000,0.000000,0.000000,0.000000,0.000000,0.000000,0.184141,0.293328,0.148730,0.132204,0.000000,156.000000,138.000000,18.000000,16.000000,0.000000,0.000000,0.000000,0.000000,0.000000;
#CREDIT:;
#NOTES:
0000
0000
0000
0000
,
0000
0000
0000
0000
,
0000
0000
0000
0000
,
0000
0000
0000
0000
,
0000
0000
0000
0000
,
0001
0000
1000
0000
,
0001
0000
1000
0000
,
0001
0001
0001
0001
,
0001
0000
0000
0000
,
2002
0000
0000
0000
,
0000
0000
3003
0000
,
0220
0000
0000
0000
,
0000
0000
0330
0000
,
0220
0000
0000
0000
,
0000
0000
0330
0000
,
2002
0000
0000
0000
,
0000
0000
3003
0000
,
1000
0000
1000
0000
,
0010
0000
0010
0000
,
0100
0000
0100
0000
,
0001
0000
0001
0001
,
0001
0000
1000
0000
,
0001
0000
1000
0000
,
0001
0001
0001
0001
,
0001
0000
0000
0000
,
1000
0000
0000
0000
,
0100
0000
0000
0000
,
0010
0000
0000
0000
,
0001
0000
0000
0000
,
0100
0000
0010
0000
,
0100
0000
0010
0000
,
1000
1000
1000
0000
,
2002
0000
3003
0000
,
1000
0000
0010
0000
,
1000
0000
0001
0000
,
1000
0000
0010
0000
,
0100
0000
0001
0000
,
1000
0000
0001
0000
,
0010
0000
0001
0000
,
1000
0000
0100
0000
,
0010
0010
0010
0000
,
0001
0000
0001
0000
,
0100
0000
0100
0000
,
0010
0000
0010
0000
,
1000
0000
0001
0000
,
1001
0000
0000
0000
,
1001
0000
0000
0000
,
1001
0000
1001
0000
,
2002
0000
3003
0000
,
1000
0000
0000
0000
,
0010
0000
0000
0000
,
0100
0000
0000
0000
,
0001
0000
0000
0000
,
0010
0000
0000
0000
,
0100
0000
0000
0000
,
1000
0000
0000
0000
,
0001
0000
1000
0000
,
1001
0000
0001
0000
,
0100
0000
0100
0000
,
0010
0000
0010
0000
,
1000
0000
1000
0000
,
0001
0000
1000
0000
,
0001
0000
1000
0000
,
0001
0001
0001
0000
,
2002
0000
3003
0000
,
0001
0000
0100
0000
,
0010
0000
1000
0000
,
1000
0000
0100
0000
,
1000
0000
0010
0000
,
1000
0000
0100
0000
,
0010
0000
0001
0000
,
0001
0000
0100
0000
,
0001
0001
0001
0000
,
0000
1001
0000
1000
,
1000
0000
0010
0000
,
1000
0000
0100
0000
,
0010
0000
0001
0000
,
1001
0000
0000
0000
,
1001
0000
0000
0000
,
1001
0000
1001
0000
,
2002
0000
3003
0000
,
0001
0000
0000
0000
,
0100
0000
0000
0000
,
0010
0000
0000
0000
,
1000
0000
0000
0000
,
0001
0000
0000
0000
,
0010
0000
0000
0000
,
0100
0000
0000
0000
,
1000
0000
0001
0001
;
