#VERSION:0.83;
#TITLE:Einstein-Rosen Bridge;
#SUBTITLE:;
#ARTIST:Venetian Snares;
#TITLETRANSLIT:;
#SUBTITLETRANSLIT:;
#ARTISTTRANSLIT:;
#GENRE:Old Skool Jungle;
#ORIGIN:;
#CREDIT:;
#BANNER:Einstein-Rosen Bridge.png;
#BACKGROUND:Einstein-Rosen Bridge-bg.png;
#PREVIEWVID:;
#JACKET:Einstein-Rosen Bridge-jacket.png;
#CDIMAGE:;
#DISCIMAGE:;
#LYRICSPATH:;
#CDTITLE:cdtitle.png;
#MUSIC:Einstein-Rosen Bridge.ogg;
#OFFSET:-0.054919;
#SAMPLESTART:51.275433;
#SAMPLELENGTH:10.243900;
#SELECTABLE:YES;
#BPMS:0.000=164.000;
#STOPS:;
#DELAYS:;
#WARPS:;
#TIMESIGNATURES:0.000=4=4;
#TICKCOUNTS:0.000=4;
#COMBOS:0.000=1;
#SPEEDS:0.000=1.000=0.000=0;
#SCROLLS:0.000=1.000;
#FAKES:;
#LABELS:0.000=Song Start;
#BGCHANGES:;
#KEYSOUNDS:;
#ATTACKS:
;

//---------------dance-single - ----------------
#NOTEDATA:;
#CHARTNAME:;
#STEPSTYPE:dance-single;
#DESCRIPTION:;
#CHARTSTYLE:;
#DIFFICULTY:Challenge;
#METER:17;
#RADARVALUES:1.021084,0.984225,0.785090,0.163560,1.206258,874.000000,778.000000,96.000000,20.000000,24.000000,0.000000,3.000000,0.000000,0.000000,1.021084,0.984225,0.785090,0.163560,1.206258,874.000000,778.000000,96.000000,20.000000,24.000000,0.000000,3.000000,0.000000,0.000000;
#CREDIT:;
#NOTES:
0000
0000
0000
0000
,
0000
0000
0000
0000
,
0000
0000
0000
0000
,
0000
0000
0000
0000
0000
0000
0000
0000
0001
0000
0000
0001
0100
0000
0010
0000
,
0100
0000
0010
1000
0001
1000
0100
0000
0010
0000
0100
1000
0010
0100
0001
0000
,
0100
0000
0010
0000
1000
0000
0000
1000
0100
0000
0010
0000
0100
0000
0010
0001
,
1000
0001
0100
0000
0010
0000
0100
0001
1000
0100
1000
0001
0100
0001
1000
0100
,
0010
0000
0001
0100
0010
0000
0100
0000
1000
0100
0000
0001
0100
0000
0110
0000
,
2020
0000
3030
0000
0001
0000
0010
0001
0000
0001
0100
0000
0010
0000
1000
0100
,
0010
0000
0100
0000
0001
0100
0000
1000
0100
0000
0110
0000
0022
0000
0033
0000
,
0101
0000
0000
1010
0000
0000
0101
0000
1000
0000
0001
0010
0100
0000
1000
0010
,
0000
0100
0001
0010
0100
0000
1100
0000
2002
0000
3003
0000
0001
0000
0100
0010
,
0000
0010
0100
0000
0001
0000
1000
0010
0100
0000
0001
0000
0010
0100
1000
0001
,
0100
0000
0101
0000
2002
0000
3003
0000
1100
0000
0000
0011
0000
0000
1100
0000
,
0001
0000
0100
0001
0010
0000
1000
0000
0010
0001
0000
0001
0100
0000
0110
0000
,
2010
0000
3001
0000
1000
0100
0010
0001
0100
0010
1000
0000
0001
0000
0010
0001
,
0100
0000
0010
1000
0100
0010
0000
0010
0001
0000
0100
0010
0000
0100
0010
0000
,
1010
0000
0000
1001
0000
0000
0011
0000
1000
0000
0100
1000
0010
0000
0001
0010
,
0000
1000
0100
0010
0100
0000
0110
0000
0012
0000
1003
0000
0001
0100
0010
1000
,
0100
0010
0001
0000
1000
0000
0010
1000
0100
0000
0010
0001
0100
0010
0000
0010
,
1000
0000
0100
0010
0000
0100
0010
0000
0011
0000
0000
1100
0000
0000
0011
0000
,
1001
0000
0000
0001
0100
0000
0000
0100
1000
0000
0000
1000
0100
0000
0000
0100
,
0001
0000
0000
0001
0010
0000
0001
0000
0010
0000
0100
0000
1100
0000
0000
0011
,
0000
0000
1100
0000
0011
0000
0000
1000
0010
0000
0000
0010
1000
0000
0000
1000
,
0100
0000
0001
0000
0100
0000
0001
0100
0010
0000
0000
0010
0001
0000
1000
0010
,
0100
0001
0000
0010
0100
0000
0110
0000
1000
0100
0000
0001
0100
0000
1000
0010
,
0100
1000
0100
0010
1000
0000
0000
1000
0100
0000
0010
0001
0100
0010
0000
0010
,
1000
0000
0001
0010
0000
0001
0010
0000
1100
0000
0000
0011
0000
0000
1001
0000
,
1001
0000
0000
1010
0000
0000
0101
0000
1010
0000
0000
0001
0010
0000
0000
0010
,
1000
0000
0000
1000
0010
0000
0001
0000
0100
0000
0001
0000
0011
0000
0000
1100
,
0000
0000
0011
0000
1100
0000
0000
0001
0100
0000
0000
0100
1000
0000
0000
1000
,
0100
0000
0001
0000
0010
0001
0100
0010
1000
0000
0000
1000
0100
0000
0010
0100
,
1000
0001
0000
0100
0010
0000
0110
0000
0001
0100
0000
1000
0100
0000
0001
0010
,
0100
0001
0100
0010
0001
0000
0000
0100
0010
0000
1000
0100
0010
0001
0000
0001
,
0100
0000
0010
1000
0000
0010
1000
0000
0101
0000
0000
1010
0000
0000
1001
0000
,
1000
0100
1000
0000
0010
0000
00M0
0000
0001
0100
0001
0000
0010
0000
00M0
1000
,
0100
0000
0010
0000
0001
0100
0010
1000
0001
0000
0100
0000
0110
0000
0000
1010
,
0000
0000
1001
0000
0011
0000
0000
1000
0100
0000
0000
0100
0001
0000
0000
0001
,
0100
0000
0010
0100
1000
0001
1000
0010
0100
0001
0010
0000
1000
0000
M000
0000
,
0100
1000
0010
0000
0001
0000
000M
0000
0100
0001
0010
0000
0100
1000
0010
0100
,
0001
0000
0010
0000
0011
0000
0000
1100
0000
0000
1010
0000
0101
0000
0000
1000
,
0010
0000
0000
0010
0001
0000
0000
0001
0010
0100
0010
1000
0100
0010
0001
1000
,
0001
0100
0001
0000
0010
0000
00M0
0000
1000
0100
1000
0000
0010
0000
00M0
0001
,
0100
0000
0010
0000
1000
0100
0010
0001
1000
0000
0100
0000
0110
0000
0000
0011
,
0000
0000
1001
0000
1010
0000
0000
0001
0100
0000
0000
0100
1000
0000
0000
1000
,
0100
0000
0010
0100
0001
1000
0001
0010
0100
1000
0010
0000
0001
0000
000M
0000
,
0100
0001
0010
0000
1000
0000
M000
0000
0100
1000
0010
0000
0100
0001
0010
0100
,
1000
0000
0010
0000
1010
0000
0000
0101
0000
0000
0011
0000
1100
0000
0000
0001
,
0010
0000
0000
0010
1000
0000
0000
1000
0010
0001
1000
0001
0200
0000
0300
0000
,
0110
0000
0000
0000
0100
0010
0100
0010
1000
0001
0010
0001
1000
0010
1000
0000
,
0100
0010
0000
0010
0001
0000
1000
0010
0100
0001
0010
0100
2000
0000
0000
0000
,
3001
0100
0000
1M0M
0010
1000
0100
1000
0100
1000
0001
1000
0000
1000
0010
0100
,
0010
0100
0010
1000
0000
1000
0001
1000
0200
0000
0300
0000
1000
0100
0000
MM01
,
0010
0100
0010
0100
1000
0001
1000
0010
0100
0001
0010
0100
1000
0010
0100
1000
,
0100
0010
1000
0001
2000
0000
0000
0000
3001
0010
0000
10MM
0100
1000
0001
1000
,
0001
0000
0000
1000
0000
0000
0010
0000
0000
1000
0000
0000
0000
0000
0000
1000
0000
0000
0010
0000
0000
0100
0000
0000
0002
0000
0000
0000
0000
0000
0023
0000
0000
0000
0000
0000
0030
0000
0000
0000
0000
0000
0001
0000
0010
0000
0001
0000
,
0020
0000
0030
0000
0001
0100
0000
1M0M
0010
1000
0100
0000
0010
0000
0010
0011
,
0000
0000
1100
0000
1000
0010
0100
0010
0001
0010
0100
0010
2000
0000
3000
0000
,
0001
0010
0000
10MM
0100
1000
0010
0000
0100
0001
0000
0001
1000
0010
0100
0001
,
0010
0100
0001
0100
0010
0001
0100
0010
2000
0000
3000
0000
0001
0100
0000
1M0M
,
0010
1000
0001
0000
0020
0000
0130
1000
0000
1001
0000
1000
0010
1000
0001
0010
,
0001
1000
0010
1000
1001
0000
0000
1001
0000
0000
1001
0000
0000
1001
0000
1000
,
0001
0000
0010
0001
0010
1000
0010
0000
0001
0100
0010
1000
0100
0010
0001
1000
,
0001
0100
0001
0000
0010
0000
00M0
1000
0100
0000
1000
0000
0010
0000
00M0
0001
,
0100
0000
0001
0000
0010
0100
1000
0010
0100
0000
0001
0000
0110
0000
0000
1010
,
0000
0000
1001
0000
0011
0000
0000
1000
0100
0000
0000
0100
0010
0001
0010
0001
,
0100
0000
0010
1000
0010
1000
0100
0000
0010
0001
0100
0000
1000
0000
M000
0010
,
1000
0000
0100
0000
0001
0000
000M
0000
0010
0001
0100
0000
1000
0000
0100
0001
,
0010
0000
0100
0000
1100
0000
0000
0011
0000
0000
0101
0000
1010
0000
0000
1000
,
0001
0000
0000
0000
0001
0010
0001
0010
0100
1000
0100
1000
0001
0100
0010
1000
,
0001
0010
0001
0000
0010
0000
0011
0000
1000
0010
1000
0000
0010
0000
1010
0000
,
0001
0000
0010
0000
0100
1000
0010
1000
0100
0000
0010
0000
0110
0000
0000
0011
,
0000
0000
1001
0000
1010
0000
0000
0100
0001
0000
1000
0100
0010
0000
0001
0100
,
0001
0100
0010
0000
1000
0100
1000
0100
0010
0001
0010
0000
0011
0000
0000
0100
,
1000
0000
0010
0000
1010
0000
0000
0100
0001
0000
0010
0000
0100
1000
0010
0100
,
0001
0010
1001
0000
0000
0000
0000
0000
,
0010
0000
0000
0000
1000
0000
0000
0000
0010
0000
0000
0000
1000
0000
0000
0000
0040
0000
0000
0000
4000
0000
0000
0000
0000
0000
0000
0000
0000
0000
0000
0000
0000
0000
0000
0000
0000
0000
0000
0000
0000
0000
0000
0000
0000
0000
0000
0030
0004
0000
0000
0000
0000
0000
0000
0000
0000
0000
0000
0000
0000
0000
0000
3003
,
1001
0000
0000
0000
1010
0000
0010
0000
0110
0000
0100
0000
0001
0100
0010
1000
,
0100
0100
0100
1001
,
0011
0000
0000
0000
0000
0000
0010
0000
0000
0000
0000
0000
0110
0000
0000
0000
0000
0000
0100
0000
0000
0000
0000
0000
1000
0000
0000
0010
0000
0000
0100
0000
0000
0001
0000
0000
1000
0000
0000
0000
0000
0000
0100
0000
0010
0000
0100
0000
,
0010
0000
0000
0001
1000
0001
1000
0000
0000
0010
0100
0010
0100
0000
0000
0000
0000
0000
0010
0000
0000
1000
0000
0000
,
0000
0000
1000
0000
0100
0010
0100
0000
1001
0000
0000
0000
1001
0000
0000
0000
,
1001
0000
0110
0000
0001
0100
0000
0010
,
0010
0000
0000
0000
;

//---------------dance-single - ----------------
#NOTEDATA:;
#CHARTNAME:;
#STEPSTYPE:dance-single;
#DESCRIPTION:;
#CHARTSTYLE:;
#DIFFICULTY:Hard;
#METER:15;
#RADARVALUES:0.852851,0.814531,0.776912,0.188094,0.817802,730.000000,635.000000,95.000000,23.000000,0.000000,0.000000,0.000000,0.000000,0.000000,0.852851,0.814531,0.776912,0.188094,0.817802,730.000000,635.000000,95.000000,23.000000,0.000000,0.000000,0.000000,0.000000,0.000000;
#CREDIT:;
#NOTES:
0000
0000
0000
0000
,
0000
0000
0000
0000
,
0000
0000
0000
0000
,
0000
0000
0000
0000
0000
0000
0000
0000
0001
0000
0000
0100
0000
0000
1000
0000
,
0000
0000
0100
0000
0001
0000
1000
0000
0001
0000
0000
0001
0010
0000
1000
0000
,
0010
0000
0001
0000
1000
0000
0000
0100
0000
0000
0001
0000
0000
0000
0100
0000
,
1000
0000
0001
0000
1000
0000
0010
0000
0100
0000
0000
0100
0000
0000
0010
0100
,
0001
0000
0000
0000
0001
0000
0100
0000
0010
1000
0000
1000
0100
0000
0010
0000
,
0022
0000
0033
0000
0001
0000
0000
0100
0000
0000
0010
0000
1000
0000
0000
0000
,
1000
0000
0100
0000
0010
0001
0000
0001
0100
0000
0010
0000
2020
0000
3030
0000
,
1010
0000
0000
0101
0000
0000
1001
0000
1000
0000
0000
0000
1000
0000
0100
0010
,
0000
0100
0000
0010
0001
0000
0100
0000
0202
0000
0303
0000
0001
0000
0000
0100
,
0000
0000
0010
0000
1000
0000
0000
0000
1000
0000
0100
0000
0000
0100
1000
0100
,
0010
0000
0001
0000
0022
0000
0033
0000
0011
0000
0000
1100
0000
0000
1001
0000
,
1000
0000
0000
0000
0001
0000
0100
0000
1000
0100
0000
0100
0010
0000
0100
0000
,
0202
0000
0303
0000
1000
0000
0100
0010
0000
0100
0010
0000
0001
0000
0000
0000
,
0010
0000
0100
0000
1000
0010
0000
0010
1000
0000
0001
0010
0000
0001
0010
0000
,
1100
0000
0000
1010
0000
0000
1001
0000
0001
0000
0000
0000
1000
0000
0100
0001
,
0000
0001
0000
0100
0010
0000
0100
0000
2200
0000
3300
0000
0001
0000
0100
0010
,
0000
0100
0010
0000
1000
0000
0000
0000
0010
0000
0100
0000
0001
0010
0000
0010
,
0001
0000
1000
0010
0000
1000
0010
0000
0101
0000
0000
0011
0000
0000
1001
0000
,
1001
0000
0000
0001
0100
0000
0000
0100
0010
0000
0000
0010
1000
0000
0000
1000
,
0100
0000
0000
0100
0010
0000
0100
0000
0010
0000
0001
0000
0011
0000
0000
0101
,
0000
0000
1010
0000
1010
0000
0000
0010
1000
0000
0000
1000
0100
0000
0000
0100
,
0010
0000
0001
0000
0010
0000
0001
0000
0100
0000
0000
0000
0010
0000
1000
0001
,
0000
1000
0000
0001
0010
0000
0110
0000
0000
1100
0000
0000
1001
0000
0000
0001
,
0100
0010
1000
0000
0100
0000
0000
0000
0010
0000
0100
0000
1000
0010
0000
0010
,
1000
0000
0100
0010
0000
0100
0010
0000
0011
0000
0000
1001
0000
0000
1010
0000
,
1010
0000
0000
1100
0000
0000
0011
0000
0011
0000
0000
0001
0010
0000
0000
0010
,
0100
0000
0000
0100
1000
0000
0010
0000
1000
0000
0010
0000
0101
0000
0000
1010
,
0000
0000
1001
0000
1001
0000
0000
1000
0100
0000
0000
0100
0010
0000
0000
0010
,
0001
0000
0100
0000
0010
1000
0010
1000
0100
0000
0000
0000
0010
0000
0001
1000
,
0000
0001
0000
0100
0010
0000
1010
0000
0000
0110
0000
0000
0101
0000
0000
1000
,
0100
0010
0001
0000
0100
0000
0000
0000
0010
0000
1000
0000
0001
0010
0000
0010
,
0001
0000
0100
0010
0000
0100
0010
0000
1010
0000
0000
0101
0000
0000
1001
0000
,
1000
0100
1000
0000
0001
0000
0000
0000
0001
0100
0001
0000
1000
0000
0000
1000
,
0100
0000
0010
0000
0001
0100
0001
0100
0001
0000
0100
0000
0110
0000
0000
1010
,
0000
0000
1001
0000
1001
0000
0000
1000
0100
0000
0000
0100
0010
0000
0000
0010
,
0001
0000
1000
0010
1000
0000
0001
0000
0010
0001
0100
0000
0001
0000
0000
0000
,
0100
0001
0010
0000
0001
0000
0000
0000
1000
0010
1000
0000
0100
1000
0100
1000
,
0100
0000
0010
0000
0011
0000
0000
1100
0000
0000
1001
0000
1001
0000
0000
1000
,
0010
0000
0000
0010
0100
0000
0000
0100
0001
1000
0100
0000
0010
0100
0010
0000
,
0001
0100
0001
0000
1000
0000
0000
0000
1000
0100
1000
0000
0001
0000
0000
0001
,
0100
0000
0010
0000
1000
0100
1000
0100
1000
0000
0100
0000
0110
0000
0000
0011
,
0000
0000
1001
0000
1001
0000
0000
0001
0100
0000
0000
0100
0010
0000
0000
0010
,
1000
0000
0001
0010
0001
0000
1000
0000
0010
1000
0100
0000
1000
0000
0000
0000
,
0100
1000
0010
0000
1000
0000
0000
0000
1001
0000
0000
0000
1001
0000
0000
0000
,
0100
0000
0010
0000
1001
0000
0000
0110
0000
0000
1001
0000
1001
0000
0000
1000
,
0100
0000
0000
0100
0010
0000
0000
0010
0001
0000
0100
0000
2000
0000
0000
0000
,
3200
0000
0300
0000
0001
0010
0001
0010
0100
0000
1000
0000
0001
0000
0101
0000
,
0000
0110
0000
0000
0101
0000
1000
0100
1000
0100
1000
0100
0020
0000
0000
0000
,
0130
1000
0000
1000
0010
0000
0000
0100
0000
0000
0100
0001
0000
0010
0000
0000
,
0100
1000
0000
0010
0000
1000
0001
1000
0200
0000
0300
0000
0010
0001
0010
0001
,
0010
0000
0001
0000
0100
0000
1010
0000
0000
0101
0000
0000
1001
0000
0001
0100
,
0001
0100
0001
0100
0020
0000
0000
0000
0130
0001
0000
0001
0010
0000
0000
0001
,
0000
0000
1000
0010
0000
1000
0000
0000
1001
0000
0100
0000
0000
0000
0000
0000
,
2002
0000
3003
0000
1000
0100
0000
0100
0010
0000
0001
0000
0100
0000
0000
1001
,
0000
0000
1001
0000
1000
0000
0001
0010
0001
0010
0001
0010
0200
0000
0000
0000
,
0310
0001
0000
0001
0100
0000
0010
0000
1000
0001
0000
0001
1000
0000
0100
0000
,
1000
0000
1001
0000
0000
1001
0000
0000
2000
0000
3000
0000
0010
1000
0000
1000
,
0100
0000
0010
0000
0002
0000
0103
0010
0000
0100
0000
0010
0100
0010
1000
0000
,
0100
0010
0000
0001
1000
0000
0000
1001
0000
0000
1001
0000
0000
1001
0000
1000
,
0001
0000
0000
1000
0010
1000
0010
0000
0000
1000
0100
0000
0010
0000
0001
0000
,
1000
0100
1000
0000
0001
0000
0000
0001
0100
0000
0001
0000
1000
0000
0000
1000
,
0100
0000
0010
0000
0001
0100
0001
0100
0010
0000
1000
0000
1100
0000
0000
0110
,
0000
0000
1100
0000
1001
0000
0000
0001
0100
0000
0000
0100
1000
0000
0100
0000
,
0001
0000
0010
0000
0100
0010
0100
0000
1000
0010
0100
0000
0001
0000
0000
0001
,
0010
0000
0100
0000
1000
0000
0000
0000
0001
0100
0001
0000
0010
0000
0100
1000
,
0100
0000
0010
0000
0011
0000
0000
1001
0000
0000
1010
0000
0110
0000
0000
0100
,
0001
0000
0000
0000
1000
0010
1000
0000
0001
0010
0001
0000
1000
0000
0100
0000
,
0010
0001
0010
0000
0001
0000
0100
0000
0010
1000
0010
0000
1000
0000
0100
0010
,
0001
0000
0010
0000
0100
1000
0100
1000
0010
0000
0100
0000
1010
0000
0000
1001
,
0000
0000
0011
0000
0110
0000
0000
1000
0001
0000
1000
0100
1000
0000
0001
0100
,
0001
0000
0010
0000
0001
0000
1000
0000
0010
1000
0010
0000
1000
0000
0000
0001
,
0010
0000
0001
0000
0010
0000
0000
0100
1000
0000
0010
0000
0100
0001
0100
0001
,
1000
0100
0010
0000
0000
0000
0000
0000
,
0010
0100
0020
0000
0000
0000
0130
0000
,
1001
0000
0000
0000
0001
0000
0100
0000
1000
0000
0100
0000
0001
0100
0001
0000
,
0010
0010
0010
1001
,
1000
0000
0100
0000
0001
0000
0100
0000
1000
0100
1000
0000
0010
0000
0100
0000
,
0010
0100
0010
0100
0110
0000
0001
1000
,
0000
0000
0100
0000
0010
0100
0010
0000
1001
0000
0000
0000
1001
0000
0000
0000
,
1001
0000
0101
0000
1000
0100
0000
0010
,
0010
0000
0000
0000
;

//---------------dance-single - ----------------
#NOTEDATA:;
#CHARTNAME:;
#STEPSTYPE:dance-single;
#DESCRIPTION:;
#CHARTSTYLE:;
#DIFFICULTY:Medium;
#METER:12;
#RADARVALUES:0.572461,0.610898,0.228985,0.188094,0.228985,490.000000,462.000000,28.000000,23.000000,0.000000,0.000000,0.000000,0.000000,0.000000,0.572461,0.610898,0.228985,0.188094,0.228985,490.000000,462.000000,28.000000,23.000000,0.000000,0.000000,0.000000,0.000000,0.000000;
#CREDIT:;
#NOTES:
0000
0000
0000
0000
,
0000
0000
0000
0000
,
0000
0000
0000
0000
,
0000
0000
0000
0000
0000
0000
0000
0000
0001
0000
0000
0100
0000
0000
0010
0000
,
0000
0010
0100
0001
0010
0000
0010
0001
,
0100
0000
0010
0000
1000
0000
0000
0100
0000
0000
0010
0000
0000
0000
0010
0000
,
0100
1000
0010
0000
2000
0000
3000
0000
,
1010
0000
0001
0100
0010
0100
0001
0010
,
0200
0000
0300
0000
0010
0000
0000
0010
0000
0000
0010
0000
0011
0000
0000
0000
,
1000
0100
0010
0100
1000
0010
0200
0300
,
0010
0000
0000
1000
0000
0000
0100
0000
1100
0000
0000
0000
0001
0000
0010
0000
,
0100
0000
0010
0000
0001
0000
0100
0000
0020
0000
0030
0000
0100
0000
0000
0100
,
0000
0100
0101
0000
1000
0010
0100
0010
,
1000
0000
0100
0000
0020
0000
0030
0000
0100
0000
0000
0010
0000
0000
0001
0000
,
1001
0000
1000
0100
0010
0001
0100
0010
,
2000
0000
3000
0000
0010
0000
0000
0010
0000
0000
0010
0000
1001
0000
0000
0000
,
0001
0000
0100
0000
0010
0000
0000
1000
0000
0000
0100
0000
0000
0100
0000
0000
,
0001
0000
0000
0100
0000
0000
1000
0000
1100
0000
0000
0000
0001
0000
0010
0000
,
0100
0000
1000
0000
0010
0000
0100
0000
0002
0000
0003
0000
0100
0000
0000
0100
,
0000
0000
0100
0000
1001
0000
0000
0000
1000
0000
0100
0000
0010
0000
0000
0001
,
0000
0000
0100
0000
0000
0100
0000
0000
1000
0000
0000
0100
0000
0000
0001
0000
,
0001
0100
0001
0100
,
0100
0000
0000
0000
0100
0000
0010
0000
0100
0000
0000
0000
1000
0000
0000
0100
,
0000
0001
0001
0000
0100
0000
0100
0000
,
0100
0010
0100
0000
0110
0000
0001
0100
,
0001
0000
0100
0000
0010
0000
1000
0000
0000
0100
0000
0000
1000
0000
0000
0010
,
0000
0000
0100
0000
0101
0000
0000
0000
0001
0000
0100
0000
0010
0000
0000
1000
,
0000
0000
0100
0000
0000
0100
0000
0000
0001
0000
0000
0100
0000
0000
1000
0000
,
1000
0000
0000
0100
0000
0000
0100
0000
1000
0000
0000
0000
0100
0000
0000
0000
,
0100
0000
0000
0000
0100
0000
0010
0000
0100
0000
0000
0000
0001
0000
0000
0100
,
0000
1000
1000
0000
0100
0000
0100
0000
,
0100
0010
0100
0000
0110
0000
1000
0100
,
1000
0000
0100
0000
0010
0000
0001
0000
0000
0100
0000
0000
0001
0000
0000
0010
,
0000
0000
0100
0000
1100
0000
0000
0000
1000
0000
0100
0000
0010
0000
0000
0001
,
0000
0000
0100
0000
0000
0100
0000
0000
1000
0000
0000
0100
0000
0000
0001
0000
,
1000
0100
0010
0000
0001
0100
0010
0000
,
1000
0000
0100
0000
0010
0000
0100
0000
0010
0000
0001
0000
0100
0000
0000
0100
,
0000
0010
1000
0000
0001
0000
0001
0000
,
1000
0010
0100
0001
1000
0100
0001
0000
,
0001
0100
1000
0000
0100
0001
0100
1000
,
0100
0000
0010
0000
0001
0000
0000
0100
0000
0000
0100
0000
0010
0000
0000
0000
,
1000
0000
1000
0000
0100
0010
0100
1000
,
0001
0100
0010
0000
1000
0100
0010
0000
,
0001
0000
0100
0000
0010
0000
0100
0000
0010
0000
1000
0000
0100
0000
0000
0100
,
0000
0010
0001
0000
1000
0000
1000
0000
,
0001
0010
0100
1000
0001
0100
1000
0000
,
1000
0100
0001
0000
0110
0000
0110
0000
,
0001
0000
0100
0000
1000
0000
0000
0100
0000
0000
0100
0000
0001
0000
0000
0000
,
0001
0000
1000
0000
0100
0010
0110
0000
,
0002
0003
1000
0010
0100
0001
0010
0100
,
0000
1000
0000
0000
0001
0000
0000
0100
0000
0000
0010
0000
2000
0000
0000
0000
,
3001
0010
0000
0001
0020
0000
0000
0000
0000
0000
0000
0000
0000
0000
0000
0000
,
0000
0000
0000
0000
0030
0000
0000
0000
0002
0000
0003
0000
0100
0000
0000
1000
,
0000
0000
0100
0000
0001
0000
0010
0000
0000
0010
0000
0000
0100
0000
0000
0100
,
0000
0000
1000
0000
0002
0000
0000
0000
1003
0010
0000
1000
0020
0000
0000
0000
,
0000
0000
0030
0000
2002
3003
0000
0000
,
1001
0000
0000
0000
0001
0010
0000
0001
0010
0000
0100
0000
1000
0000
0000
1001
,
0000
0000
1001
0000
0000
0000
1000
0000
0010
0000
0200
0300
0002
0000
0003
0000
,
1000
0100
0000
1000
0100
0000
0010
0000
0001
0000
0000
0001
0000
0000
0100
0000
,
0010
0000
1000
0000
0000
1000
0000
0000
0002
0000
0003
0000
1000
0010
0000
1000
,
0010
0000
0100
0000
0002
0000
1003
0000
0000
0001
0000
1000
0001
0000
1000
0000
,
0001
0000
0000
0000
1001
0000
0000
1001
0000
0000
2002
0000
0000
0000
0000
0000
,
3003
0000
0000
0001
0000
0000
0001
0000
0000
0000
0010
0000
0001
0000
1000
0000
,
0001
0100
0010
0000
1000
0010
0100
0000
,
0001
0000
0010
0000
0100
0000
0010
0000
0001
0000
1000
0000
0010
0000
0000
1000
,
0000
1000
0100
0000
0100
0000
0001
0100
,
1000
0000
0010
0100
0001
0010
1000
0000
,
1000
0010
0001
0000
1000
0100
0010
0001
,
0100
0000
0010
0000
1000
0000
0000
0010
0000
0000
0010
0000
0100
0000
0000
0000
,
0100
0000
1000
0100
0001
0000
0010
0010
,
0001
0100
0010
0010
1000
0100
0010
0010
,
0001
0000
0100
0000
0010
0000
1000
0000
0001
0000
1000
0000
0100
0000
0000
0010
,
0000
0010
0001
0000
0010
0001
1000
0000
,
0001
0100
0010
1000
0010
0100
0001
0000
,
1001
0000
1001
0000
1000
0100
0010
0001
,
0100
0010
1000
0000
0000
0000
0000
0000
,
0000
0002
0000
2003
,
3001
0000
0001
0010
1000
0010
0001
0000
,
0100
0100
0100
1001
,
1000
0010
0001
0010
1000
0000
0100
0010
,
0100
0010
0100
0010
0001
0000
0001
0100
,
1000
0100
0001
0000
0110
0000
0110
0000
,
0110
0000
1000
0000
0100
0010
0000
0001
,
0001
0000
0000
0000
;

//---------------dance-single - ----------------
#NOTEDATA:;
#CHARTNAME:;
#STEPSTYPE:dance-single;
#DESCRIPTION:;
#CHARTSTYLE:;
#DIFFICULTY:Easy;
#METER:8;
#RADARVALUES:0.417079,0.474427,0.171738,0.343477,0.000000,357.000000,336.000000,21.000000,42.000000,0.000000,0.000000,0.000000,0.000000,0.000000,0.417079,0.474427,0.171738,0.343477,0.000000,357.000000,336.000000,21.000000,42.000000,0.000000,0.000000,0.000000,0.000000,0.000000;
#CREDIT:;
#NOTES:
0000
0000
0000
0000
,
0000
0000
0000
0000
,
0000
0000
0000
0000
,
0000
0000
1000
1000
,
0001
0000
0001
0000
1000
0000
0100
0010
,
0100
1000
1000
0001
,
0001
0100
0020
0030
,
1000
0000
1000
0000
0010
0000
1000
0001
,
2000
3000
0100
0000
0100
0010
0001
0000
,
0001
0000
0010
0000
0001
1000
0002
0003
,
0100
0000
0100
0010
1000
0000
1000
0000
,
0001
0000
1000
0100
2000
3000
0010
0000
,
0010
1000
0100
0000
0100
0000
1000
0000
,
0001
0100
0002
0003
0010
0000
0010
0001
,
0100
0000
0100
0000
0001
0000
0010
0100
,
0020
0030
0100
0000
0100
1000
0001
0000
,
0001
0000
0000
0000
0100
0000
0000
0000
0010
0000
2000
0000
0000
3000
0000
0000
,
0220
0000
0000
0330
0000
0000
1000
0000
0100
0000
0000
0000
0100
0000
0000
0000
,
1000
0000
0010
0100
0020
0030
0100
0000
,
0100
0001
1000
0000
1000
0000
0100
0000
,
0010
0000
0002
0000
0000
0003
0000
0000
0220
0000
0000
0330
0000
0000
0001
0000
,
1000
0001
1000
0001
,
0001
0000
1000
0001
1000
0000
0001
0000
,
0001
0100
0010
0000
1000
0000
1000
0000
,
0001
1000
0001
0000
0010
0000
0100
0000
,
1000
0000
0000
0000
0010
0000
0200
0000
0000
0300
0000
0000
0002
0000
0000
0003
,
0000
1000
0001
0000
0001
0000
0010
0000
,
0100
0000
2000
0000
0000
3000
0000
0000
0220
0000
0000
0330
0000
0000
1000
0000
,
0001
1000
0001
1000
,
1000
0000
0001
1000
0001
0000
1000
0000
,
1000
0100
0010
0000
0001
0000
0001
0000
,
0010
0001
0100
0010
,
1000
0000
0000
0000
0001
0000
2000
0000
0000
3000
0000
0000
0002
0000
0000
0003
,
0000
1000
0001
0000
0001
0000
0010
0000
,
0100
0000
2000
0000
0000
3000
0000
0000
0220
0000
0000
0330
0000
0000
1000
0000
,
0001
0001
1000
1000
,
0001
0010
0100
1000
,
1000
0010
0100
0000
0010
0000
1000
0000
,
0010
1000
0001
0000
0010
0000
0010
0000
,
0100
0100
0010
0001
,
0100
0000
0010
0000
0010
1000
0001
0000
,
1000
0000
1000
0000
0001
0010
0100
0000
,
1000
1000
0001
0001
,
1000
0010
0100
0001
,
0001
0010
0100
0000
0010
0000
0001
0000
,
0010
0001
1000
0000
0010
0000
0010
0000
,
0100
0100
1001
1001
,
0001
0000
0010
0000
0010
0001
1000
0000
,
0001
0000
0001
0000
0100
0010
2000
0000
,
3001
0000
0010
0000
0100
0000
0010
0002
,
0000
0003
0000
0000
0200
0000
0000
0300
0000
0000
0010
0000
2000
0000
0000
0000
,
3010
2002
0000
0000
,
0000
3003
0002
0013
,
1001
0000
0000
0000
1000
0000
0200
0000
0000
0300
0000
0000
0020
0000
0000
0030
,
0000
0001
2000
0000
3100
0000
2002
0000
,
0000
3003
0010
0000
,
0002
0103
1010
0000
,
0001
0000
0001
0000
1000
0001
2000
0000
,
3100
0000
0011
0000
0000
0000
0001
0100
,
0010
0000
2000
0000
0000
3000
0000
0000
0002
0000
0000
0000
1003
0000
0000
0000
,
0110
0000
0001
0000
1000
0000
0001
1000
,
0001
2002
0000
3003
,
0000
0010
0000
0000
,
1000
1000
0100
0100
,
0010
0001
0100
0010
,
0010
1000
0100
0000
0010
0000
0001
0000
,
0010
0001
1000
0000
0010
0000
0010
0000
,
0100
0100
0001
0010
,
0100
0000
0010
0000
0010
0001
0100
0000
,
0010
0000
0010
0000
1000
0001
0010
0000
,
0001
0100
1000
0100
,
0001
0100
0010
1000
,
1000
0100
0010
0000
0100
0000
0010
0000
,
0100
0010
0001
0000
0100
0000
0010
0000
,
0100
0010
1000
0001
,
0010
1001
0000
0000
,
0020
0000
0000
0030
,
1001
0000
0001
0010
0000
0010
0001
0000
,
0100
0100
0100
1001
,
1000
0010
0000
0010
1000
0000
0100
0000
,
0010
0000
0100
0000
1001
0000
0001
0100
,
0000
0010
0000
0000
0110
0000
0110
0000
,
0110
0000
1001
0000
1000
0100
0000
0010
;

//---------------dance-single - ----------------
#NOTEDATA:;
#CHARTNAME:;
#STEPSTYPE:dance-single;
#DESCRIPTION:;
#CHARTSTYLE:;
#DIFFICULTY:Beginner;
#METER:5;
#RADARVALUES:0.254687,0.338366,0.057246,0.016356,0.000000,218.000000,211.000000,7.000000,2.000000,0.000000,0.000000,0.000000,0.000000,0.000000,0.254687,0.338366,0.057246,0.016356,0.000000,218.000000,211.000000,7.000000,2.000000,0.000000,0.000000,0.000000,0.000000,0.000000;
#CREDIT:;
#NOTES:
0000
0000
0000
0000
,
0000
0000
0000
0000
,
0000
0000
0000
0000
,
0000
0000
1000
0000
,
0001
0000
1000
0000
,
1000
0100
0000
0010
,
0000
0001
0001
0000
,
1000
0000
0010
1000
,
1000
0001
0000
0001
,
0000
0010
0001
0001
,
1000
0000
1000
0000
,
0100
1000
1000
0001
,
0000
0001
0000
0100
,
0001
0001
1000
0000
,
0010
0000
1000
0001
,
0001
0010
0000
0100
,
0000
0010
0001
0000
,
1000
0000
0010
0000
,
0100
0010
0010
1000
,
0000
0001
0000
1000
,
0100
0000
0010
0000
,
0001
0000
0001
0000
,
1000
1000
1000
0001
,
0010
0001
0000
1000
,
1000
1000
0010
0000
,
0100
0100
0000
0001
,
0000
1000
0000
0010
,
0010
0000
1000
0000
,
0001
0010
0001
0000
,
1000
1000
1000
0001
,
0010
0001
0000
0100
,
0100
0100
0000
0010
,
0010
0010
0000
1000
,
0000
0001
0000
1000
,
1000
0000
0100
0000
,
1000
0000
0001
0000
,
1000
1000
1000
0010
,
0100
0010
0000
1000
,
0000
0001
0010
0000
,
0100
0000
0010
0010
,
0010
0001
0000
1000
,
0000
0001
1000
0000
,
0001
0000
1000
0000
,
0001
0001
0001
0010
,
0100
0010
0000
0001
,
0000
1000
0010
0000
,
0100
0000
1001
1001
,
0000
1000
0001
1000
,
0000
0100
0000
0010
,
0001
0001
0100
0100
,
0000
0010
0000
1000
,
0001
0001
0000
0000
,
0000
0000
1000
0100
,
1000
1000
0000
0010
,
0000
0100
0001
0001
,
0000
0000
0110
0000
,
1000
0001
0001
0000
,
1001
0000
0000
0001
,
0100
0100
0000
0010
,
0010
0000
1000
0001
,
0001
0000
0000
0001
,
1000
0002
0000
0003
,
0000
0010
0000
0000
,
0001
0000
1000
0000
,
0001
0001
0001
0100
,
0010
0100
0000
0001
,
0001
1000
0100
0000
,
0010
0000
0100
0100
,
0100
1000
0000
0001
,
0000
0100
0010
0000
,
1000
0001
1000
0001
,
1000
1000
1000
0100
,
0010
0100
0000
1000
,
0001
0001
0100
0000
,
0100
0000
0100
0100
,
0100
0100
0000
0000
,
0000
0020
0000
0030
,
1000
0000
0010
0000
,
0100
0000
0000
0100
,
0000
0001
0000
0010
,
0010
0010
0010
0000
,
0001
0000
1001
1001
,
1001
1000
0000
0001
;
