#TITLE:えっへん≦( ̄^ ̄)≧どやどす?天狗自慢;
#SUBTITLE:;
#ARTIST:MOSAIC.WAV;
#TITLETRANSLIT:Ehhen≦( ̄^ ̄)≧Doyadosu? Tengujiman;
#SUBTITLETRANSLIT:;
#ARTISTTRANSLIT:;
#GENRE:Akiba Pop;
#CREDIT:;
#BANNER:Ehhen Doyadosu Tengujiman.png;
#BACKGROUND:Ehhen Doyadosu Tengujiman-bg.png;
#LYRICSPATH:;
#CDTITLE:cdtitle.png;
#MUSIC:Ehhen Doyadosu Tengujiman.ogg;
#OFFSET:-0.059853;
#SAMPLESTART:19.554239;
#SAMPLELENGTH:9.746193;
#SELECTABLE:YES;
#BPMS:0.000000=197.000000
;
#STOPS:
;
#BGCHANGES:;
#KEYSOUNDS:;
#ATTACKS:;

//---------------dance-single - ----------------
#NOTES:
     dance-single:
     :
     Hard:
     12:
     0.659619,0.645267,0.521623,0.425026,0.000000,478.000000,424.000000,54.000000,44.000000,0.000000,0.000000,0.659619,0.645267,0.521623,0.425026,0.000000,478.000000,424.000000,54.000000,44.000000,0.000000,0.000000:
0000
0000
0000
0000
,
0000
0000
0000
0000
,
0000
0000
0000
0000
,
0000
0000
0000
0000
,
0001
0010
0001
0010
0001
0000
1100
0000
,
1000
0010
1000
0010
1000
0000
0101
0000
,
0001
0010
0001
0100
0001
0010
0001
0100
,
0001
0100
0010
1000
0001
0000
0000
0000
,
1000
0001
2000
0000
3001
2000
0000
3002
,
0000
1003
0001
1000
0000
2002
0000
3003
,
0100
0010
0200
0000
0310
0200
0000
0320
,
0000
0130
0010
0100
0000
2002
0000
3003
,
0001
0010
0002
0000
0013
0002
0000
0023
,
0000
0031
0010
0001
0000
0022
0000
0033
,
1000
0100
2000
0000
3100
2000
0000
3200
,
0000
0310
0001
0100
0010
0000
0100
0000
,
0010
0000
1000
0010
1000
0000
0001
0010
,
0001
1000
0000
1000
0010
0100
0001
0000
,
0010
0000
0001
0010
0001
0000
1000
0010
,
0100
0001
0000
0001
1000
0100
0010
0001
,
1000
0000
0001
0100
0001
0000
1000
0100
,
1000
0001
0000
0001
0100
0010
1000
0000
,
0001
0000
1000
0100
1000
0000
0001
0100
,
0001
0110
1001
0000
,
0101
0000
1010
0000
1000
0001
1000
0001
,
0010
0001
0100
0010
1000
0000
0010
1000
,
0100
0000
0010
0001
0100
0000
0010
1000
,
0001
0110
2002
3003
,
0001
0000
0100
0000
0010
1000
0010
0000
,
1000
0001
1000
0001
0010
0000
0100
1000
,
0001
0000
0100
0001
1000
0001
0100
0000
,
1010
0101
1010
0000
,
1100
0000
0011
0000
0001
1000
0001
1000
,
0010
1000
0100
0010
0001
0000
0100
0010
,
1000
0000
0100
0010
0001
0000
0100
0001
,
0010
0110
2002
3003
,
1000
0010
1000
0010
1000
0000
0101
0000
,
0001
0010
0001
0010
0001
0000
1100
0000
,
1000
0001
1000
0010
0100
0001
0010
0000
,
0011
1100
0011
0000
,
0001
0010
0001
0010
0100
1000
0010
0000
,
1000
0010
0100
0001
2000
0000
3001
0000
,
1000
0000
0001
0100
0001
0100
0010
1000
,
0001
0000
0010
0100
0020
0000
0031
0000
,
0100
0010
0100
0010
1000
0100
0000
0010
,
0001
0011
1001
1010
,
0102
1003
1002
0013
,
0012
1003
2010
3001
,
0001
0100
0001
0100
0010
1000
0100
0000
,
1000
0010
1000
0000
0001
0010
0001
0000
,
1000
0100
1000
0100
0010
0001
1000
0000
,
0001
0010
1000
0010
0002
0000
1003
0000
,
0001
0100
0000
0010
1000
0000
1000
0100
,
0000
0010
0001
0000
0110
0000
1001
0000
,
1000
0100
1000
0100
1000
0000
1000
0000
,
0001
0100
0001
0100
0001
0000
0001
0000
,
1000
0000
0010
1000
0100
0000
0010
0001
,
1000
0100
0010
0001
0100
0000
0000
2010
,
0000
3010
1000
0010
0100
0001
1000
0000
,
1001
0000
1001
0000
1001
0000
0000
0012
,
0000
0013
0001
0010
0100
1000
0001
0000
,
1001
1001
1001
0000
,
2000
0010
3002
0010
,
2003
0100
3002
0100
,
1003
0000
1001
0000
0001
0100
0010
0000
,
1000
0010
1000
0010
0100
0001
0100
0002
,
0000
0013
0001
0100
0010
1000
0100
0000
,
0110
0000
0110
0000
0110
0000
0000
2001
,
0000
3010
1000
0100
0010
0001
0100
0000
,
0110
0110
0110
0000
,
0002
0010
2003
0010
,
3002
0000
0100
0000
1003
0000
0001
1000
,
0001
0000
0100
0010
0100
0010
0100
0000
,
0001
0100
1000
0100
0001
0000
0000
0000
,
2000
0010
3002
0010
,
2003
0100
3002
0103
,
1001
0000
1001
0000
,
0000
1000
0001
1000
0001
0000
1000
0000
,
1001
0000
0001
0100
0000
0010
1000
0000
,
1001
0000
1000
0100
0000
0010
0001
0000
,
1000
0001
1000
0001
0000
1000
0000
0001
,
0100
0010
0100
0010
1000
0100
0010
0000
,
1001
0000
0000
0000
,
0100
0100
1001
0000
;

//---------------dance-single - ----------------
#NOTES:
     dance-single:
     :
     Medium:
     9:
     0.500924,0.604938,0.579581,0.289791,0.000000,363.000000,303.000000,60.000000,30.000000,0.000000,0.000000,0.500924,0.604938,0.579581,0.289791,0.000000,363.000000,303.000000,60.000000,30.000000,0.000000,0.000000:
0000
0000
0000
0000
,
0000
0000
0000
0000
,
0000
0000
0000
0000
,
0000
0000
0000
0000
,
0001
0001
0100
0000
,
1000
1000
0100
0000
,
0001
0001
1000
1000
,
0100
0010
0001
0000
,
1001
0000
1001
0000
1001
0000
0000
1001
,
0000
1000
0001
1000
0000
2002
0000
3003
,
0110
0000
0110
0000
0110
0000
0000
0110
,
0000
0100
0010
0100
0000
2002
0000
3003
,
0011
0000
0011
0000
0011
0000
0000
0011
,
0000
0001
0010
0001
0000
0022
0000
0033
,
1100
0000
1100
0000
1100
0000
0000
1100
,
0000
1000
0100
1000
0001
0000
0000
0000
,
0001
0010
1000
0010
,
0001
0000
0100
0000
0010
1000
0010
0000
,
1000
0010
0001
0010
,
1000
0000
1000
0000
0001
0100
0001
0000
,
1000
0100
0001
0100
,
1000
0000
0010
0000
0100
0001
0100
0000
,
0001
0100
1000
0100
,
0101
0110
1010
0000
,
1000
0001
0010
0010
,
0001
0100
0010
1000
,
1000
0001
0001
0010
,
0001
0100
1001
0000
,
0001
0100
0010
1000
,
0100
0010
0001
1000
,
1000
0010
1000
0100
,
0011
1100
0011
0000
,
0001
1000
0010
0010
,
1000
0100
0010
0001
,
0001
0100
0100
1000
,
0100
0001
0110
0000
,
1000
0010
0100
0001
,
1000
0100
0010
0001
,
1000
0010
0100
0001
,
1000
0001
1000
0001
1000
0000
0000
0000
,
1000
0000
1000
0000
0010
1000
0001
0000
,
1000
0100
0020
0030
,
0001
0000
0001
0000
0010
0001
1000
0000
,
0010
1000
0200
0300
,
1000
0000
1000
0000
0010
0100
0001
0000
,
1000
0010
1000
0100
,
0020
0030
0002
0003
,
0220
0330
2002
3003
,
1000
0000
1000
0000
0010
1000
0001
0000
,
1000
0100
1000
0000
0001
0010
0001
0000
,
1000
0000
1000
0000
0010
0100
0001
0000
,
1000
0001
1000
0000
,
1010
0000
0000
0101
0000
0000
0011
0000
,
0000
1100
0000
0000
1010
0000
0101
0000
,
1000
1000
1000
0010
,
0100
0100
0100
0001
,
0010
0001
0010
0001
,
0100
0010
0100
0010
0100
0000
0000
2010
,
0000
3010
1000
0100
,
1001
0000
1001
0000
1001
0000
0000
0012
,
0000
0013
0001
0100
,
1001
1001
1001
0000
,
0002
0013
0020
1030
,
2000
3100
0200
0301
,
1000
0100
0001
0100
,
1000
0000
1000
0000
1000
0000
0000
2001
,
0000
3010
1000
0100
,
0110
0000
0110
0000
0110
0000
0000
1002
,
0000
0013
0001
0100
,
0110
0110
0110
0000
,
2000
3010
0020
0031
,
0002
0103
0200
1300
,
1001
0000
0110
0000
,
1000
0001
1000
0001
1000
0000
0000
0000
,
0002
0013
0020
1030
,
2000
3100
0200
0301
,
1001
0000
1001
0000
,
0000
1000
0001
1000
0001
0000
1000
0000
,
0001
0000
0000
0010
0000
0000
0001
0000
,
1000
0000
0000
0010
0000
0000
1000
0000
,
1001
0000
1001
0000
0000
1001
0000
1000
,
0100
0100
0010
0010
,
1001
0000
0000
0000
,
0100
0100
1001
0000
;

//---------------dance-single - ----------------
#NOTES:
     dance-single:
     :
     Easy:
     7:
     0.429166,0.524280,0.637539,0.222173,0.000000,311.000000,245.000000,66.000000,23.000000,0.000000,0.000000,0.429166,0.524280,0.637539,0.222173,0.000000,311.000000,245.000000,66.000000,23.000000,0.000000,0.000000:
0000
0000
0000
0000
,
0000
0000
0000
0000
,
0000
0000
0000
0000
,
0000
0000
0000
0000
,
0001
1000
0100
0000
,
1000
0001
0100
0000
,
0010
0010
1000
1000
,
0001
0010
0100
0000
,
1001
0000
0000
0000
1001
0000
0000
2002
,
0000
3003
0000
1001
0000
2002
0000
3003
,
0110
0000
0000
0000
0110
0000
0000
0220
,
0000
0330
0000
0110
0000
2002
0000
3003
,
0011
0000
0000
0000
0011
0000
0000
0022
,
0000
0033
0000
0011
0000
0022
0000
0033
,
1100
0000
0000
0000
1100
0000
0000
2200
,
0000
3300
1100
0000
0011
0000
0000
0000
,
0001
0000
1000
0000
,
0010
1000
0100
0100
,
1000
0000
0001
0000
,
0010
0001
0100
0010
,
1000
0000
0001
0000
,
1000
0100
0010
0010
,
0001
0000
1000
0000
,
1001
0110
1001
0000
,
1000
0001
1000
0001
,
0100
0010
1000
0000
,
0001
0010
0001
0100
,
0010
1000
0100
0000
,
1000
0000
0100
0000
,
0010
0000
0001
0000
,
0100
0000
0010
0000
,
1001
0110
1001
0000
,
0001
1000
0001
1000
,
0100
0010
0001
0000
,
1000
0010
1000
0100
,
0001
0100
1000
0000
,
1000
1000
0010
0000
,
0100
0100
0001
0000
,
1000
0000
0001
0000
,
1001
0110
1001
0000
,
1000
0100
0010
0001
,
1000
0001
0200
0300
,
0001
0100
0010
1000
,
0001
1000
0200
0300
,
1000
0100
0010
0001
,
0100
0010
1000
0001
,
2000
3000
0200
0300
,
0022
0033
2200
3300
,
1000
0100
0010
0001
,
0100
0100
0010
0010
,
1000
0100
1000
0010
,
0100
0001
0020
0030
,
1001
0000
0000
1001
0000
0000
1001
0000
,
0000
1001
0000
0000
1001
0000
1001
0000
,
1000
0100
1000
0000
,
0001
0100
0001
0000
,
1000
0000
0001
0000
,
1001
0110
1001
0000
,
1000
0100
0010
0001
,
0011
1100
0011
0000
,
0001
0100
0010
1000
,
1010
0101
1010
0000
,
1000
0010
1000
0001
,
1000
0100
1000
0001
,
0100
0010
1000
0001
,
1000
0001
1000
0000
,
0001
0010
0100
1000
,
1100
0011
1001
0000
,
1000
0010
0100
0001
,
0101
1010
1001
0000
,
0001
0010
0001
1000
,
0001
0100
0001
1000
,
1001
0000
0110
0000
,
1001
0110
1001
0000
,
1000
0010
0100
0001
,
0010
0100
1000
0001
,
1001
0000
0110
0000
,
0000
1001
1001
0000
,
1000
0000
1000
0000
,
0001
0000
0001
0000
,
1001
0000
1001
0000
0000
1001
0000
0000
,
1000
0100
0010
0001
,
1001
0000
0000
0000
,
0100
0100
1001
0000
;

//---------------dance-single - ----------------
#NOTES:
     dance-single:
     :
     Beginner:
     4:
     0.244252,0.322634,0.106257,0.125576,0.000000,177.000000,166.000000,11.000000,13.000000,0.000000,0.000000,0.244252,0.322634,0.106257,0.125576,0.000000,177.000000,166.000000,11.000000,13.000000,0.000000,0.000000:
0000
0000
0000
0000
,
0000
0000
0000
0000
,
0000
0000
0000
0000
,
0000
0000
0000
0000
,
0001
0000
0001
0000
,
1000
0000
1000
0000
,
0100
0000
0100
0000
,
0020
0000
0030
0000
,
0002
0000
0000
0000
,
0000
0000
0000
0000
0000
0003
0000
0000
,
2000
0000
0000
0000
,
0000
0000
0000
0000
0000
3000
0000
0000
,
0002
0000
0000
0000
,
0000
0000
0000
0000
0000
0003
0000
0000
,
2000
0000
0000
0000
,
0000
0000
0000
0000
0000
3000
0000
0000
,
0001
0000
0001
0000
,
0100
0100
0100
0000
,
0010
0000
0010
0000
,
1000
1000
1000
0000
,
0100
0000
0100
0000
,
0010
0010
0010
0000
,
0001
0000
0001
0000
,
1000
1000
1000
0000
,
0001
0000
0001
0000
,
0001
1000
0001
0000
,
1000
0000
1000
0000
,
1000
0001
1000
0000
,
0010
0000
0010
0000
,
0100
0000
0100
0000
,
0001
0000
1000
0000
,
0001
0001
0001
0000
,
1000
0000
1000
0000
,
1000
0001
1000
0000
,
0001
0000
0001
0000
,
0010
0100
0010
0000
,
0001
0000
0001
0000
,
1000
0000
1000
0000
,
0010
0000
0100
0000
,
0001
0001
0001
0000
,
1000
0001
1000
0000
,
0001
0000
0001
0000
,
1000
0001
1000
0000
,
0001
0000
0001
0000
,
0100
0010
0100
0000
,
0010
0010
0010
0000
,
1000
0000
1000
0000
,
0001
0000
0010
0000
,
0001
1000
0001
0000
,
0100
0000
0100
0000
,
0001
1000
0001
0000
,
0010
0000
0100
0000
,
1001
0000
0000
1001
,
0000
0000
1001
0000
,
1000
1000
1000
0000
,
0001
0001
0001
0000
,
1000
0000
0001
0000
,
1000
0001
1000
0000
,
2002
0000
3003
0000
,
0010
0010
0010
0000
,
2002
0000
3003
0000
,
0010
0010
0010
0000
,
1000
0000
0010
0000
,
0100
0000
0001
0000
,
1000
0000
0001
0000
,
0010
0010
0010
0000
,
2002
0000
3003
0000
,
0010
0010
0010
0000
,
2002
0000
3003
0000
,
0010
0010
0010
0000
,
0001
0000
0010
0000
,
0100
0000
1000
0000
,
0001
0000
1000
0000
,
0010
0010
0010
0000
,
1000
0000
0010
0000
,
0001
0000
0100
0000
,
1000
0000
0001
0000
,
0000
1000
1000
0000
,
0010
0000
0010
0000
,
0100
0000
0100
0000
,
1001
0000
0000
0000
,
1001
0000
0110
0000
,
1001
0000
0000
0000
,
0010
0010
0010
0000
;

//---------------dance-single - ----------------
#NOTES:
     dance-single:
     :
     Challenge:
     14:
     0.833493,0.846913,0.560262,0.231833,0.149725,604.000000,546.000000,58.000000,24.000000,0.000000,0.000000,0.833493,0.846913,0.560262,0.231833,0.149725,604.000000,546.000000,58.000000,24.000000,0.000000,0.000000:
0000
0000
0000
0000
,
0000
0000
0000
0000
,
0000
0000
0000
0000
,
0000
0000
0000
0000
,
0001
0010
0100
0010
0001
0000
0110
0000
,
1000
0010
0100
0010
1000
0000
0110
0000
,
0001
0010
0001
0100
0001
0010
0001
0100
,
1000
0100
0001
0010
0100
0000
0000
0000
,
1000
0001
0201
0000
0301
0201
0000
0302
,
0000
0013
0001
0100
0000
2002
0000
3003
,
0001
1000
1200
0000
1300
1200
0000
2300
,
0000
3010
1000
0100
0000
0022
0000
0033
,
0001
1000
1020
0000
1030
1020
0000
2030
,
0000
3010
1000
0100
0000
2002
0000
3003
,
1000
0001
0021
0000
0031
0021
0000
0032
,
0000
0103
0010
1000
1100
0000
1000
0010
,
0100
0100
0001
0010
0100
0100
1000
0010
,
0100
0000
1000
0000
0000
0000
1000
0000
0100
0000
0010
0000
0100
0001
0100
0001
,
1000
1000
0100
0010
0001
0001
1000
0010
,
0001
0000
0010
0000
0000
0000
0010
0000
1000
0000
0001
0100
0001
0000
1000
0000
,
0100
0100
1000
0010
0100
0100
0001
0010
,
0100
0000
0001
0000
0000
0000
0001
0000
0100
0000
0010
0000
0100
1000
0100
1000
,
0001
0001
0100
0010
1000
1000
0001
0010
,
1000
0010
0001
1000
0100
0000
0100
0010
,
1001
0000
1010
0000
1000
0001
1000
0001
,
0010
0000
0001
1000
0001
0000
0010
0000
0100
0000
0000
0000
0010
0000
0001
0000
,
0100
0000
0010
1000
0100
0000
0010
0001
,
1000
0000
0000
0001
0100
0000
0010
0000
1000
0001
1000
0001
1000
0000
0000
0000
,
0001
0000
0100
0000
0010
1000
0100
0000
,
0010
0001
1000
0001
0100
0000
0010
1000
,
0100
0000
1000
0100
0001
0100
1000
0010
,
1010
0000
0101
0000
1010
0000
1000
0001
,
1001
0000
0011
0000
0001
1000
0001
1000
,
0010
0000
1000
0001
1000
0000
0010
0000
0100
0000
0000
0000
0010
0000
1000
0000
,
0100
0000
0010
0001
0100
0000
1000
0100
,
0001
0000
0000
1000
0100
0000
0010
0000
0001
1000
0001
1000
0001
0000
0000
0000
,
1000
0010
0001
0010
1000
0000
1001
0000
,
1000
0100
0001
0100
1000
0000
1100
0000
,
1000
0001
0100
1000
0100
0001
0010
0100
,
1100
0000
0000
0000
0011
0000
0000
0000
1100
0000
0000
1000
0100
0000
0010
0000
,
0001
0100
0001
0100
0010
1000
0100
0010
,
0001
0100
1000
0100
0001
0010
0100
1000
,
0001
0100
0001
0100
0010
1000
0001
1000
,
0010
0001
0010
1000
0100
0010
0001
0010
,
0100
1000
0100
1000
0010
0100
0001
1000
,
0100
0010
0001
0100
1000
0100
0001
0010
,
0200
0000
1300
0010
0200
0000
0301
0100
,
0010
0000
1000
0001
1000
0000
0100
0000
0010
0001
0010
0001
0010
0000
0001
0000
,
1000
0010
1000
0010
0100
0001
0010
0100
,
1000
0010
1000
0010
0001
0010
0001
0010
,
1000
0100
1000
0100
0010
0001
0100
0010
,
0001
0010
1000
0100
0010
0001
1000
0000
,
1010
1010
0000
0101
0101
0000
0011
0011
,
0000
1100
1100
0000
1001
0000
0110
0000
,
1000
0000
0001
1000
0001
0000
1000
0000
0100
0000
0000
0000
0110
0000
0000
0000
,
0001
0000
1000
0001
1000
0000
0001
0000
0100
0000
0000
0000
0110
0000
0000
0000
,
1000
0000
0001
1000
0001
0000
1000
0000
0100
0000
0010
0000
0100
0000
0010
0000
,
0001
0100
0001
0100
0001
0000
1000
0010
1000
0000
0000
0000
0001
0000
2000
0000
,
0000
3010
1000
0100
0001
0100
1000
0010
,
0110
0000
0000
0000
0110
0000
0000
0000
0110
0000
0100
0010
0100
0000
0002
0000
,
0000
0013
0001
0100
1000
0100
0001
0010
,
0110
0000
0000
0000
0110
0000
0000
0000
0110
0000
0100
0010
0100
0000
0000
0000
,
1001
0000
0001
0010
1000
0010
0001
0000
,
1001
0000
0001
0100
1000
0100
0001
0000
,
1000
0001
0100
0000
0001
1000
0100
0000
,
1000
0000
0010
0000
1000
0000
0010
0000
1000
0001
1000
0001
1000
0000
0020
0000
,
0000
0130
0001
0010
1000
0010
0001
0100
,
1001
0000
0000
0000
1001
0000
0000
0000
1001
0000
0001
1000
0001
0000
0020
0000
,
0000
0130
1000
0010
0001
0010
1000
0100
,
1001
0000
0000
0000
1001
0000
0000
0000
1001
0000
1000
0001
1000
0000
0000
0000
,
1001
0000
1000
0010
0001
0010
1000
0000
,
1001
0000
1000
0100
0001
0100
1000
0001
,
0010
0000
0100
0010
0001
0100
0010
0000
,
1000
0100
0100
0100
0100
0000
0100
0010
,
0001
1000
0100
0010
0001
0100
1000
0100
,
0001
0010
1000
0010
0001
0100
0010
1000
,
1001
0000
0110
0000
,
0000
0010
0010
0010
0010
0000
1000
0001
,
0010
0001
0100
0010
0000
0100
0010
0100
,
0010
1000
0100
0010
0000
0100
0010
0001
,
1000
0000
0001
1000
0001
0000
1000
0000
0000
0000
1000
0000
0000
0000
0001
0000
,
0100
0000
0010
0100
0010
0000
0100
0000
1000
0000
0100
0000
0001
0000
0000
0000
,
1001
0000
0000
0000
,
0100
0010
0100
0010
1001
0000
0000
0000
;

//---------------dance-single - [B-SIDE] ULTRA KAWAII MODE ACTIVATED----------------
#NOTES:
     dance-single:
     [B-SIDE] ULTRA KAWAII MODE ACTIVATED:
     Edit:
     19:
     1.258519,1.330864,1.458613,0.328429,0.994948,912.000000,761.000000,151.000000,34.000000,4.000000,0.000000,1.258519,1.330864,1.458613,0.328429,0.994948,912.000000,761.000000,151.000000,34.000000,4.000000,0.000000:
// measure 0
0000
0000
0000
0000
,  // measure 1
0000
0000
0000
0000
,  // measure 2
0000
0000
0000
0000
,  // measure 3
0000
0000
0000
0000
,  // measure 4
1000
0000
0000
0001
0100
0001
0100
0000
0000
0010
0000
0000
1000
0000
0000
0001
0000
0000
0010
0000
0000
0001
0000
0000
,  // measure 5
0100
0000
1000
0000
0100
0000
0010
0000
0100
0001
0100
0001
1000
0000
0001
0000
,  // measure 6
0010
0000
0100
0010
0001
0000
0010
0000
1000
0000
0010
0000
0001
0000
0100
0000
,  // measure 7
0001
0100
0001
0100
0010
1000
0010
1000
0001
0000
0000
0000
MM00
00MM
0000
0000
,  // measure 8
1100
1100
0022
0033
1100
0022
0033
2002
,  // measure 9
3003
1100
0110
0011
0000
2002
0000
3003
,  // measure 10
0101
0101
2020
3030
0101
2020
3030
2002
,  // measure 11
3003
0101
0110
1010
0000
0220
0000
0330
,  // measure 12
0011
0011
2200
3300
0011
2200
3300
2002
,  // measure 13
3003
0011
0110
1100
0000
2002
0000
3003
,  // measure 14
1010
1010
0202
0303
1010
0202
0303
2002
,  // measure 15
3003
0000
1100
0000
0110
0000
0011
0000
1001
0000
1000
0001
1000
0000
0001
0000
,  // measure 16
1000
0000
0010
0000
0001
0000
0010
0000
1000
0000
0010
0000
0001
0000
0010
1000
,  // measure 17
0100
0010
0001
0000
0100
0000
1000
0000
0100
0000
0001
0010
0100
1000
0010
0100
,  // measure 18
0001
0000
0000
0000
0000
0000
0100
0000
0010
0000
0100
0000
0010
0000
0000
0000
0000
0000
1000
0000
0000
0000
0000
0000
0100
0000
0000
0000
0000
0000
0010
0000
0000
0000
0000
0000
0001
0000
0000
0000
0000
0000
1000
0000
0000
0010
0000
0000
,  // measure 19
0100
0001
0010
0000
1000
0000
0010
0000
0001
0010
0100
1000
0001
1000
0010
0100
,  // measure 20
0001
0000
0010
0000
1000
0000
0010
0000
0001
0000
0010
0000
1000
0000
0010
0001
,  // measure 21
0100
0010
1000
0000
0100
0000
0001
0000
0100
0000
1000
0010
0100
0001
0100
0010
,  // measure 22
1000
0000
0000
0100
0010
0100
0010
0000
0000
0001
0000
0000
0100
0000
0000
1000
0000
0000
0100
0000
0000
0001
0000
0000
,  // measure 23
0010
0100
0010
0000
0100
0000
1000
0000
0010
0000
0100
0001
1000
0000
0001
0000
,  // measure 24
1001
0000
1010
0000
0011
0001
1001
0001
,  // measure 25
0101
0000
0010
1000
0100
0000
0010
0000
0011
0000
0000
0000
1100
0000
1001
0000
,  // measure 26
0101
0000
0101
1001
1100
0000
0011
1001
,  // measure 27
1010
0000
0000
0001
1000
0010
0100
0010
1000
0001
1000
0001
1000
0000
0000
0000
,  // measure 28
1001
0000
0101
0000
0010
1000
0100
0000
,  // measure 29
0010
0000
0001
0000
1000
0000
0001
0000
0100
0000
0010
1000
0001
0000
1000
0000
,  // measure 30
0100
0000
1000
0100
0001
0100
1000
0010
,  // measure 31
1010
0000
0000
0000
0101
0000
0000
0000
1010
0000
1000
0010
1000
0000
0001
0000
,  // measure 32
1001
0000
0011
0000
1010
1000
1001
1000
,  // measure 33
1100
0000
0010
0001
0100
0000
0010
0000
1010
0000
0000
0000
1010
0000
0110
0000
,  // measure 34
0101
0000
0011
0110
1100
0000
1001
0110
,  // measure 35
1001
0000
0000
1000
0100
0010
0100
0010
0001
0100
0010
1000
0001
0000
0000
0000
,  // measure 36
1000
0010
0001
0010
1000
0000
1001
0000
,  // measure 37
1000
0000
0100
0000
0001
0000
0100
0000
1000
0000
0100
1000
0001
0000
0000
0000
,  // measure 38
1000
0001
0100
1000
0100
0001
0010
0100
,  // measure 39
1100
0000
0000
0000
0011
0000
0000
0000
1100
0000
0100
1000
0100
0000
0010
0000
,  // measure 40
0001
1000
0010
1000
0001
1000
0010
1000
0001
1000
0001
1000
0100
1000
0100
1000
,  // measure 41
0001
0010
0100
1000
0001
0100
0010
1000
0001
0100
0001
0100
0010
1000
0010
1000
,  // measure 42
0001
1000
0001
1000
0100
0010
0001
0010
0100
1000
0001
1000
0010
1000
0001
1000
,  // measure 43
0010
0100
0001
0100
0010
1000
0001
0010
0100
1000
0100
1000
0001
0010
0001
0010
,  // measure 44
0001
1000
0001
1000
0010
1000
0010
1000
0001
0010
0100
0010
0100
0010
0001
1000
,  // measure 45
0001
1000
0001
1000
0001
0010
0100
1000
0001
0100
0010
1000
0001
0010
0100
1000
,  // measure 46
0001
0000
0100
0010
0100
0000
1000
0000
0001
0000
0010
0100
0010
0000
1000
0000
,  // measure 47
0100
0010
0100
0010
0001
1000
0001
1000
0010
0100
0010
1000
0001
0000
0001
0000
,  // measure 48
1000
0001
0010
0001
1000
0001
0010
0001
1000
0001
1000
0001
0100
0001
0010
0001
,  // measure 49
1000
0100
0010
0100
0001
0100
0001
0100
1000
0010
0100
0010
0001
0010
0001
0010
,  // measure 50
1000
0100
0010
0100
1000
0100
0010
0100
1000
0001
1000
0001
0100
0010
1000
0001
,  // measure 51
1000
0100
0010
0001
0100
0010
1000
0100
0010
0001
0010
0001
1000
0001
0100
0000
,  // measure 52
1010
1010
0000
0101
0101
0000
0011
0011
,  // measure 53
0000
1100
1100
0000
1001
0000
0110
0000
,  // measure 54
1001
0000
0001
1000
0001
0000
1000
0000
1100
0000
0100
0000
0110
0000
0010
0000
,  // measure 55
0011
0000
0001
1000
0001
0000
0100
0000
0110
0000
0010
0000
1010
0000
1000
0000
,  // measure 56
1001
0000
0010
0100
0010
0000
0110
0000
1001
0000
0100
0000
0100
0000
1001
0000
,  // measure 57
0001
0100
1000
0100
0001
0000
1000
0100
0010
0000
0000
0000
0001
0000
2001
0000
,  // measure 58
0000
0000
3010
1000
0001
0100
0010
1000
0001
0010
0100
1000
0001
0010
0100
1000
,  // measure 59
0010
0000
0000
0000
1001
0000
0000
0000
0110
0000
0001
1000
0001
0000
1002
0000
,  // measure 60
0000
0000
0013
0001
1000
0100
0010
0001
1000
0010
0100
0001
1000
0010
0100
0001
,  // measure 61
0010
0000
0000
0000
1001
0000
0000
0000
0110
0000
0001
1000
0001
0000
0000
0000
,  // measure 62
1001
0000
1000
1010
0100
0001
0110
1000
,  // measure 63
1001
0000
0001
0011
0100
1000
0110
0001
,  // measure 64
1001
1000
0100
0000
1001
0001
0100
0000
,  // measure 65
0001
0000
0100
0000
0001
0000
1000
0100
0010
0001
0010
0100
1000
0000
1002
0000
,  // measure 66
0000
0000
1003
0100
0010
0001
0100
0010
1000
0001
0100
0010
1000
0100
0010
0100
,  // measure 67
0001
0000
0000
0000
0101
0000
0000
0000
0110
0000
1000
0100
1000
0000
2001
0000
,  // measure 68
0000
0000
3001
0100
0010
1000
0100
0010
0001
1000
0100
0010
0001
0100
0010
0100
,  // measure 69
1000
0000
0000
0000
1100
0000
0000
0000
0110
0000
0001
0100
0001
0000
0000
0000
,  // measure 70
1001
0000
0001
0011
0100
1000
1010
0100
,  // measure 71
0101
0000
1000
1010
0100
0001
0011
0100
,  // measure 72
1100
0000
1000
1000
1001
0001
0010
0000
,  // measure 73
0001
0000
0011
0000
1001
0000
1010
0000
1001
0000
0001
1000
0001
0000
1000
0000
,  // measure 74
0001
0010
0001
0010
1000
0010
1000
0010
0001
0100
0001
0100
1000
0100
1000
0100
,  // measure 75
0001
0010
0100
1000
0010
0001
0010
1000
0100
0010
0001
0100
1000
0100
0001
0010
,  // measure 76
0100
1000
0001
1000
0110
0001
1000
0001
,  // measure 77
1000
0000
1010
0000
1001
0000
0011
0000
1001
0000
1000
0001
1000
0000
0001
0000
,  // measure 78
0011
0000
0100
0000
0010
0000
1100
0000
1000
0100
0010
0100
1000
0000
0010
0000
,  // measure 79
0101
0000
0010
0000
0100
0000
1010
0000
0001
0100
0010
0100
0001
0000
0100
0000
,  // measure 80
1001
0000
1000
0001
1000
0000
1001
0000
0000
0000
1001
0000
0000
0000
1001
0000
,  // measure 81
0101
0000
0100
0010
1000
0000
1010
0000
0110
0000
0101
0000
1001
0000
0000
0000
,  // measure 82
1001
0000
0001
0010
0100
0000
0100
0000
0100
0000
0100
0000
0100
0000
0100
0000
,  // measure 83
1000
0100
0010
0001
0100
0010
0100
0010
1001
0000
0000
0000
0000
0000
0000
0000
;
