#TITLE:Duck Hunt;
#SUBTITLE:;
#ARTIST:Duane & BrandO;
#TITLETRANSLIT:;
#SUBTITLETRANSLIT:;
#ARTISTTRANSLIT:;
#GENRE:Nerdcore;
#CREDIT:;
#BANNER:Duck Hunt.png;
#BACKGROUND:Duck Hunt-bg.png;
#LYRICSPATH:;
#CDTITLE:cdtitle.png;
#MUSIC:Duck Hunt.ogg;
#OFFSET:2.277569;
#SAMPLESTART:10.370741;
#SAMPLELENGTH:17.034868;
#LASTBEATHINT:2.393849;
#SELECTABLE:YES;
#DISPLAYBPM:113.000000;
#BPMS:0.000000=112.690002
;
#STOPS:
;
#BGCHANGES:4.250=Duck Hunt.avi=1.000=1=0=0=StretchNoLoop==CrossFade==,
99999=-nosongbg-=1.000=0=0=0 // don't automatically add -songbackground-
;
#KEYSOUNDS:;
#ATTACKS:;

//---------------dance-single - ----------------
#NOTES:
     dance-single:
     :
     Challenge:
     14:
     0.750537,0.727083,0.216064,0.170577,1.068947,462.000000,443.000000,19.000000,15.000000,25.000000,0.000000,0.750537,0.727083,0.216064,0.170577,1.068947,462.000000,443.000000,19.000000,15.000000,25.000000,0.000000:
0000
0000
0000
0000
,
0000
0000
0000
0000
,
0000
0000
0000
0000
,
0000
0000
0000
0000
,
0001
0010
0001
0000
1001
0000
0000
0000
1000
0000
0010
0000
0101
0000
0000
0000
,
1000
0010
1000
0000
0010
0100
0001
0100
1040
0000
0001
0000
1030
0000
0000
0001
,
0100
0010
1000
0000
0010
1000
0100
0010
0002
0000
0103
0020
0000
0130
1000
0100
,
0001
0010
0100
0000
1000
0000
0010
1000
0100
0000
0010
0000
0001
0000
1000
0001
,
1000
0010
0100
0010
0001
0010
0100
0010
1000
0010
0100
0001
0000
1000
0100
0010
,
0000
0200
0000
0310
0001
0100
0010
1000
0001
0000
0001
0000
1000
0010
1000
0100
,
0041
0000
1000
0000
0031
0000
0001
0100
0010
1000
0001
0020
0000
0000
0130
0000
,
0010
0001
1000
0100
0010
0100
1000
0100
0001
0100
2000
0000
3020
0000
0130
0001
,
0000
0002
0000
0103
0010
1000
0100
0010
0002
0000
0013
0100
1000
0010
0001
0010
,
1000
0000
1000
0000
0010
1000
0100
0010
0001
0100
0001
1000
0100
0010
0100
0000
,
1000
0000
0000
0000
0000
0000
1000
0000
0000
0000
0000
0000
1100
0000
0000
0000
0000
0000
0001
0000
0000
0100
0000
0000
0001
0000
0000
0100
0000
0000
0001
0000
0000
0020
0000
0000
M00M
0000
0000
0000
0130
0000
M00M
0000
0010
0000
0000
0000
,
0001
0000
0001
0000
0101
0000
1000
0000
0010
1000
0010
1000
0100
0000
1000
0000
,
0010
0000
0010
0000
1000
0010
0100
0001
0010
0100
0010
0001
0000
0001
0100
0000
,
0010
0000
0010
0000
0100
0010
1000
0100
0010
0000
0001
0100
0000
0010
1000
0000
,
0001
0010
0001
0100
0010
0000
0100
0010
1000
0010
0001
0010
M10M
0010
M10M
0010
,
1000
0100
0001
0100
1000
0000
0100
1000
0010
0000
0100
0002
0000
0000
1003
0000
,
0001
0010
0001
0000
0001
0010
0100
1000
0010
1000
0001
0010
0000
0010
0100
0000
,
1000
0000
1000
0000
0001
0010
0001
0100
1000
0100
0001
0010
0000
0100
1000
0000
,
1040
0000
0001
0000
1030
0000
0001
0100
0010
1000
0100
0010
0000
0010
0001
0000
,
1000
0000
0000
0010
0000
0000
0100
0000
0000
0001
0000
0000
0010
0000
0000
0000
0001
0000
0000
0000
0100
0000
0000
0000
0010
0000
0000
1000
0000
0000
0001
0000
0000
0010
0000
0000
0000
0000
0000
0010
0000
0000
0001
0000
0000
0000
0000
0000
,
1000
0000
1000
0000
1000
0010
1000
0100
0010
0001
0100
0010
0000
0010
1000
0000
,
0001
0000
0001
0100
0010
0100
0001
0100
2000
0000
3100
0001
1000
0100
0010
0000
,
0041
0000
1000
0000
0031
0000
0001
0100
0010
0000
1000
0000
1001
0000
0001
0000
,
1000
0100
0001
0100
1000
0100
0010
0000
0001
0100
0010
1000
0001
0000
0100
0010
,
0000
0020
0000
1030
0010
0001
0010
1000
0100
0001
0100
1000
0000
1000
0100
0010
,
0001
0100
0010
0000
0010
0100
1000
0100
0001
0000
0010
0100
0000
0000
0120
0000
,
0000
0031
0000
0100
0010
2000
0000
0000
3010
0001
0010
1000
0100
0000
MMMM
0000
,
0100
1000
0010
0000
0100
0001
0010
1000
0010
0001
0100
0010
0000
0100
0010
1000
,
0100
0010
0001
0010
2000
0000
3010
0001
0010
0100
1000
0001
0100
0000
0010
0100
,
0001
0100
1000
0100
0001
0100
1000
0001
0010
1000
0001
0100
0010
1000
0100
0010
,
0001
0000
0000
1000
0000
0000
0001
0000
0000
0000
0000
0000
0100
0000
0000
0010
0000
0000
1000
0000
0000
0100
0000
0000
0010
0000
0000
0000
0000
0000
0001
0000
0000
0100
0000
0000
M01M
0000
0000
0000
0000
0000
M00M
0000
0100
0000
0010
0000
,
0100
0001
1000
0000
1000
0100
0010
0001
0100
0010
0100
0010
1000
0100
0001
0100
,
1000
0010
0100
0001
0010
0001
0100
0010
1000
0100
0010
0001
0000
0001
0100
0010
,
0000
0000
0000
0000
0000
0000
0000
0000
0000
0000
0000
0000
0100
0000
0000
0000
0000
0000
0000
0000
0000
0000
0000
0000
0010
0000
0000
0000
0000
0000
0000
0000
0000
0000
0000
0000
1000
0000
0000
0000
0000
0000
0000
0000
0000
0000
0000
0000
0100
0000
0000
0000
0000
0000
0000
0000
0000
0000
0000
0000
0001
0000
0000
0000
0000
0000
0000
0000
0000
0000
0000
0000
0100
0000
0000
0000
0000
0000
0000
0000
0000
0000
0000
0000
1000
0000
0000
0000
0000
0000
0000
0000
0000
0000
0000
0000
0010
0000
0000
0000
0000
0000
0000
0000
0000
0000
0000
0000
0000
0000
0000
0000
0000
0000
0000
0000
0000
0000
0000
0000
0110
0000
0000
0000
0000
0000
0000
0000
0000
0000
0000
0000
0000
0000
0000
0000
0000
0000
0000
0000
0000
0000
0000
0000
0101
0000
0000
0000
0000
0000
0000
0000
0000
0000
0000
0000
0000
0000
0000
0000
0000
0000
0000
0000
0000
0000
0000
0000
4004
0000
0000
0000
0000
0000
0000
0000
0000
0000
0000
0000
0000
0000
0000
0000
0000
0000
0000
0000
0000
0000
0000
3003
,
0110
0000
0000
M000
0M00
00M0
000M
M000
0M00
00M0
000M
M000
0100
0000
0000
0010
0000
0000
1001
0000
0000
0110
0000
0000
,
0001
1000
0001
0000
1000
0001
0010
0100
1000
0000
0001
0000
0100
0010
1000
0000
,
0001
0100
0101
0000
1000
0100
1100
0000
,
0001
0100
0110
0000
0000
0000
0000
0000
;

//---------------dance-single - ----------------
#NOTES:
     dance-single:
     :
     Hard:
     11:
     0.516604,0.469086,0.090974,0.090974,0.295666,318.000000,310.000000,8.000000,8.000000,0.000000,0.000000,0.516604,0.469086,0.090974,0.090974,0.295666,318.000000,310.000000,8.000000,8.000000,0.000000,0.000000:
0000
0000
0000
0000
,
0000
0000
0000
0000
,
0000
0000
0000
0000
,
0000
0000
0000
0000
,
0001
0001
0011
0000
1000
1000
1010
0000
,
0001
0001
0010
0100
4001
0100
3001
0000
,
1000
0000
0010
0000
0100
0000
0001
0000
1000
0000
0100
0010
0000
0100
0010
0000
,
0001
0000
0100
0000
1000
0000
0100
0000
0001
0000
0010
0000
0001
0000
0000
0001
,
0100
0000
0001
0000
0100
0000
0010
0000
1000
0000
0001
1000
0000
0001
1000
0000
,
0100
1000
0010
0001
0010
1000
0100
0010
,
1004
0000
0100
0000
1003
0000
0001
0000
0100
0000
0010
2000
0000
0000
3010
0000
,
1000
0000
0100
0000
0001
0000
0100
0000
1000
0000
0010
0000
0100
0000
0001
0010
,
0000
0020
0000
0031
0010
0000
0001
0000
0100
0000
0010
1000
0000
0010
1000
0000
,
0001
0000
0010
0000
1000
0000
0010
0000
0001
0000
0100
0001
0000
0010
0001
0000
,
1000
1000
0010
0100
0001
1000
0400
0000
,
0310
0000
0001
0000
0100
0000
0010
0000
1000
0000
0100
0020
0000
0000
0130
0000
,
1000
0000
1000
0000
0001
0000
0100
0000
0010
0000
1000
0100
0000
0100
0010
0000
,
0001
0000
0001
0000
0100
0000
0010
0000
1000
0000
0001
0020
0000
0000
0130
0000
,
1000
0000
0100
0000
0001
0000
0000
0001
0100
0000
0010
0000
0004
0000
0000
0000
,
0103
0000
0010
0000
1000
0000
0000
0010
1000
0000
0001
0000
0010
0000
0000
0000
,
0100
0000
0010
0000
0001
0000
1000
0000
0010
0000
1000
0100
0000
1000
0100
0000
,
0010
0000
0001
0000
1000
0000
0001
0000
0100
0000
0001
0100
0000
0010
1000
0000
,
4001
0000
0100
0000
3001
0000
1000
0000
0100
0000
0010
0001
0000
1000
0010
0000
,
0100
0000
0010
0000
1000
0000
0010
0000
0001
0000
0010
1000
0000
0001
0010
0000
,
0001
0000
0100
0000
1000
0000
0100
0000
0001
0000
0100
0010
0000
1000
0100
0000
,
0010
0000
0100
0000
0001
0000
0100
0000
0010
0000
0100
1000
0000
0001
0100
0000
,
1004
0000
0100
0000
1003
0000
0001
0000
0100
0010
0000
0010
1000
0000
0001
0000
,
0010
0000
0010
0000
0100
0000
1000
0000
0010
0000
1000
0100
0010
0000
0001
0100
,
0000
0200
0000
0310
1000
0000
0100
0000
0001
0000
0100
1000
0000
1000
0010
0000
,
0100
0000
0010
0000
0001
0000
0010
0000
1000
0000
0100
0020
0000
0000
0031
0000
,
1000
0000
0001
0100
0002
0000
0000
0000
1003
0010
1000
0000
0004
0000
0000
0000
,
0013
0001
0010
0000
0001
0000
0100
0000
0010
0000
1000
0001
0000
0001
1000
0000
,
0010
0000
1000
0000
0100
0000
0010
0000
0001
0000
0100
0020
0000
0000
0130
0000
,
1000
0100
0001
0100
1000
0001
0010
1000
,
0100
0000
0010
0000
0001
0000
1000
0010
1000
0000
0001
0100
0004
0000
0000
1003
,
0100
0010
0001
0100
1000
0100
0001
1000
,
0100
0000
0001
0000
0100
0000
1000
0000
0010
0000
0100
0001
0000
0001
0010
0000
,
0001
0000
0000
0000
0000
0000
0000
0000
0000
0000
0000
0000
0000
0000
0000
0000
0000
0000
0000
0000
0000
0000
0000
0000
0100
0000
0000
0000
0000
0000
0000
0000
0000
0000
0000
0000
0000
0000
0000
0000
0000
0000
0000
0000
0000
0000
0000
0000
0010
0000
0000
0000
0000
0000
0000
0000
0000
0000
0000
0000
0000
0000
0000
0000
0000
0000
0000
0000
0000
0000
0000
0000
1000
0000
0000
0000
0000
0000
0000
0000
0000
0000
0000
0000
0000
0000
0000
0000
0000
0000
0000
0000
0000
0000
0000
0000
0100
0000
0000
0000
0000
0000
0000
0000
0000
0000
0000
0000
0000
0000
0000
0000
0000
0000
0000
0000
0000
0000
0000
0000
0100
0000
0000
0000
0000
0000
0000
0000
0000
0000
0000
0000
0000
0000
0000
0000
0000
0000
0000
0000
0000
0000
0000
0000
0100
0000
0000
0000
0000
0000
0000
0000
0000
0000
0000
0000
0000
0000
0000
0000
0000
0000
0000
0000
0000
0000
0000
0000
4004
0000
0000
0000
0000
0000
0000
0000
0000
0000
0000
0000
0000
0000
0000
0000
0000
0000
0000
0000
0000
0000
0000
3003
,
0100
0400
0000
0000
0310
0100
1001
0001
,
1000
0000
0100
0000
0000
0010
0001
0000
0100
0000
1000
0000
0100
0000
0001
0000
,
0010
0100
1000
0000
0010
0100
0001
0000
,
1000
0100
0010
0000
0000
0000
0000
0000
;

//---------------dance-single - ----------------
#NOTES:
     dance-single:
     :
     Medium:
     7:
     0.333031,0.328360,0.045487,0.000000,0.000000,205.000000,201.000000,4.000000,0.000000,0.000000,0.000000,0.333031,0.328360,0.045487,0.000000,0.000000,205.000000,201.000000,4.000000,0.000000,0.000000,0.000000:
0000
0000
0000
0000
,
0000
0000
0000
0000
,
0000
0000
0000
0000
,
0000
0000
0000
0000
,
0000
1000
0000
0001
,
0000
1000
4004
3003
,
1000
0000
0010
1000
1000
0100
0010
0000
,
0001
0000
0010
0001
0001
0100
0010
0000
,
1000
0000
0001
0010
0010
0100
1000
0000
,
0001
0000
1000
0010
0010
0100
0001
0000
,
4004
0000
3003
0000
0001
1000
0100
0000
,
0010
0000
0100
1000
0010
0100
0001
0000
,
0010
0000
0001
0100
0010
1000
0100
0000
,
0010
0000
0100
1000
0010
0100
0001
0000
,
1000
1000
0010
0000
0100
0001
0400
0000
,
0301
0001
0010
0000
0100
1000
0100
0000
,
1000
1000
0010
0000
1000
0001
1000
0000
,
0001
0001
0010
0000
0001
0100
0001
0000
,
1000
0010
0100
0000
0001
0010
0400
0000
,
0310
0001
0100
0000
0010
1000
0100
0000
,
1000
0001
0100
0000
0001
1000
0100
0000
,
0010
0001
1000
0000
0010
1000
0001
0000
,
4004
0000
3003
0000
0001
0100
0010
0000
,
1000
0000
0100
1000
0010
0100
0001
0000
,
1000
0000
0010
0100
0100
0001
0010
0000
,
0001
0000
0010
0100
0100
1000
0010
0000
,
4004
0000
3003
0000
1000
0100
0010
0000
,
0001
0000
0010
0001
0100
0010
1000
0000
,
0100
0000
1000
0010
0010
0100
0001
0000
,
0100
0000
0001
0010
0010
0100
1000
0000
,
0001
0001
0100
0000
0010
1000
0400
0000
,
0310
0010
0001
0000
0100
0010
1000
0000
,
0001
0001
0010
0000
0100
1000
0010
0000
,
1000
1000
0010
0000
0100
0001
0010
0000
,
0001
0100
0010
0000
1000
0100
0040
0000
,
0130
1000
0010
0000
0100
0001
0010
0000
,
0001
0100
0010
0000
1000
0100
0010
0000
,
0100
1000
0010
0000
0100
0001
1000
0400
,
0310
0004
0000
0000
0003
0000
0001
1000
,
0000
0000
0001
0000
0000
0000
0001
1000
,
0000
0100
0000
0100
,
0000
0100
0000
0000
;

//---------------dance-single - ----------------
#NOTES:
     dance-single:
     :
     Easy:
     4:
     0.229060,0.234543,0.056859,0.022744,0.000000,141.000000,136.000000,5.000000,2.000000,0.000000,0.000000,0.229060,0.234543,0.056859,0.022744,0.000000,141.000000,136.000000,5.000000,2.000000,0.000000,0.000000:
0000
0000
0000
0000
,
0000
0000
0000
0000
,
0000
0000
0000
0000
,
0000
0000
0000
0000
,
0000
1000
0000
0001
,
0000
1000
4004
3003
,
0001
0001
0010
0010
,
0100
0100
1000
1000
,
0001
0001
0100
0100
,
0010
0010
1000
0001
,
4004
3003
1000
1000
,
0100
0100
0010
0010
,
0001
0001
0100
0100
,
0010
0010
1000
1000
,
0001
0100
0001
0010
,
0100
1000
0010
1000
,
0001
0010
0100
1000
,
0010
0100
0001
1000
,
0001
0010
0100
1000
,
0010
0100
0001
0010
,
0001
0100
0010
1000
,
0100
1000
0010
0100
,
4004
3003
0001
0001
,
0100
0100
0010
0010
,
1000
1000
0100
0100
,
0010
0010
0001
1000
,
4004
3003
0001
0001
,
0100
0100
0010
0010
,
1000
1000
0001
0001
,
1000
1000
0100
0100
,
0010
0001
1000
0001
,
0100
0010
1000
0001
,
1000
0100
1000
0100
,
0010
0001
0010
0001
,
0100
0010
1000
0001
,
1000
0100
0010
0001
,
0100
0010
1000
0001
,
1000
0100
0010
0100
,
2002
0000
3003
1000
,
0000
0001
0000
1000
,
0000
0100
0000
0100
,
0000
0100
0000
0000
;

//---------------dance-single - ----------------
#NOTES:
     dance-single:
     :
     Beginner:
     2:
     0.126714,0.140726,0.045487,0.000000,0.000000,78.000000,74.000000,4.000000,0.000000,0.000000,0.000000,0.126714,0.140726,0.045487,0.000000,0.000000,78.000000,74.000000,4.000000,0.000000,0.000000,0.000000:
0000
0000
0000
0000
,
0000
0000
0000
0000
,
0000
0000
0000
0000
,
0000
0000
0000
0000
,
0000
1000
0000
1000
,
0000
1000
0000
0000
,
0001
0000
0001
0000
,
0100
0000
0100
0000
,
0010
0000
0010
0000
,
1000
0000
1000
0000
,
1001
0000
0001
0000
,
0010
0000
0010
0000
,
0100
0000
0100
0000
,
1000
0000
1000
0000
,
0001
0000
0100
0000
,
0001
0000
0100
0000
,
0010
0000
1000
0000
,
0010
0000
1000
0000
,
0001
0000
0010
0000
,
0001
0000
0010
0000
,
0100
0000
1000
0000
,
0100
0000
1000
0000
,
1001
0000
1000
0000
,
0010
0000
0010
0000
,
0100
0000
0100
0000
,
0001
0000
0001
0000
,
1001
0000
0001
0000
,
0010
0000
0010
0000
,
0100
0000
0100
0000
,
1000
0000
1000
0000
,
0001
0000
1000
0000
,
0001
0000
1000
0000
,
0100
0000
0010
0000
,
0100
0000
0010
0000
,
0001
0000
0100
0000
,
0010
0000
0100
0000
,
0001
0000
0010
0000
,
0100
0000
1000
0000
,
1001
0000
0000
1000
,
0000
0001
0000
1000
,
0000
0100
0000
0100
,
0000
0100
0000
0000
;
