#VERSION:0.83;
#TITLE:Dough-Nuts Town's map;
#SUBTITLE:;
#ARTIST:Plus-Tech Squeeze Box;
#TITLETRANSLIT:;
#SUBTITLETRANSLIT:;
#ARTISTTRANSLIT:;
#GENRE:Cartoon Pop;
#ORIGIN:;
#CREDIT:;
#BANNER:Dough-Nuts Town's map.png;
#BACKGROUND:Dough-Nuts Town's map-bg.png;
#PREVIEWVID:;
#JACKET:Dough-Nuts Town's map-jacket.png;
#CDIMAGE:;
#DISCIMAGE:;
#LYRICSPATH:;
#CDTITLE:cdtitle.png;
#MUSIC:Dough-Nuts Town's map.ogg;
#OFFSET:-0.085462;
#SAMPLESTART:31.188404;
#SAMPLELENGTH:14.117645;
#SELECTABLE:YES;
#BPMS:0.000=136.000,
238.000=139.300,
239.000=149.080;
#STOPS:238.000=1.741;
#DELAYS:;
#WARPS:;
#TIMESIGNATURES:0.000=4=4;
#TICKCOUNTS:0.000=4;
#COMBOS:0.000=1;
#SPEEDS:0.000=1.000=0.000=0;
#SCROLLS:0.000=1.000;
#FAKES:;
#LABELS:0.000=Song Start;
#BGCHANGES:;
#KEYSOUNDS:;
#ATTACKS:
;

//---------------dance-single - ----------------
#NOTEDATA:;
#CHARTNAME:;
#STEPSTYPE:dance-single;
#DESCRIPTION:;
#CHARTSTYLE:;
#DIFFICULTY:Challenge;
#METER:15;
#RADARVALUES:0.771941,0.791526,0.296197,0.448298,0.696462,675.000000,638.000000,37.000000,56.000000,0.000000,0.000000,0.000000,0.000000,0.000000,0.771941,0.791526,0.296197,0.448298,0.696462,675.000000,638.000000,37.000000,56.000000,0.000000,0.000000,0.000000,0.000000,0.000000;
#CREDIT:;
#OFFSET:-0.085462;
#BPMS:0.000000=136.000000
,238.000000=138.139008
,239.000000=149.080002
;
#STOPS:238.000000=1.737381
;
#DELAYS:;
#WARPS:;
#TIMESIGNATURES:0.000000=4=4
;
#TICKCOUNTS:0.000000=4
;
#COMBOS:0.000000=1
;
#SPEEDS:0.000000=1.000000=0.000000=0
;
#SCROLLS:0.000000=1.000000
,238.000000=1.079202
,239.000000=1.000000
;
#FAKES:;
#LABELS:0.000000=Song Start
;
#NOTES:
// measure 0
0000
0000
0000
0000
,  // measure 1
0000
0000
0000
0000
,  // measure 2
2000
0000
3010
0000
0002
0000
0013
0000
1000
0000
0100
0010
0000
0002
0100
0000
,  // measure 3
0203
0000
0310
2000
0000
0000
3001
0200
0000
0000
0310
0100
0001
0000
1000
0000
,  // measure 4
0100
0000
0001
0000
0100
1000
0000
0200
0000
0310
0001
1000
0001
0100
0010
1000
,  // measure 5
0002
0000
0103
0000
0010
1000
0000
0001
0020
0000
0130
0010
0001
0100
0010
1000
,  // measure 6
0002
0000
0013
0000
2000
0000
3010
0000
0001
0000
0100
0010
0000
2000
0100
0000
,  // measure 7
3100
0000
0010
0002
1000
0000
1003
0000
0001
0000
0100
0010
1000
0000
0001
0000
,  // measure 8
1000
0000
0100
0000
0020
0000
0000
0031
0010
0001
0100
0001
1000
0000
0010
0000
,  // measure 9
1000
0100
0000
0010
0001
0100
0010
0000
1000
0001
0100
0001
0100
0001
1000
0010
,  // measure 10
1000
0001
0000
1000
0001
0000
0010
0000
0100
1000
0000
0001
0000
0100
0010
0100
,  // measure 11
0001
0000
0001
1000
0100
0000
0010
0000
0100
1000
0000
1000
0000
0001
0100
0000
,  // measure 12
0010
0000
1000
0000
0001
1000
0100
0010
0001
0010
0100
0000
1000
0000
0001
0000
,  // measure 13
0101
0110
1010
1001
2200
0000
3300
1000
,  // measure 14
1002
0000
0203
0000
2300
0000
3200
0320
,  // measure 15
2030
0000
3200
0302
0203
0000
0320
0000
,  // measure 16
0031
0000
0010
0001
0100
0000
0010
1000
0000
0100
0000
0010
0001
0000
1000
0001
,  // measure 17
0100
0000
0100
0000
0010
1000
0100
0010
0001
0000
1000
0000
0100
0000
0010
0000
,  // measure 18
0012
0010
0103
0010
2010
0010
3100
0010
,  // measure 19
0001
0000
1000
0000
0001
0100
0000
0210
0000
0310
1000
0001
1000
0100
0010
0001
,  // measure 20
1000
0000
0100
0000
0010
0000
0001
0100
0000
0100
0010
0000
1000
0000
0100
0000
,  // measure 21
0020
0000
0100
0000
0130
0000
0010
0000
0011
0000
0000
1001
0000
0000
0101
0000
,  // measure 22
2010
0010
3100
0010
0012
0010
0103
0010
,  // measure 23
1000
0000
0001
0000
1000
0100
0000
0120
0000
0130
0010
0001
1000
0001
0100
0010
,  // measure 24
1000
0000
0001
0000
1000
0000
0100
0010
0000
0010
0100
0000
1000
0000
0010
0000
,  // measure 25
0001
0000
0010
0000
1000
0000
0100
0000
0010
0000
0001
1000
0001
1000
0001
1000
,  // measure 26
0010
0000
0100
0000
0010
0000
0100
0001
0000
0001
0100
0000
0010
0000
1000
0100
,  // measure 27
0010
0000
0100
0000
0010
0000
0100
1000
0000
1000
0100
0000
0020
0000
0000
0000
,  // measure 28
0031
0000
0100
0000
0010
0000
0100
0001
0000
0001
0100
0000
0010
0000
1000
0100
,  // measure 29
0010
0000
0100
0000
1000
0000
0000
1000
0100
0010
0001
0000
0101
0000
0110
0000
,  // measure 30
1010
0000
1000
0000
0001
0000
1000
0010
0000
0010
0100
0000
0001
0000
1000
0100
,  // measure 31
0010
0000
0001
0000
1000
0000
0001
0010
0000
0010
0100
0000
2000
0000
0000
0000
,  // measure 32
3001
0000
1000
0000
0010
0000
0100
0001
0000
0001
1000
0000
0001
0000
0010
0100
,  // measure 33
1000
0000
0010
0000
0100
0000
0000
0100
0001
1000
0100
0000
1000
0100
0010
0001
,  // measure 34
1000
0000
0001
0000
1000
0000
0100
0010
0000
0001
0100
0000
0010
0000
0100
1000
,  // measure 35
0100
0000
0010
0000
1000
0000
0100
0010
0000
0010
0100
0000
2000
0000
0010
0000
,  // measure 36
3001
0000
1000
0000
0001
0000
0100
0010
0000
1000
0100
0000
0010
0000
0100
0001
,  // measure 37
0100
0000
0010
0000
0001
0000
1000
0010
0100
0001
1000
0100
1000
0100
0010
0001
,  // measure 38
0100
0000
0010
0000
1000
0000
0100
0010
0000
0001
0100
0000
0010
0000
0100
1000
,  // measure 39
0100
0000
0001
0000
0010
0000
0100
1000
0000
1000
0001
0000
0100
0000
0010
0000
,  // measure 40
1000
0000
0001
0010
0001
1000
0001
0100
0001
1000
0001
1000
0001
0100
0001
1000
,  // measure 41
0100
0010
0001
2000
0000
0000
3001
0000
0100
0000
0010
1000
0100
0010
0001
0000
,  // measure 42
2002
0000
3003
0002
0200
0000
0303
1000
,  // measure 43
0100
0000
0010
0000
0001
1000
0000
0001
1000
0100
1000
0100
0010
0001
1000
0010
,  // measure 44
0100
0000
0001
0000
0100
0000
0010
1000
0000
1000
0100
0000
0001
0000
0100
0000
,  // measure 45
0020
0000
0001
0000
0031
0000
0100
0000
0110
0000
0000
1010
0000
0000
1001
0000
,  // measure 46
0102
0100
0013
0100
2100
0100
3010
0100
,  // measure 47
0001
0000
0010
0000
0001
0100
0000
0210
0000
0310
1000
0001
1000
0100
0010
0001
,  // measure 48
1000
0000
0010
0000
1000
0000
0100
0010
0000
0001
0100
0000
0010
0000
1000
0000
,  // measure 49
0010
0000
0001
0000
0010
0000
1000
0000
0100
0010
0001
1000
0001
0100
0010
0000
,  // measure 50
2010
0100
3100
0010
0012
0100
0103
0010
,  // measure 51
0001
0000
0010
0000
1000
0100
0000
0210
0000
0301
0100
0010
0100
1000
0100
1000
,  // measure 52
0010
0000
0100
0000
0001
0000
0010
0001
0000
0001
0100
0000
1000
0000
0100
0000
,  // measure 53
0002
0000
0010
0000
0013
0000
0100
0000
1100
0000
0000
1010
0000
0000
1001
0000
,  // measure 54
0012
0100
0103
0010
2010
0100
3100
0010
,  // measure 55
1000
0000
0010
0000
0001
0100
0000
0210
0000
1300
0100
0010
0100
0001
0100
0001
,  // measure 56
1000
0000
0100
0000
0010
0000
0001
1000
0000
0001
0100
0000
0010
0000
1000
0000
,  // measure 57
0001
0000
0010
0000
1000
0000
0010
0000
0001
0000
0100
0001
0100
0001
0100
0001
,  // measure 58
0000
1000
0010
1000
0100
0010
0001
0100
,  // measure 59
1000
0000
0100
0000
0001
0000
0010
0000
0001
0000
0000
0000
1000
0000
0001
0100
,  // measure 60
0010
0000
0100
0000
0001
0000
1000
0000
1000
0000
0010
0000
1000
0000
0001
0010
,  // measure 61
0100
0000
0010
0000
0001
0000
1000
0000
1000
0000
0001
0000
0100
0000
0001
0010
,  // measure 62
0100
1000
0100
0010
0002
0000
0000
0000
2003
0000
0000
0000
3020
0000
0000
0000
,  // measure 63
1030
0000
0010
1000
0010
0000
0100
0000
0001
0010
0100
1000
0001
0000
0100
0001
,  // measure 64
0010
0000
0100
0000
1000
0000
0010
0000
0010
0000
0100
0000
0001
0000
0010
0001
,  // measure 65
0100
0000
0010
0000
1000
0000
0100
0000
0100
0000
1000
0000
0010
0000
0100
0001
,  // measure 66
0010
0000
0100
0000
0010
0000
1000
0000
1000
0000
0010
0000
0001
0000
0010
0001
,  // measure 67
0100
0010
0100
1000
1000
0100
0001
0010
,  // measure 68
0000
0000
0110
0000
0000
0000
0011
0000
0000
0001
1000
0000
0010
0000
0100
0000
,  // measure 69
0000
0110
0000
0010
2000
0000
0000
0000
,  // measure 70
0000
0000
0000
0000
0000
3000
0000
0000
;

//---------------dance-single - ----------------
#NOTEDATA:;
#CHARTNAME:;
#STEPSTYPE:dance-single;
#DESCRIPTION:;
#CHARTSTYLE:;
#DIFFICULTY:Hard;
#METER:12;
#RADARVALUES:0.594681,0.537107,0.272181,0.448298,0.232154,520.000000,486.000000,34.000000,56.000000,0.000000,0.000000,0.000000,0.000000,0.000000,0.594681,0.537107,0.272181,0.448298,0.232154,520.000000,486.000000,34.000000,56.000000,0.000000,0.000000,0.000000,0.000000,0.000000;
#CREDIT:;
#OFFSET:-0.085462;
#BPMS:0.000000=136.000000
,238.000000=138.139008
,239.000000=149.080002
;
#STOPS:238.000000=1.737381
;
#DELAYS:;
#WARPS:;
#TIMESIGNATURES:0.000000=4=4
;
#TICKCOUNTS:0.000000=4
;
#COMBOS:0.000000=1
;
#SPEEDS:0.000000=1.000000=0.000000=0
;
#SCROLLS:0.000000=1.000000
,238.000000=1.079202
,239.000000=1.000000
;
#FAKES:;
#LABELS:0.000000=Song Start
;
#NOTES:
0000
0000
0000
0000
,
0000
0000
0000
0000
,
2200
0000
3300
0000
0022
0000
0033
0000
0001
0000
0100
0010
0000
1000
0000
0000
,
1010
0000
0000
0102
0000
0000
1003
0000
0001
0000
0010
0000
0100
0000
1000
0000
,
0001
0000
0100
0000
0001
0100
0000
0001
0000
1000
0100
0000
0010
0000
0001
0000
,
2000
0000
0000
0000
3001
0100
0000
0010
1000
0000
0100
0000
0010
0000
0001
0000
,
0202
0000
0303
0000
2020
0000
3030
0000
1000
0000
0100
0010
0000
0001
0000
0000
,
0011
0000
0000
2100
0000
0000
3001
0000
0100
0000
0001
0000
1000
0000
0100
0000
,
1000
0000
1000
0000
0002
0000
0003
0010
0001
0000
0100
0000
0010
0000
1000
0000
,
0100
0010
0000
0001
1000
0000
0001
0000
0100
0000
0010
0000
1000
0000
0000
0000
,
0001
0100
0010
0100
0001
1000
0100
0000
,
0010
0100
1000
0010
0100
0001
1000
0000
,
0001
0010
0001
0100
0010
1000
0100
0000
,
1000
0100
0001
0100
2000
0000
0000
3001
,
0200
0000
0320
0000
2030
0000
3002
2003
,
3200
0000
0302
0203
2300
0000
3020
0000
,
1030
0000
0001
0000
0100
0000
0001
1000
0000
0100
0000
1000
0001
0000
0000
0000
,
1000
0100
0010
0001
0000
0001
0100
0010
,
2010
0000
3001
0001
0012
0000
1003
1000
,
0010
0000
1000
0000
0001
0010
0000
0012
0000
0000
1003
0000
0100
0000
0010
0000
,
0001
0100
1000
0100
0010
0100
0001
0010
,
0120
0000
0000
0000
0130
0000
0010
0000
0011
0000
0000
1100
0000
0000
0001
0000
,
0102
0000
1003
1000
2100
0000
3001
0001
,
0100
0000
0001
0000
1000
0100
0000
1200
0000
0000
0310
0000
0001
0000
1000
0000
,
0001
0010
0100
1000
0001
1000
0010
0100
,
0001
0100
1000
0100
0001
1000
0100
0010
,
0001
0000
1000
0000
0001
0000
0000
0100
0000
0100
0010
0000
1000
0000
0001
0000
,
0010
0000
0100
0000
1000
0000
0000
0100
0000
0100
0010
0000
0002
0000
0000
0000
,
1003
0000
0001
0000
1000
0000
0000
0010
0000
0010
0100
0000
0001
0000
1000
0000
,
0100
0000
0010
0000
0001
0000
0000
0001
0100
0000
0010
0000
1000
0000
1000
0000
,
1000
0000
0001
0000
1000
0000
0000
0010
0000
0010
1000
0000
0100
0000
0010
0000
,
0001
0000
0100
0000
0010
0000
0000
0100
0000
0100
0001
0000
2000
0000
0000
0000
,
3100
0000
0010
0000
0001
0000
0000
1000
0000
1000
0001
0000
0100
0000
0010
0000
,
1000
0000
0001
0000
0010
0000
0000
0010
0001
0000
1000
0000
0010
0000
0100
0000
,
0001
0000
0010
0000
0001
0000
0100
0010
0000
0010
1000
0000
0100
0000
0001
0000
,
0100
0000
1000
0000
0010
0000
0100
0001
0000
1000
0100
0000
0020
0000
0000
0000
,
0130
0000
1000
0000
0010
0000
0100
0001
0000
0001
1000
0000
0100
0000
0010
0000
,
1000
0000
0010
0000
0001
0000
0000
1000
0010
0000
0100
0000
0002
0000
0000
0000
,
1003
0000
0100
0000
0010
0000
0001
0100
0000
0100
0010
0000
1000
0000
0010
0000
,
0001
0000
0010
0000
1000
0000
0100
0010
0000
0001
0100
0000
0010
0000
1000
0000
,
0001
1000
0100
0010
0100
1000
0100
0010
,
0001
0000
1000
0002
0000
0000
1003
0000
0001
0000
0100
0000
0010
0000
1000
0000
,
2002
0000
3003
2000
0200
3000
0300
1000
,
0100
0000
0010
0000
0001
1000
0000
2002
0000
0000
0000
0000
3003
0000
0000
0000
,
1000
0100
0001
0100
0010
0100
1000
0010
,
0120
0000
0000
0000
0130
0000
0010
0000
1010
0000
0000
0011
0000
0000
1000
0000
,
2010
0000
3001
0001
0102
0000
1003
1000
,
0100
0000
0010
0000
0001
1000
0000
1002
0000
0000
1003
0000
0001
0000
0100
0000
,
0010
1000
0100
0010
0100
1000
0010
0100
,
0001
0100
1000
0100
0001
0010
0100
1000
,
2100
0000
3010
0010
0102
0000
0013
0010
,
0100
0000
1000
0000
0001
0100
0000
0120
0000
0000
1030
0000
0100
0000
0010
0000
,
0001
0100
1000
0100
0001
0100
0010
1000
,
1002
0000
0000
0000
1003
0000
0001
0000
0011
0000
0000
1100
0000
0000
0001
0000
,
0102
0000
0013
0010
2100
0000
3010
0010
,
0100
0000
0001
0000
1000
0100
0000
0120
0000
0000
0031
0000
1000
0000
0100
0000
,
0010
0001
0100
1000
0100
0001
1000
0001
,
0010
1000
0010
0001
1000
0001
0100
0010
,
0000
1000
0010
0100
0001
1000
0100
0010
,
0001
0100
0010
1000
0001
0000
1000
0000
,
1000
0000
0100
0010
0001
1000
0010
0000
,
0010
0000
1000
0010
0100
0001
1000
0000
,
0001
0100
2000
0000
3200
0000
0302
0000
,
0003
1000
0010
1000
0001
0010
0001
1000
,
0001
0100
0001
0100
0010
1000
0001
1000
,
0100
1000
0100
0010
0001
1000
0010
0100
,
0001
1000
0001
1000
0100
0010
0001
0100
,
0001
1000
0001
1000
0010
0100
0001
0000
,
1000
0001
0000
1000
0000
0001
0010
0000
,
0100
0010
0000
0100
2000
0000
0000
0000
,
0000
0000
0000
0000
0000
3000
0000
0000
;

//---------------dance-single - ----------------
#NOTEDATA:;
#CHARTNAME:;
#STEPSTYPE:dance-single;
#DESCRIPTION:;
#CHARTSTYLE:;
#DIFFICULTY:Medium;
#METER:9;
#RADARVALUES:0.426569,0.452300,0.152101,0.432287,0.072048,373.000000,354.000000,19.000000,54.000000,0.000000,0.000000,0.000000,0.000000,0.000000,0.426569,0.452300,0.152101,0.432287,0.072048,373.000000,354.000000,19.000000,54.000000,0.000000,0.000000,0.000000,0.000000,0.000000;
#CREDIT:;
#OFFSET:-0.085462;
#BPMS:0.000000=136.000000
,238.000000=138.139008
,239.000000=149.080002
;
#STOPS:238.000000=1.737381
;
#DELAYS:;
#WARPS:;
#TIMESIGNATURES:0.000000=4=4
;
#TICKCOUNTS:0.000000=4
;
#COMBOS:0.000000=1
;
#SPEEDS:0.000000=1.000000=0.000000=0
;
#SCROLLS:0.000000=1.000000
,238.000000=1.079202
,239.000000=1.000000
;
#FAKES:;
#LABELS:0.000000=Song Start
;
#NOTES:
0000
0000
0000
0000
,
0000
0000
0000
0000
,
2000
0000
0000
0000
3002
0000
0000
0000
1003
0000
0000
0001
0000
0010
0000
0000
,
0002
0000
0000
2003
0000
0000
0000
0000
3010
0000
0000
0000
0100
0000
0000
0000
,
0001
0000
1000
0000
0001
0000
0000
1000
0000
0000
0001
0000
0010
0000
0100
0000
,
2000
3001
0200
0300
,
0200
0000
0000
0000
0320
0000
0000
0000
1030
0000
0000
0001
0000
1000
0000
0000
,
0200
0000
0000
0320
0000
0000
0000
0000
0031
0000
1000
0000
0100
0000
0000
0000
,
1000
0000
0002
0000
0103
0010
1000
0000
,
0100
0010
0100
0010
0001
0100
0010
0000
,
1010
0000
1000
0000
1000
0100
0010
0000
,
0001
0000
0001
0000
0010
0001
0100
0010
,
1000
0000
1000
0000
0001
1000
0010
0000
,
1000
0100
0001
0100
2000
0000
0000
3010
,
0200
0000
0302
0000
0023
0000
0032
0203
,
0320
0000
2030
3200
0320
0000
0032
0000
,
1003
0000
0000
0000
0010
0000
0000
0100
0000
0000
0001
0000
1000
0000
0000
0000
,
0100
0010
0001
1000
0000
1000
0010
0100
,
0002
0000
0000
0103
0020
0000
0000
1030
,
0001
0000
0000
0000
1100
0000
0000
0012
0000
0000
0003
0000
0010
0000
0001
0000
,
0000
0100
0010
1000
0000
1000
0100
0010
,
0002
0000
0000
0000
0103
0000
0000
0000
0110
0000
0000
0101
0000
0000
0001
0000
,
2000
0000
0000
3100
0020
0000
0000
0031
,
1000
0000
0000
0000
0101
0000
0000
2010
0000
0000
3000
0000
0010
0000
1000
0000
,
0000
0001
0100
0010
1000
0010
1000
0001
,
1000
0100
0010
0001
1000
0000
0000
0000
,
0001
0000
0001
0000
1000
0010
1000
0000
,
0100
0000
0100
0000
0010
0100
0020
0000
,
0031
0000
0001
0000
1000
0010
1000
0000
,
0100
0000
0100
0000
0010
0001
0100
0010
,
1000
0000
1000
0000
0001
0010
0001
0000
,
0100
0000
0100
0000
0010
0100
0020
0000
,
1030
0000
1000
0000
0001
0010
0001
0000
,
0100
0000
0100
0000
0001
1000
0200
0000
,
1300
0000
0100
0000
0001
0100
1000
0000
,
0001
0000
0100
0000
0010
1000
0200
0000
,
1300
0000
0010
0000
0001
0010
1000
0000
,
0100
0000
0010
0000
0001
1000
0002
0000
,
0103
0000
1000
0000
0001
0010
1000
0000
,
0100
0000
0010
0000
0001
0100
0010
1000
,
0001
0100
1000
0010
,
0001
0000
0000
0001
0000
0000
0100
0000
0010
0000
1000
0000
0001
0000
0000
0000
,
2002
3000
0200
0303
,
1000
0000
0000
0000
0010
0000
0000
2002
0000
0000
0000
0000
3003
0000
0000
0000
,
1000
0100
0010
0001
0000
0001
0100
0010
,
2000
0000
0000
0000
3100
0000
0000
0000
0110
0000
0000
1100
0000
0000
0010
0000
,
0002
0000
0000
0103
0020
0000
0000
1030
,
0001
0000
0000
0000
1010
0000
0000
0102
0000
0000
0003
0000
1000
0000
0100
0000
,
0000
0100
0010
0001
1000
0001
0100
0001
,
1000
0100
0010
0100
1000
0001
1000
0001
,
2000
0000
0000
3001
0200
0000
0000
0310
,
1000
0000
0000
0000
0011
0000
0000
2100
0000
0000
3000
0000
0100
0000
0010
0000
,
0000
0010
0001
0100
0000
0100
0010
1000
,
0002
0000
0000
0000
0013
0000
0000
0000
1100
0000
0000
0101
0000
0000
0001
0000
,
2000
0000
0000
3010
0200
0000
0000
0301
,
1000
0000
0000
0000
1100
0000
0000
0021
0000
0000
0000
0000
0130
0000
1000
0000
,
0000
1000
0010
0100
0001
1000
0001
1000
,
0010
1000
0100
0010
0001
0100
0010
0010
,
0000
1000
0100
0010
,
0001
0100
0010
1000
0001
0000
1000
0100
,
1000
0000
0100
0000
0010
0000
0001
0100
,
0001
0100
0010
1000
,
0100
0010
0002
0000
0203
0000
0320
0000
,
0000
1030
0010
0100
0001
0000
1000
0100
,
0010
0000
0100
0010
0001
0000
0100
0010
,
1000
0000
0001
0100
0010
0000
1000
0100
,
0010
0000
0100
0010
0001
0000
0100
0010
,
1000
0000
0001
0100
0010
0000
1000
0000
,
0001
1000
0000
0001
0000
0010
0100
0000
,
0010
0100
0000
0000
2000
0000
0000
0000
,
0000
0000
0000
0000
0000
3000
0000
0000
;

//---------------dance-single - ----------------
#NOTEDATA:;
#CHARTNAME:;
#STEPSTYPE:dance-single;
#DESCRIPTION:;
#CHARTSTYLE:;
#DIFFICULTY:Easy;
#METER:5;
#RADARVALUES:0.288191,0.339225,0.152101,0.424282,0.000000,252.000000,233.000000,19.000000,53.000000,0.000000,0.000000,0.000000,0.000000,0.000000,0.288191,0.339225,0.152101,0.424282,0.000000,252.000000,233.000000,19.000000,53.000000,0.000000,0.000000,0.000000,0.000000,0.000000;
#CREDIT:;
#OFFSET:-0.085462;
#BPMS:0.000000=136.000000
,238.000000=138.139008
,239.000000=149.080002
;
#STOPS:238.000000=1.737381
;
#DELAYS:;
#WARPS:;
#TIMESIGNATURES:0.000000=4=4
;
#TICKCOUNTS:0.000000=4
;
#COMBOS:0.000000=1
;
#SPEEDS:0.000000=1.000000=0.000000=0
;
#SCROLLS:0.000000=1.000000
,238.000000=1.079202
,239.000000=1.000000
;
#FAKES:;
#LABELS:0.000000=Song Start
;
#NOTES:
0000
0000
0000
0000
,
0000
0000
0000
0000
,
1000
0001
1000
0100
,
0010
0002
0000
0003
,
1000
0100
1000
0010
,
0100
0001
2000
3000
,
0001
1000
0001
0010
,
0100
2000
0000
3000
,
0001
0010
0100
1000
,
0010
0100
0001
0000
,
0001
0001
1000
1000
,
0001
0001
0100
0100
,
0010
0010
1000
1000
,
1001
0110
1002
0000
,
2003
3200
0320
0032
,
2003
3020
0230
0302
,
1003
0100
0010
0001
,
0100
0010
0000
1000
,
2001
3000
0002
0003
,
1000
0010
2002
3003
,
0001
0100
0000
0010
,
0220
0330
0001
1000
,
1002
0003
2000
3000
,
0001
0010
2002
3003
,
0001
0100
1000
0100
,
0001
0010
0100
0000
,
1000
1000
0001
0100
,
0010
0010
1000
0002
,
1003
1000
0100
0010
,
0001
0001
0100
0010
,
1001
1000
0010
0100
,
0001
0001
0010
0200
,
1300
1000
0001
0100
,
0010
0010
1000
0002
,
1003
0100
0001
0010
,
1000
0100
0100
0020
,
0031
0100
1000
0010
,
0001
0100
0100
0020
,
1030
0100
0001
0010
,
1000
0100
0010
0001
,
0100
0100
0010
0010
,
1000
0000
1000
0100
,
2002
0003
0200
3300
,
0010
0001
2002
3003
,
0001
0100
0000
0010
,
0220
0330
1000
0100
,
2001
3000
0002
0003
,
1000
0010
2002
3003
,
1000
0100
0001
0100
,
1000
0010
0100
0001
,
2001
3000
0002
0003
,
0100
0010
2002
3003
,
1000
0100
0000
0010
,
2002
3003
0100
0010
,
1002
0003
0200
0300
,
0010
0100
2002
3003
,
1000
0010
0001
0010
,
1000
0100
0010
0001
,
0000
0001
0100
0010
,
1000
0001
0010
0001
,
0001
0100
0100
0010
,
0010
1000
1000
0001
,
2000
3200
0320
0032
,
0000
0013
0001
1000
,
1000
0010
0010
0100
,
0100
0001
0001
1000
,
1000
0100
0100
0010
,
0010
0001
0001
1000
,
0000
0001
0001
0100
,
0000
0010
2000
0000
,
0000
0000
0000
0000
0000
3000
0000
0000
;

//---------------dance-single - ----------------
#NOTEDATA:;
#CHARTNAME:;
#STEPSTYPE:dance-single;
#DESCRIPTION:;
#CHARTSTYLE:;
#DIFFICULTY:Beginner;
#METER:2;
#RADARVALUES:0.139521,0.172014,0.008005,0.080053,0.000000,122.000000,121.000000,1.000000,10.000000,0.000000,0.000000,0.000000,0.000000,0.000000,0.139521,0.172014,0.008005,0.080053,0.000000,122.000000,121.000000,1.000000,10.000000,0.000000,0.000000,0.000000,0.000000,0.000000;
#CREDIT:;
#OFFSET:-0.085462;
#BPMS:0.000000=136.000000
,238.000000=138.139008
,243.000000=149.080002
;
#STOPS:;
#DELAYS:;
#WARPS:;
#TIMESIGNATURES:0.000000=4=4
;
#TICKCOUNTS:0.000000=4
;
#COMBOS:0.000000=1
;
#SPEEDS:0.000000=1.000000=0.000000=0
;
#SCROLLS:0.000000=1.096176
,238.000000=1.079202
,243.000000=1.000000
;
#FAKES:;
#LABELS:0.000000=Song Start
;
#NOTES:
0000
0000
0000
0000
,
0000
0000
0000
0000
,
1000
0000
0001
0000
,
0200
0000
0300
0000
,
0010
0000
0010
0000
,
1000
0000
0001
0000
,
1000
0000
0001
0000
,
0020
0000
0030
0000
,
0001
0000
0100
0000
,
0010
0000
1000
0000
,
0001
0000
0000
0000
,
0100
0000
0000
0000
,
0010
0000
0000
0000
,
1000
1000
1000
0000
,
0002
0000
0000
0000
,
2000
0000
0000
3003
,
1000
0000
1000
0000
,
0001
0001
0000
0000
,
1000
0000
0100
0000
,
0010
0010
0020
0030
,
0000
0001
0000
0001
,
0001
0000
1000
0000
,
0001
0000
0100
0000
,
0010
0010
0020
0030
,
1000
0000
1000
0000
,
0001
0001
0001
0000
,
1000
0000
0000
0000
,
0100
0000
0000
0000
,
0010
0000
0000
0000
,
0001
0000
1000
0000
,
0001
0000
0000
0000
,
0100
0000
0000
0000
,
0010
0000
0000
0000
,
1000
0000
0001
0000
,
1000
0000
0100
0000
,
1000
0000
0100
0000
,
0010
0000
0001
0000
,
0010
0000
0001
0000
,
1000
0000
0010
0000
,
1000
0000
0001
0000
,
1000
0000
0100
0000
,
0100
0000
0000
0000
,
1001
0000
0000
0000
,
0100
0000
0000
0000
,
0000
1000
0000
1000
,
1000
0000
0001
0000
,
1000
0000
0010
0000
,
0100
0100
0200
0300
,
0001
0000
0001
0000
,
1000
1000
1000
0000
,
0001
0000
0010
0000
,
0100
0100
0200
0300
,
0000
0010
0000
0010
,
0010
0000
0001
0000
,
1000
0000
0010
0000
,
0100
0100
0200
0300
,
0010
0000
0010
0000
,
1000
1000
1000
0000
,
0001
0000
0000
0000
,
0000
0000
0000
0000
,
0000
0000
0000
0001
,
0000
0000
0000
0100
,
0000
0000
0000
0010
,
0000
1000
0000
0001
,
0000
1000
0000
0100
,
0000
0000
0000
0010
,
0000
0000
0000
0001
,
0000
0000
0000
1000
,
0000
0000
0000
0001
,
0000
0001
0000
1000
,
0000
0010
0020
0000
,
0000
0000
0000
0000
0000
0030
0000
0000
;
