#VERSION:0.83;
#TITLE:Double Helix;
#SUBTITLE:;
#ARTIST:xi;
#TITLETRANSLIT:;
#SUBTITLETRANSLIT:;
#ARTISTTRANSLIT:;
#GENRE:Progressive;
#ORIGIN:;
#CREDIT:;
#BANNER:Double Helix.png;
#BACKGROUND:Double Helix-bg.png;
#PREVIEWVID:;
#JACKET:Double Helix-jacket.png;
#CDIMAGE:;
#DISCIMAGE:;
#LYRICSPATH:;
#CDTITLE:cdtitle.png;
#MUSIC:Double Helix.ogg;
#OFFSET:-0.053505;
#SAMPLESTART:16.976582;
#SAMPLELENGTH:12.287692;
#SELECTABLE:YES;
#BPMS:0.000=156.000;
#STOPS:;
#DELAYS:;
#WARPS:;
#TIMESIGNATURES:0.000=4=4;
#TICKCOUNTS:0.000=4;
#COMBOS:0.000=1;
#SPEEDS:0.000=1.000=0.000=0;
#SCROLLS:0.000=1.000;
#FAKES:;
#LABELS:0.000=Song Start;
#BGCHANGES:;
#KEYSOUNDS:;
#ATTACKS:
;

//---------------dance-single - ----------------
#NOTEDATA:;
#CHARTNAME:;
#STEPSTYPE:dance-single;
#DESCRIPTION:;
#CHARTSTYLE:;
#DIFFICULTY:Hard;
#METER:14;
#RADARVALUES:0.737833,0.768522,0.466113,0.052626,0.661580,687.000000,625.000000,62.000000,7.000000,0.000000,0.000000,0.000000,0.000000,0.000000,0.737833,0.768522,0.466113,0.052626,0.661580,687.000000,625.000000,62.000000,7.000000,0.000000,0.000000,0.000000,0.000000,0.000000;
#CREDIT:;
#NOTES:
// measure 0
0000
0000
0000
0000
,  // measure 1
0000
0000
0000
0000
,  // measure 2
0000
0000
0000
0000
,  // measure 3
0000
0000
0000
0000
,  // measure 4
0000
0000
0000
0000
,  // measure 5
0001
0000
0000
0000
1000
0000
0000
0001
0100
0000
0010
0000
0100
0000
0001
0000
,  // measure 6
0010
0100
1000
0010
0100
0001
0010
0001
,  // measure 7
0100
0000
0010
1000
0000
1000
0100
0000
0010
0001
0000
0001
0100
0000
0010
0000
,  // measure 8
1000
0000
0000
0000
0010
0000
0000
0000
1000
0000
0000
0000
0001
0000
0000
0000
0010
0000
0000
0000
0001
0000
0000
0000
0200
0000
0000
0000
0000
0000
0000
0000
0000
0000
0000
0000
0301
0000
0000
1000
0000
0000
0001
0000
0000
1000
0000
0000
,  // measure 9
0000
0100
0010
0000
1001
0000
0110
0000
,  // measure 10
1000
0000
0001
0000
0010
0000
0001
0100
0000
0010
1000
0000
0100
0000
0010
0000
,  // measure 11
0000
0000
0001
0000
0011
0000
0000
1100
0000
0000
1000
0100
1000
0000
0001
0000
,  // measure 12
0100
0000
1000
0000
0100
0001
0000
0010
0000
0100
0000
0100
1000
0000
0001
0100
,  // measure 13
0000
0000
0010
0000
1000
0010
0100
0001
0000
0000
0010
0001
0010
0001
0000
1001
,  // measure 14
0000
0000
0001
0000
0100
0000
0000
1010
0000
0000
1000
0100
0010
0001
0000
0010
,  // measure 15
0001
0000
0100
0000
0101
0000
0000
1010
0000
0000
1000
0010
1000
0000
0010
0000
,  // measure 16
0001
0000
0010
0000
1000
0100
0000
0010
0000
0001
0000
0001
1000
0000
0001
0100
,  // measure 17
0000
0000
0010
1000
0010
1000
0010
0000
0100
0000
0001
0000
0011
0000
0000
1001
,  // measure 18
0000
0000
1000
0010
1000
0000
0100
0010
0000
0000
0001
0010
0100
1000
0001
0000
,  // measure 19
0200
0000
0000
0000
,  // measure 20
0310
1000
0000
1000
0100
0010
0000
0010
0001
0000
0001
0100
0010
0000
1000
0000
,  // measure 21
0100
0000
0000
0000
0000
0000
0000
0000
1000
0000
0000
1000
0000
0000
1000
0000
,  // measure 22
0001
0000
0000
0000
0000
0000
0000
0000
0001
0000
0000
0001
0000
0000
0001
0000
,  // measure 23
1000
0010
0100
0001
,  // measure 24
1000
0010
1000
0010
1000
0000
0001
0000
0100
0000
1000
0000
0100
0000
0001
0000
,  // measure 25
0010
0000
0001
0000
0010
0001
0100
0010
,  // measure 26
1000
0000
0000
0000
0010
0000
0000
0000
1010
0000
0000
1001
0000
0000
1000
0000
,  // measure 27
0100
1001
0110
1001
,  // measure 28
0001
0010
0001
0010
0001
0000
1000
0000
0010
0100
0000
0010
0000
0100
0010
0000
,  // measure 29
1000
0000
1000
0000
0100
0000
0100
0000
1000
0000
0001
0100
0000
0010
1000
0000
,  // measure 30
0001
0000
0001
0000
0100
0000
0100
0000
0001
0000
1000
0100
0000
0010
0001
0000
,  // measure 31
1000
0010
0100
0010
0001
0010
0100
0010
,  // measure 32
1000
0100
0010
0100
1000
0000
0001
0000
1000
0000
0010
0000
0100
0000
0001
0000
,  // measure 33
1000
0000
1000
0000
0100
0000
0100
0000
0010
0000
0001
1000
0001
1000
0001
0000
,  // measure 34
0100
0000
0010
1000
0000
0001
0100
0000
0010
0000
1000
0001
1000
0000
0100
0000
,  // measure 35
0010
0100
0001
0100
1000
0100
0001
0100
,  // measure 36
1000
0000
0000
0000
0000
0000
0010
0000
0000
0100
0000
0000
0001
0000
0000
0100
0000
0000
0010
0000
0000
0000
0000
0000
1000
0000
0000
0000
0100
0000
0000
0000
0010
0000
0000
0000
0001
0000
0000
0000
1000
0000
0000
0000
0100
0000
0000
0000
,  // measure 37
0010
0000
0001
0010
0001
1000
0001
0100
,  // measure 38
1000
0000
0000
0100
0000
0000
0010
0000
0000
0000
1000
0000
0001
0000
0010
0000
,  // measure 39
0100
0000
0110
0000
0100
1000
0001
0000
,  // measure 40
0100
0000
0010
0000
1000
0000
0001
0000
0011
0000
0000
0110
0000
0000
1100
0000
,  // measure 41
0000
1000
0100
0001
0100
0010
0000
1001
,  // measure 42
0000
0000
0000
0001
0000
0000
0100
0000
0000
0000
0000
0000
0010
0000
0000
1000
0000
0000
0001
0000
1000
0000
0001
0000
,  // measure 43
0000
1001
1000
0001
0011
0001
1000
1010
,  // measure 44
1000
0001
1001
0000
1000
0100
0001
0100
,  // measure 45
1000
0000
0010
0100
0001
1000
0001
0010
,  // measure 46
1000
0000
0000
0010
0000
0000
0001
0000
0000
0000
0100
0000
0010
0000
1000
0000
,  // measure 47
0000
0001
1001
0000
1000
0100
0010
0000
,  // measure 48
0100
0000
1000
0000
0010
0000
0100
0000
0101
0000
0000
0110
0000
0000
1010
0000
,  // measure 49
0000
1000
0010
0001
0010
0100
0000
0101
,  // measure 50
0000
0000
0000
0001
0000
0000
1000
0000
0000
0100
0000
0000
0001
0000
0000
0100
0000
0000
1000
0000
0010
0000
1000
0000
,  // measure 51
0000
1010
1000
0001
0011
0010
0100
1100
,  // measure 52
1000
0000
0001
0000
0101
0000
0100
0000
0010
1000
0010
0000
1000
0001
0000
0010
,  // measure 53
0000
0011
0010
0100
1100
1000
0001
0101
,  // measure 54
0100
0000
0010
0000
1010
0000
1000
0000
0010
0100
0010
0000
0001
0010
0000
1000
,  // measure 55
0000
1001
1000
0100
0110
0100
1000
1001
,  // measure 56
0001
0000
0100
0000
0110
0000
0100
0000
0001
0010
0001
0000
1000
0010
0000
0100
,  // measure 57
0000
0110
0100
0001
1001
0001
0010
0110
,  // measure 58
0100
0000
0000
0000
0000
0000
1000
0000
0000
0000
0000
0000
1001
0000
0000
0000
0000
0000
1000
0000
0000
0000
0000
0000
0010
0000
0000
0100
0000
0000
0001
0000
0000
0000
0000
0000
1000
0000
0000
0000
0100
0000
0000
0000
0010
0000
0000
0000
,  // measure 59
0001
0000
2002
0000
3003
0000
0001
1000
,  // measure 60
0010
0100
0001
0000
0010
0100
1000
0000
0001
0100
0010
0000
1000
0100
0000
0000
,  // measure 61
1001
0000
0001
0001
0100
0010
1000
0100
,  // measure 62
0010
0000
0001
0000
0100
0000
0010
0000
1000
0001
1000
0000
2002
0000
0000
0000
,  // measure 63
0000
3003
0000
1000
,  // measure 64
0000
0001
0000
1000
,  // measure 65
0000
0010
0000
0100
,  // measure 66
0000
0000
0000
0000
0001
1000
0000
1001
0000
0000
0001
0000
0011
0000
0000
1100
,  // measure 67
0000
0000
1000
0010
1000
0010
0000
0000
0100
0000
0010
0000
1010
0000
0000
0101
,  // measure 68
0000
0000
0001
0010
0001
0000
0100
0000
1000
0000
0100
0000
0001
0010
0000
0100
,  // measure 69
0000
1000
0100
0010
0001
0000
1000
0010
0000
0000
0100
0001
0100
0001
0100
0000
,  // measure 70
0010
0000
1000
0000
1001
0000
0000
0011
0000
0000
0100
1000
0010
0000
0000
1010
,  // measure 71
0000
0000
0001
0100
0010
1000
0001
0000
1000
0000
0100
0000
0100
0000
0000
0100
,  // measure 72
0000
0000
1000
0000
0001
0100
0001
0100
0002
0000
0000
0000
0000
0000
0000
0000
,  // measure 73
0000
0000
0000
0000
0000
0000
0000
0000
1003
0000
0001
0010
0001
0000
1000
0100
,  // measure 74
0000
0100
1000
0000
0001
0100
0000
0100
0001
0000
1000
0010
0000
0010
0100
0000
,  // measure 75
0001
0010
0000
0001
1000
0001
0000
1000
0010
0000
0100
0001
0100
0000
0001
0010
,  // measure 76
0000
0001
0100
0000
0010
1000
0000
0100
1000
0000
0001
0010
0000
0100
1000
0000
,  // measure 77
0010
1000
0000
0100
0010
0001
0000
1000
0100
0000
0010
0001
0000
0001
0100
0000
,  // measure 78
0100
1000
0000
1000
0100
0000
0100
0001
0000
0001
1000
0000
1000
0100
0000
0100
,  // measure 79
0001
0100
0000
0010
0000
0100
0000
1000
0001
0000
1000
0010
0000
0010
0001
0000
,  // measure 80
1000
0100
0000
0100
0001
0000
1000
0100
0000
0100
0001
0000
1000
0010
0000
0010
,  // measure 81
0001
0010
0000
0010
0000
0010
0000
0110
0000
0000
0000
0000
0001
0000
0001
0000
,  // measure 82
1000
0100
0010
0100
0001
0100
1000
0010
,  // measure 83
0001
0000
0010
0000
1000
0010
0000
0010
0100
0000
0010
1000
0001
0010
0100
0000
,  // measure 84
1100
0000
0000
1001
0000
0000
1010
0000
0000
0000
0001
0100
0010
1000
0100
0000
,  // measure 85
0011
0000
0000
0011
0000
0000
0000
0000
0000
0000
0000
0000
0000
0000
0000
0000
;

//---------------dance-single - ----------------
#NOTEDATA:;
#CHARTNAME:;
#STEPSTYPE:dance-single;
#DESCRIPTION:;
#CHARTSTYLE:;
#DIFFICULTY:Medium;
#METER:11;
#RADARVALUES:0.492963,0.576392,0.270646,0.135323,0.161636,459.000000,423.000000,36.000000,18.000000,0.000000,0.000000,0.000000,0.000000,0.000000,0.492963,0.576392,0.270646,0.135323,0.161636,459.000000,423.000000,36.000000,18.000000,0.000000,0.000000,0.000000,0.000000,0.000000;
#CREDIT:;
#NOTES:
0000
0000
0000
0000
,
0000
0000
0000
0000
,
0000
0000
0000
0000
,
0000
0000
0000
0000
,
0000
0000
0000
0000
,
0001
0000
1000
0000
0001
0010
0100
0000
,
1000
0010
0100
0000
0001
0100
1000
0100
,
0001
0000
0000
0001
0000
0000
0001
0000
1000
0000
0000
1000
0000
0000
1000
0000
,
0001
1000
2002
3003
,
0000
1000
0100
0000
0110
0000
1001
0000
,
0000
0000
0001
0000
1000
0000
0000
0001
0000
0000
0100
0000
0010
0000
0000
0000
,
0000
0000
1000
0000
0010
0000
0000
0100
0000
0000
0010
0000
1000
0000
0000
0000
,
0001
0000
0010
0000
0100
0000
0000
1000
0000
0000
0001
0000
0100
0000
0000
0010
,
0000
0000
0100
0000
0001
0000
0000
1000
0000
0000
0001
0000
0010
0000
0000
0100
,
0000
0000
0010
0000
0001
0000
0000
1000
0000
0000
0001
0000
0100
0000
0000
0000
,
0000
0000
0001
0000
0010
0000
0000
0100
0000
0000
0010
0000
0001
0000
0000
0000
,
1000
0000
0000
0000
0010
0000
0000
0100
0000
0000
0001
0000
1000
0000
0000
0001
,
0000
0000
0010
0000
0100
0000
0000
0000
0010
0000
0001
0000
0100
0000
0000
0010
,
0000
0000
1000
0000
0001
0000
0000
1000
0000
0000
0100
0000
0010
0000
0001
0000
,
0200
0000
0000
0000
,
0310
0000
0000
0000
0010
0000
0000
0010
0000
0000
0010
0000
0100
0000
0010
0000
,
1000
0000
0000
0000
0000
0000
0000
0000
1000
0000
0000
1000
0000
0000
1000
0000
,
0001
0000
0000
0000
0000
0000
0000
0000
0001
0000
0000
0001
0000
0000
0001
0000
,
1000
0100
0010
0001
,
1000
0010
0100
0001
1000
0000
0001
0000
,
1000
0000
1000
0000
0100
1000
0010
0100
,
0001
0000
0000
0000
0001
0000
0000
0000
0010
0000
0000
0001
0000
0000
0100
0000
,
0010
1010
0110
0101
,
0001
0010
0100
1000
1001
0000
1001
0000
,
1000
0000
0010
0000
1000
0000
0010
0000
1000
0000
0000
0001
0000
0000
1000
0000
,
0001
0000
0010
0000
0001
0000
0010
0000
0001
0000
0000
1000
0000
0000
0001
0000
,
0100
0110
1010
1001
,
1000
0100
0001
0100
1000
0000
0110
0000
,
0001
0100
0001
0100
0001
1000
0100
0010
,
0001
1000
0001
1000
0001
0100
0010
1000
,
0001
1100
0110
0011
,
0001
0100
1000
0100
0001
0000
0010
0000
,
1100
2000
3020
0230
,
0301
0000
0000
0001
0000
0000
0010
0000
0000
0000
0100
0000
0000
0000
1000
0000
,
0000
1001
0002
0103
,
0000
0000
0001
0000
0100
0000
0010
0000
1000
0000
0000
0100
0000
0000
0001
0000
,
0000
0001
0100
1000
0000
0010
0000
0110
,
0000
0000
0000
0100
0000
0000
0001
0000
0000
0000
0000
0000
1000
0000
0000
0000
0000
0000
0002
0000
0000
0000
0003
0000
,
0000
0011
0000
0000
0101
0000
0000
1010
,
0000
0000
1001
0000
0011
0000
0100
1000
,
0001
0200
0320
2030
,
3001
0000
0000
0010
0000
0000
0100
0000
0000
0000
0010
0000
0000
0000
0001
0000
,
0000
1001
2000
3010
,
0000
0000
1000
0000
0010
0000
0100
0000
0001
0000
0000
0010
0000
0000
1000
0000
,
0000
1000
0010
0001
0000
0100
0000
0110
,
0000
0000
0000
0010
0000
0000
1000
0000
0000
0000
0000
0000
0001
0000
0000
0000
0000
0000
2000
0000
0000
0000
3000
0000
,
0000
0001
0000
0100
0010
0000
0100
0001
,
0000
0000
1000
0000
0100
0000
0000
0000
0010
0000
0100
0000
1000
0000
0000
0001
,
0000
1000
0000
0010
0100
0000
0010
1000
,
0000
0000
0001
0000
0010
0000
0000
0000
0100
0000
1000
0000
0001
0000
0000
1000
,
0000
0010
0000
0100
0001
0000
1000
0100
,
0000
0000
0010
0000
0001
0000
0000
0000
1000
0000
0010
0000
0100
0000
0000
0001
,
0000
1000
0010
1000
0001
0010
0001
1000
,
0100
1000
0001
0100
0001
1000
0100
0000
,
0000
2002
3003
0001
,
0010
0100
1000
0001
,
0100
0000
0010
0010
1000
0100
0010
0001
,
0100
0010
1000
0100
0010
0000
2002
0000
,
0000
3003
0000
1000
,
0000
0001
0000
1000
,
0000
0100
0000
0010
,
0000
0000
0000
0000
1001
0000
0000
1001
0000
0000
0000
0000
0110
0000
0000
0110
,
0000
0000
0001
0000
1000
0000
0000
0000
0001
0000
0010
0000
0001
0000
0000
1000
,
0000
0000
0010
0000
0100
0000
0000
0000
0001
0000
0000
0000
0010
0000
0000
0100
,
0000
0000
1000
0000
0001
0000
0000
1000
0000
0000
0010
0000
0100
0000
0001
0000
,
1000
0000
0000
0000
0001
0000
0000
0010
0000
0000
0001
0000
1000
0000
0000
0010
,
0000
0000
1000
0000
0100
0000
0010
0000
0001
0000
1000
0000
1000
0000
0000
1000
,
0000
0002
1003
0000
,
0000
0000
0000
0000
1000
0010
0100
0010
,
1000
0010
0100
0010
1000
0010
0100
0010
,
1000
0000
0010
0000
0100
0000
0000
0010
0000
0000
1000
0000
0001
0000
0010
0000
,
0100
1000
0001
0010
0100
1000
0001
0010
,
0100
0000
1000
0000
0001
0000
0000
1000
0000
0000
0001
0000
0100
0000
0010
0000
,
1000
0100
0010
0001
0100
0010
1000
0100
,
0010
0000
0001
0000
1000
0000
0000
0001
0000
0000
1000
0000
0010
0000
0001
0000
,
0010
1000
0100
0001
0100
1000
0010
0001
,
0010
0000
0000
1000
0000
0001
0000
1000
0000
0000
0000
0000
0001
0000
0001
0000
,
1000
0010
0100
0010
1000
0000
0001
0000
,
0010
0000
0100
0000
0100
1000
0001
0100
,
0110
0000
0000
0110
0000
0000
1001
0000
0000
0000
1000
0000
0100
0000
0010
0000
,
0011
0000
0000
0011
0000
0000
0000
0000
0000
0000
0000
0000
0000
0000
0000
0000
;

//---------------dance-single - ----------------
#NOTEDATA:;
#CHARTNAME:;
#STEPSTYPE:dance-single;
#DESCRIPTION:;
#CHARTSTYLE:;
#DIFFICULTY:Easy;
#METER:6;
#RADARVALUES:0.367306,0.544370,0.548810,0.225538,0.000000,342.000000,269.000000,73.000000,30.000000,0.000000,0.000000,0.000000,0.000000,0.000000,0.367306,0.544370,0.548810,0.225538,0.000000,342.000000,269.000000,73.000000,30.000000,0.000000,0.000000,0.000000,0.000000,0.000000;
#CREDIT:;
#NOTES:
0000
0000
0000
0000
,
0000
0000
0000
0000
,
0000
0000
0000
0000
,
0000
0000
0000
0000
,
0000
0000
0000
0000
,
2002
3003
0001
0010
,
1000
0010
0001
0100
,
0001
1000
0001
1000
,
0001
0001
0002
0000
,
0003
0100
0100
0000
0110
0000
1001
0000
,
0002
0000
0000
0000
0000
0000
0000
0003
,
0000
1000
1000
0000
0100
0000
0010
0000
,
0001
0100
0010
1000
,
1010
0001
0011
1000
,
1100
0001
0101
1000
,
0000
0001
0001
0000
0010
0000
0100
0000
,
1000
0010
0100
0001
,
0011
1000
1010
0110
,
0101
0000
0001
0000
1001
0000
0001
1000
,
0200
0000
0000
0300
,
1100
0110
0101
0110
,
1100
0000
1000
0000
,
1000
0000
0001
0000
,
0001
0100
0010
0100
,
0001
0010
0100
1000
,
0001
0000
0100
0010
,
1000
1000
0100
0010
,
0001
1000
0010
0100
,
0001
1000
1001
1001
,
0001
1000
1100
1100
,
1000
0001
0101
0101
,
0001
1010
1100
1010
,
0011
1100
1001
0101
,
1000
0000
1000
0000
0001
0010
0001
0000
,
0100
0000
0100
0000
1001
0000
0001
1000
,
0100
0011
0101
0011
,
1010
0101
1000
0100
,
0010
0002
0203
0320
,
1030
0001
1000
0100
,
0010
0210
0000
1300
,
0001
0000
0100
0000
0010
0000
1000
0001
,
0000
0000
0001
1000
0000
0001
0000
1001
,
0000
0000
0000
1000
0000
0000
0100
0000
0000
0020
0000
0030
,
0000
1001
0000
0000
0110
0000
0000
0110
,
0000
1001
0001
1000
,
0010
2000
3200
0320
,
0031
0100
1000
0100
,
0001
0012
0000
0103
,
0001
0000
0010
0000
0100
0000
1000
0001
,
0000
0000
0001
1000
0000
0001
0000
1001
,
0000
0000
0000
1000
0000
0000
0010
0000
0000
0200
0000
0300
,
0000
1001
0000
0000
1001
0000
0000
1001
,
0000
1001
1000
0100
,
0000
1001
0000
0000
1001
0000
0000
1001
,
0000
1001
0001
0010
,
0000
1100
0000
0000
1100
0000
0000
1100
,
0000
1100
1000
0001
,
0000
0101
0000
0000
1010
0000
0000
1100
,
0000
0000
0000
0011
0000
0000
0001
0000
0000
2000
0000
3000
,
0000
2002
3003
0001
,
1000
0010
0100
0001
,
1001
0000
0000
0000
,
0000
0000
0010
2002
,
0000
3003
0000
1000
,
0000
0001
0000
1000
,
0000
0100
0000
0010
,
0000
0000
0000
0000
0022
0000
0000
0033
0000
0000
0000
0000
2200
0000
0000
3300
,
0000
0000
1001
0000
0000
0001
0001
0000
,
0100
0010
1000
0100
,
0010
0001
0100
0010
,
1001
0110
1001
0010
,
1001
0000
1000
0001
0200
0000
0000
0000
,
0000
0000
0310
0000
,
0000
0000
1000
0010
,
0100
0010
1000
0010
,
0100
0010
1000
0001
,
0010
0100
1000
0001
,
0010
0100
1000
0001
,
0100
0010
1000
0100
,
0010
0001
0100
1000
,
0100
0001
0010
1000
,
0010
0001
0200
0000
,
0000
0000
0000
0000
,
0000
0000
0300
0000
0000
0010
0010
0000
,
0220
0000
0000
0330
0000
0000
1001
0000
0000
0000
0000
0000
0010
0000
0000
0000
,
2002
0000
0000
3003
0000
0000
0000
0000
0000
0000
0000
0000
0000
0000
0000
0000
;

//---------------dance-single - ----------------
#NOTEDATA:;
#CHARTNAME:;
#STEPSTYPE:dance-single;
#DESCRIPTION:;
#CHARTSTYLE:;
#DIFFICULTY:Beginner;
#METER:3;
#RADARVALUES:0.175061,0.255610,0.105251,0.112769,0.000000,163.000000,149.000000,14.000000,15.000000,0.000000,0.000000,0.000000,0.000000,0.000000,0.175061,0.255610,0.105251,0.112769,0.000000,163.000000,149.000000,14.000000,15.000000,0.000000,0.000000,0.000000,0.000000,0.000000;
#CREDIT:;
#NOTES:
0000
0000
0000
0000
,
0000
0000
0000
0000
,
0000
0000
0000
0000
,
0000
0000
0000
0000
,
0000
0000
0000
0000
,
0001
0000
1000
0000
,
0010
0000
1000
0000
,
0001
0000
0001
0000
,
0001
0001
0002
0003
,
0000
0000
1001
1001
,
0000
0000
0000
0000
,
0000
1000
0000
0010
,
0000
0100
0000
0001
,
0000
1000
0000
0100
,
0000
0010
0000
0001
,
0000
1000
0000
0010
,
0000
0100
0000
0001
,
0000
0010
0000
0001
,
0000
0100
0000
0010
,
0010
0000
0000
0000
,
1000
1000
1000
1000
,
1000
0000
0000
0000
,
0001
0000
0000
0000
,
1000
0000
0001
0000
,
0010
0000
0100
0000
,
1000
0000
0010
0010
,
0010
0000
0100
0100
,
0000
0010
0010
0010
,
0010
0000
1001
0000
,
1000
0000
0100
0000
,
1000
0000
0001
0000
,
0100
0100
0100
0100
,
0100
0000
0010
0000
,
1000
0000
0001
0001
,
0001
0000
0010
0010
,
0000
0100
0100
0100
,
0100
0000
1000
0000
,
0001
0000
0100
0000
,
0010
0000
1000
0000
,
0001
0000
1000
0000
,
0100
0000
0010
0000
,
0001
0000
0100
0000
,
0010
0000
1000
1000
,
0000
2002
0000
0000
,
0000
3003
0000
0000
,
0001
0000
0010
0000
,
0100
0000
1000
0000
,
0010
0000
0100
0000
,
0001
0000
0010
0000
,
0001
0000
0100
0000
,
0010
0000
1000
1000
,
0000
2002
0000
0000
,
0000
3003
0000
0100
,
0000
2002
0000
0000
,
0000
3003
0000
0010
,
0000
2002
0000
0000
,
0000
3003
0000
0100
,
0000
2002
0000
0000
,
0000
3003
0000
1000
,
0000
2002
3003
0000
,
0001
0000
1000
0000
,
0100
0000
0000
0000
,
0000
0000
0000
2002
,
0000
3003
0000
1000
,
0000
1000
0000
1000
,
0000
1000
0000
1000
,
0000
1001
0000
0110
,
0000
1001
0000
0001
,
0000
0100
0000
0010
,
0000
1000
0000
0001
,
0000
0010
0000
0001
,
0000
0100
0100
0000
,
0000
0000
0010
0000
,
0000
0000
1000
0000
,
0010
0000
0100
0000
,
0001
0000
1000
0000
,
0100
0000
0010
0000
,
0001
0000
0100
0000
,
0010
0000
1000
0000
,
0001
0000
0010
0000
,
1000
0000
0100
0000
,
0001
0000
1000
0000
,
0000
0000
0000
0000
,
0000
0000
0000
0010
,
0010
0000
1000
0000
,
0110
0000
0000
0000
;

//---------------dance-single - ----------------
#NOTEDATA:;
#CHARTNAME:;
#STEPSTYPE:dance-single;
#DESCRIPTION:;
#CHARTSTYLE:;
#DIFFICULTY:Challenge;
#METER:18;
#RADARVALUES:1.081511,1.216827,0.451077,0.195467,1.635154,1007.000000,947.000000,60.000000,26.000000,0.000000,0.000000,0.000000,0.000000,0.000000,1.081511,1.216827,0.451077,0.195467,1.635154,1007.000000,947.000000,60.000000,26.000000,0.000000,0.000000,0.000000,0.000000,0.000000;
#CREDIT:;
#NOTES:
0000
0000
0000
0000
,
0000
0000
0000
0000
,
0000
0000
0000
0000
,
0000
0000
0000
0000
,
0000
0000
0000
0000
,
1001
0000
0000
0000
0001
0000
0000
0001
0100
0010
0100
0001
0100
0010
0100
0001
,
1000
0000
0100
0010
0100
1000
0100
0010
0100
1000
0100
1000
0001
0100
0010
1000
,
0001
0000
1000
0100
0000
0100
0010
0000
0001
0100
0000
0100
0010
0000
1000
0000
,
0001
0000
0000
0000
0010
0000
0000
0000
0010
0000
0000
0000
1000
0000
0000
0000
0100
0000
0000
0000
0100
0000
0000
0000
0002
0000
0000
0000
0000
0000
0000
0000
0000
0000
0000
0000
1003
0000
0000
0100
0000
0000
1000
0000
0000
0100
0000
0000
,
0000
0010
0001
0000
1001
0000
0110
0000
,
1000
0000
0000
0000
0000
0000
0001
0000
1000
0000
0001
0000
1000
0000
0000
0010
0000
0000
0100
0000
0000
0001
0000
0000
0000
0000
0000
0010
0000
0000
0001
0000
0000
1000
0000
0000
0001
0000
0100
0000
0001
0000
0100
0000
0000
0010
0000
0000
,
1000
0000
0000
0000
0000
0000
0001
0000
0000
0000
0000
0000
0011
0000
0000
0000
0000
0000
0000
0000
0000
1100
0000
0000
0000
0000
0000
0000
0000
0000
1000
0000
0001
0000
1000
0000
0001
0000
0000
0100
0000
0000
0010
0000
0000
1000
0000
0000
,
0001
0000
1000
0100
0010
0001
0000
0100
0000
0010
0100
0010
1000
0000
0100
0002
,
0000
0000
0000
0000
0000
0000
0103
0000
0000
0000
0000
0000
0010
0000
0000
0001
0000
0000
0100
0000
0000
2000
0000
0000
0000
0000
0000
0000
0000
0000
3100
0000
0010
0000
0100
0000
0001
0000
0000
1000
0000
0000
0000
0000
0000
1200
0000
0000
,
0000
0000
0000
0000
0000
0000
0310
0000
0000
0000
0000
0000
0110
0000
0000
0000
0000
0000
0000
0000
0000
1001
0000
0000
0000
0000
0000
0000
0000
0000
1000
0000
0001
0000
1000
0000
0001
0000
0000
0100
0000
0000
0010
0000
0000
1000
0000
0000
,
0001
0000
0000
0000
0000
0000
1000
0000
0000
0000
0000
0000
1010
0000
0000
0000
0000
0000
0000
0000
0000
0101
0000
0000
0000
0000
0000
0100
0000
0000
0001
0000
1000
0000
0001
0000
1000
0000
0000
0100
0000
0000
0010
0000
0000
0001
0000
0000
,
0100
0000
0001
1000
0001
0100
0000
0110
0000
0100
0001
1000
0001
0000
0010
2000
,
0000
0000
3010
0000
0001
0100
0010
0100
1000
0000
0100
0001
0010
0000
0000
1100
,
0000
0000
0000
0000
0000
0000
0000
0000
0000
0000
0000
0000
0010
0000
0000
0000
0000
0000
0001
0000
0000
0000
0000
0000
0010
0000
0000
0000
0000
0000
0000
0000
0000
0000
0000
0000
0001
0000
0000
0000
0000
0000
0000
0000
0000
0000
0000
0000
0100
0000
0000
0000
0000
0000
0000
0000
0000
0000
0000
0000
0000
0000
0000
0000
0000
0000
0000
0000
0000
0000
0000
0000
0010
0000
0000
0000
0000
0000
0000
0000
0000
0000
0000
0000
1000
0000
0000
0000
0000
0000
0000
0000
0000
0000
0000
0000
0000
0000
0000
0000
0000
0000
0000
0000
0000
0000
0000
0000
0000
0000
0000
0000
0000
0000
0000
0000
0000
0000
0000
0000
0001
0000
0000
0000
0000
0000
0000
0000
0010
0000
0000
0000
0000
0000
0000
0000
0100
0000
0000
0000
0000
0000
0000
0000
1000
0000
0000
0000
0000
0000
0000
0000
0001
0000
0000
0000
0000
0000
0000
0000
1000
0000
0000
0000
0000
0000
0000
0000
0100
0000
0000
0000
0000
0000
0000
0000
0000
0000
0000
0000
0010
0000
0000
0000
0000
0000
0000
0000
0000
0000
0000
0000
,
0002
0000
0000
0000
,
1003
0000
0000
0010
0000
0000
0100
0000
0000
1000
0000
0000
0100
0000
0000
0010
0000
0000
1000
0000
0000
0010
0000
0000
0100
0000
0000
1000
0000
0000
0100
0000
0000
0010
0000
0000
1000
0000
0001
0000
1000
0000
0001
0000
0000
1000
0000
0000
,
0100
0000
0000
0000
0000
0000
0000
0000
1000
0000
0000
1000
0000
0000
0001
0000
,
0100
0000
0000
0000
0000
0000
0000
0000
0001
0000
0000
0001
0000
0000
1000
0000
,
0100
0011
1100
1001
,
0001
0000
0000
0100
0000
0000
0010
0000
0000
1000
0000
0000
0001
0000
0000
0000
0000
0000
1000
0000
0000
0000
0000
0000
0100
0000
0010
0000
0100
0000
0010
0000
0000
0100
0000
0000
1000
0000
0000
0001
0000
0000
0100
0000
0000
0010
0000
0000
,
1000
0000
0000
0000
1000
0000
0000
0000
0010
1000
0001
0100
0001
1000
0100
0010
,
0001
0000
1000
0001
0000
1000
0001
0000
0100
0010
0100
0001
0010
0100
1000
0001
,
0100
0010
1001
0000
0110
0000
1001
0000
,
0001
0100
0010
1000
0001
1000
0100
1000
0001
0101
0000
0101
0000
0101
0101
0000
,
1000
0000
1000
0100
1000
0000
1000
0100
1100
0000
0001
0100
0000
0010
1000
0000
,
0001
0000
0001
0100
0001
0100
0001
0000
0101
0000
1000
0100
0000
0010
0001
0000
,
0010
0000
0100
1000
0001
0000
0001
1000
0010
0000
0010
1000
0100
0000
0100
0010
,
1000
0010
0001
0100
0010
0000
0100
0000
1000
0100
0010
0100
0001
0000
1000
0000
,
0001
0000
0001
0100
0001
0000
0001
0100
0010
1000
0100
1000
0010
0100
0001
0010
,
0001
0000
0000
0000
0000
0000
0010
0000
0000
0001
0000
0000
0000
0000
0000
0010
0000
0000
0001
0000
0000
0000
0000
0000
0010
0000
0000
0001
0000
0000
0100
0000
0000
0010
0000
0000
1000
0000
0100
0000
0010
0000
0001
0000
0000
1000
0000
0000
,
0010
0000
0100
0001
1000
0000
1000
0001
0010
0000
0010
0001
0100
0000
0100
0010
,
0000
0000
0000
0001
0000
0000
0010
0000
0000
0100
0000
0000
0010
0000
0000
1000
0000
0000
0100
0000
0000
0010
0000
0000
0001
0000
0000
0000
0100
0000
0000
0000
0100
0000
0000
0000
1000
0000
0000
0000
0010
0000
0000
0000
0010
0000
0000
0000
,
0001
0000
0000
0000
0001
0010
0001
0010
0001
1000
0001
1000
0001
0100
0001
0100
,
1000
0000
0100
0010
0001
0000
0010
1000
0001
0000
0100
0010
0001
0010
0100
0000
,
0001
0000
0010
0000
0100
1000
0100
1000
0001
0010
0001
0010
0100
0000
0010
0001
,
0100
0000
0010
1000
0100
0000
0010
0000
0001
0010
0100
1000
0010
0100
0002
0000
,
0000
0000
0103
0001
1000
0000
0100
0010
0000
0010
0100
0000
1000
0000
1001
0000
,
0001
0000
0000
0100
0000
0000
0010
0000
0000
1000
0000
0000
0100
0000
0000
0000
0000
0000
1000
0000
0000
0100
0000
0000
0010
0000
0000
0001
0000
0000
0100
0000
0000
0010
0000
0000
1000
0000
0000
0000
1000
0000
0000
0000
1000
0000
0000
0000
,
0000
0000
1010
0000
0001
0100
0001
0000
0011
0000
1000
0100
1000
0000
1010
0000
,
0001
0000
0000
0100
0000
0000
0001
0000
0000
0000
0000
0000
1000
0000
0000
0100
0000
0000
0000
0000
0000
0010
0000
0000
0001
0000
0100
0000
0001
0000
0100
0000
0000
0010
0000
0000
1000
0000
0000
0001
0000
0000
0100
0000
0000
0010
0000
0000
,
1000
0000
0000
0000
1000
0010
1000
0010
1000
0001
1000
0001
1000
0100
1000
0100
,
0001
0000
0100
0010
1000
0000
0010
0001
1000
0000
0100
0010
1000
0010
0100
0000
,
1000
0000
0000
0000
0000
0000
0100
0000
0010
0000
0001
0000
1000
0000
0000
0010
0000
0000
1000
0000
0000
0010
0000
0000
0100
0000
0000
0001
0000
0000
0100
0000
0000
0001
0000
0000
0010
0000
0000
0000
0000
0000
0100
0000
0000
1000
0000
0000
,
0010
0000
0100
0001
0010
0100
1000
0000
0001
0100
1000
0001
0010
1000
0002
0000
,
0000
0000
1003
0010
0100
0000
0001
0010
0000
0010
0100
0000
0010
0000
1001
0000
,
0001
0000
0000
0100
0000
0000
0010
0000
0000
0100
0000
0000
0001
0000
0000
0000
0000
0000
1000
0000
0100
0000
1000
0000
0100
0000
0000
0010
0000
0000
0001
0000
0100
0000
0001
0000
0100
0000
0000
0000
0010
0000
0000
0000
1000
0000
0000
0000
,
0000
0000
1002
0000
0013
0001
0010
0001
2001
0000
3010
1000
0010
1000
1002
0000
,
0013
0000
0000
0100
0000
0000
0010
0000
0000
0100
0000
0000
2100
0000
0000
0000
0000
0000
3001
0000
0100
0000
0001
0000
0100
0000
0000
0010
0000
0000
1000
0000
0000
0001
0000
0000
1000
0000
0000
0100
0000
0000
0010
0000
0000
0001
0000
0000
,
0000
0000
1002
0000
0103
0001
0100
0001
2001
0000
3100
1000
0100
1000
2001
0000
,
3010
0000
0000
0100
0000
0000
0010
0000
0000
0100
0000
0000
0001
0000
0000
1001
0000
0000
0000
0000
0000
1000
0000
0000
0100
0000
0010
0000
0001
0000
1000
0000
0000
0100
0000
0000
0010
0000
0000
0001
0000
0000
0100
0000
0000
0010
0000
0000
,
0000
0000
2010
0000
3100
0010
0100
0010
0012
0000
0103
0010
0100
0010
2010
0000
,
3001
0000
0000
0010
0000
0000
0100
0000
0000
1000
0000
0000
1002
0000
0000
0000
0000
0000
0103
0000
0001
0000
0100
0000
0001
0000
0000
1000
0000
0000
0100
0000
0000
0010
0000
0000
0001
0000
0000
0100
0000
0000
0010
0000
0000
1000
0000
0000
,
0000
0000
1001
0000
0001
0100
0001
0100
0010
0100
1000
0100
1000
0100
0010
0100
,
0001
0000
0000
0100
0000
0000
0001
0000
0000
0100
0000
0000
0010
0000
0000
1000
0000
0000
0001
0000
0010
0000
0100
0000
1000
0000
0000
0001
0000
0000
1000
0000
0000
0100
0000
0000
0010
0000
0000
0000
0010
0000
0000
0000
0010
0000
0000
0000
,
0001
0000
0000
0000
2002
0000
0000
0000
3003
0000
0001
0100
0010
0000
1000
0100
,
0001
0100
1000
0010
0001
0010
1000
0100
0001
0100
1000
0010
0100
0001
0000
0000
,
2001
0000
0000
0000
3001
0000
0001
0000
0010
0100
0010
0001
1000
0001
0100
0010
,
0100
0000
0000
0001
0000
0000
1000
0000
0000
0001
0000
0000
0010
0000
0000
0100
0000
0000
0010
0000
0000
0100
0000
0000
1000
0000
0001
0000
1000
0000
0001
0000
1000
0000
0001
0000
0200
0000
0000
0000
0000
0000
0000
0000
0000
0000
0000
0000
,
0000
0000
0000
0000
0000
0000
0000
0000
0300
0000
0010
0000
1000
0000
0000
0001
,
0000
0000
0000
0000
0000
0000
1000
0000
0100
0000
1000
0000
0100
0000
0000
1000
0000
0000
0100
0000
0000
0010
0000
0000
0001
0000
0000
0000
0000
0000
1000
0000
0000
0001
0000
0000
1000
0000
0000
0010
0000
0000
0000
0000
0000
0100
0000
0000
,
0000
0010
0100
0010
1000
0000
0001
0010
0000
0000
0001
0000
1000
0010
0100
0001
,
0000
0000
0000
0000
0000
0000
1000
0000
0001
0000
1000
0000
0001
0000
0000
1000
0000
0000
0000
0000
0000
1001
0000
0000
0000
0000
0000
0000
0000
0000
1100
0000
0000
0000
0000
0000
0011
0000
0000
0000
0000
0000
0000
0000
0000
0101
0000
0000
,
0000
0000
1000
0010
1000
0010
0000
0010
0100
0000
0001
0000
0011
0000
0000
1100
,
0000
0000
0000
0000
0000
0000
0100
0000
1000
0000
0100
0000
1000
0000
0000
0100
0000
0000
0010
0000
0000
0100
0000
0000
0002
0000
0000
0000
0000
0000
0103
0000
0000
0010
0000
0000
0001
0000
0000
1000
0000
0000
0000
0000
0000
0020
0000
0000
,
0000
0031
0010
1000
0100
0001
0100
1000
0000
0000
1000
0010
1000
0100
0010
0100
,
0001
0000
0000
0000
0100
0000
1000
0000
0010
0000
0000
0000
0000
0000
0101
0000
0000
0000
0010
1000
0010
0000
1000
0000
0100
0000
0000
0000
0010
0000
0001
0000
,
0000
0000
0000
0000
0000
0000
1000
0000
0010
0000
0100
0000
0001
0000
1000
0000
0001
0000
0100
0000
0000
0010
0000
0000
1000
0000
0000
0000
0000
0000
1000
0000
0000
0000
0000
0000
0100
0000
0000
0010
0000
0000
0001
0000
0000
0100
0000
0000
,
0000
0000
0000
0010
0000
0000
1000
0000
0000
0000
0000
0000
0100
0000
0010
0000
0100
0000
0010
0000
0100
0000
0010
0000
0002
0000
0000
0000
0000
0000
0000
0000
0000
0000
0000
0000
0000
0000
0000
0000
0000
0000
0000
0000
0000
0000
0000
0000
,
0000
0000
0000
0000
0000
0000
0000
0000
1003
0000
0001
0100
0010
0000
0010
0100
,
1000
0100
0010
0000
0010
0100
0001
0100
0010
0000
0010
0100
1000
0100
0010
0100
,
0001
0010
0100
1000
0010
0100
0001
0010
0100
0000
1000
0100
0010
0000
0001
0010
,
0100
0010
1000
0000
0010
0100
0010
0001
1000
0000
0001
0100
0010
0100
1000
0000
,
0100
0001
0010
0100
1000
0001
0100
0010
1000
0000
0001
0010
0100
0001
0100
0010
,
0001
0100
0010
0001
0010
0100
0010
1000
0100
0010
1000
0010
0100
1000
0010
0100
,
1000
0100
0001
0010
0100
1000
0010
0100
0001
0000
1000
0100
0001
1000
0010
0001
,
1000
0100
0001
1000
0010
0001
1000
0100
0001
1000
0010
0001
1000
0100
0001
1000
,
0010
0110
0000
0011
0000
1001
0000
1001
0000
0000
0000
0000
0001
0000
0001
0000
,
1000
0000
0000
0010
0000
0000
1000
0000
0000
0010
0000
0000
0100
0000
0000
0001
0000
0000
0000
0000
0000
0001
0000
0000
1000
0000
0010
0000
1000
0000
0010
0000
1000
0000
0010
0000
1000
0000
0001
0000
1000
0000
0001
0000
1000
0000
0001
0000
,
0010
0000
0001
0000
0010
0000
0001
0000
0010
0000
0100
0000
1000
0000
0000
0010
0000
0000
0000
0000
0000
0010
0000
0000
0100
0000
0000
0000
0000
0000
0010
0000
0000
1000
0000
0000
0001
0000
0010
0000
0100
0000
1000
0000
0000
0001
0000
0000
,
0101
0000
0000
0000
0000
0000
0000
0000
0000
0110
0000
0000
0000
0000
0000
0000
0000
0000
1010
0000
0000
0000
0000
0000
0000
0000
0000
0000
0000
0000
0001
0000
0100
0000
0010
0000
1000
0000
0100
0000
0010
0000
0001
0000
0000
0000
0000
0000
,
0011
0000
0000
0011
0000
0000
0000
0000
0000
0000
0000
0000
0000
0000
0000
0000
;
