#VERSION:0.83;
#TITLE:Doki-Doki;
#SUBTITLE:;
#ARTIST:Thaehan;
#TITLETRANSLIT:;
#SUBTITLETRANSLIT:;
#ARTISTTRANSLIT:;
#GENRE:Happy Hardcore;
#ORIGIN:;
#CREDIT:;
#BANNER:Doki-Doki.png;
#BACKGROUND:Doki-Doki-bg.png;
#PREVIEWVID:;
#JACKET:Doki-Doki-jacket.png;
#CDIMAGE:;
#DISCIMAGE:;
#LYRICSPATH:;
#CDTITLE:cdtitle.png;
#MUSIC:Doki-Doki.ogg;
#OFFSET:-0.005730;
#SAMPLESTART:10.674397;
#SAMPLELENGTH:10.666667;
#SELECTABLE:YES;
#DISPLAYBPM:90.000000:180.000000;
#BPMS:0.000=180.000,
92.000=90.000,
94.000=180.000,
122.000=90.000,
124.000=180.000,
155.000=360.000,
155.500=180.000,
155.750=90.000,
156.000=180.000,
168.000=90.000,
169.000=180.000,
263.000=90.000,
265.000=180.000;
#STOPS:;
#DELAYS:;
#WARPS:;
#TIMESIGNATURES:0.000=4=4;
#TICKCOUNTS:0.000=4;
#COMBOS:0.000=1;
#SPEEDS:0.000=1.000=0.000=0;
#SCROLLS:0.000=1.000;
#FAKES:;
#LABELS:0.000=Song Start;
#BGCHANGES:;
#KEYSOUNDS:;
#ATTACKS:
;

//---------------dance-single - ----------------
#NOTEDATA:;
#CHARTNAME:;
#STEPSTYPE:dance-single;
#DESCRIPTION:;
#CHARTSTYLE:;
#DIFFICULTY:Challenge;
#METER:17;
#RADARVALUES:1.031988,1.105929,0.083783,0.549241,1.158991,776.000000,767.000000,9.000000,59.000000,42.000000,0.000000,6.000000,0.000000,0.000000,1.031988,1.105929,0.083783,0.549241,1.158991,776.000000,767.000000,9.000000,59.000000,42.000000,0.000000,6.000000,0.000000,0.000000;
#CREDIT:;
#DISPLAYBPM:90.000000:180.000000;
#NOTES:
0000
0000
0000
0000
,
0000
0000
0000
0000
,
0000
0000
0000
0000
,
0000
0000
0000
0000
,
1001
0000
0001
0010
0011
0000
0001
1000
,
1001
0000
0001
0100
0101
0001
1000
0100
,
0110
0000
0000
0000
0001
1000
0001
0000
0100
0000
1000
0000
0100
0000
0001
0000
,
0010
0000
0010
0000
0100
0000
0100
0000
0010
0001
1000
0010
0200
000M
00M0
M000
,
0301
0000
0100
0010
1000
0001
1000
0001
0010
0000
0100
0000
0010
0001
1000
0000
,
0001
0100
0010
0000
1000
0010
0100
0000
0001
0010
0100
0000
1000
0001
1000
0000
,
0001
0000
0100
0010
1000
0000
0100
0000
0001
0000
0100
0000
1000
0010
0100
0000
,
0001
0000
1000
0100
0010
0001
0100
0010
1000
0001
1000
0001
0010
M100
001M
0100
,
1000
1000
0010
0100
0001
0001
0010
0100
,
1000
1000
0001
0100
0010
0010
1000
0100
,
0001
0000
0100
0010
0001
1000
0001
0000
1000
0000
0010
0000
0001
0000
0010
0000
,
1000
0000
0100
0010
0001
0000
1000
0000
0001
0100
0001
0100
0020
M000
0M00
000M
,
2030
0000
0000
0000
3001
0010
0100
0000
0010
0001
0100
0000
1000
0000
0100
0000
,
0002
0000
0000
0000
1003
0100
1000
0000
0001
0000
1000
0010
1000
0000
0001
0000
,
0002
0000
0000
0000
1003
0010
0100
0000
0010
1000
0100
0000
0001
0000
0100
0000
,
2000
0000
0000
0000
3001
0100
0001
0000
1000
0000
0001
0010
0001
0000
1000
0000
,
2000
0000
0000
0000
3010
0100
0001
0000
0100
0010
1000
0000
0001
0000
1000
0000
,
0200
0000
0000
0000
1300
0001
1000
0000
0020
0000
0000
0000
0130
0000
0001
0000
,
1000
0000
0100
0000
0010
0001
0100
0000
0010
1000
0100
0000
0001
0000
0100
0000
,
2000
0000
0000
0000
3001
1000
0001
0000
1000
0000
0010
0000
0200
0000
0000
0000
0301
0000
0100
0000
0001
0000
0100
0000
0010
0000
1000
0000
0010
0000
1000
0000
,
0001
0010
0001
0010
0100
1000
0100
1000
0001
0100
0001
0100
0001
1000
0001
1000
,
0M04
M040
0M00
M000
0M00
M000
0M33
0000
1000
0100
1000
0100
0010
0001
0010
0001
,
1000
0010
1000
0010
0100
0001
0100
0001
1000
0100
1000
0100
1000
0001
1000
0001
,
4M00
004M
0M00
000M
0M00
000M
3M30
0000
0001
0100
0001
0100
0010
1000
0010
1000
,
0100
1000
0100
1000
0001
0010
0001
0010
0001
0100
0001
0100
0010
0100
0010
0100
,
00M4
4M00
00M0
0M00
00M0
0M00
30M3
0000
1000
0100
1000
0100
0010
0100
0010
0100
,
0001
0000
0100
0000
0001
0000
0100
0000
0010
0000
0100
0000
0010
0000
0100
0000
2000
0000
0000
0000
3001
1000
0001
0000
1000
0000
0010
0000
0100
0000
0010
0000
,
2000
0000
0000
3100
0000
0000
0020
0000
0000
0230
0000
0000
0302
0000
0000
0103
0010
0100
0020
0000
0000
0130
0000
0000
,
2000
0000
3020
0000
0032
0000
0023
0000
2030
0000
3100
0010
0001
0000
0001
0000
,
0020
0031
1000
0020
0230
0000
0310
0000
0002
0000
0013
0000
2000
0000
3100
0000
,
0002
0000
0203
0000
2300
0000
3020
0000
0230
0310
1000
0001
0010
0100
0010
0000
,
0002
0000
0000
0013
0000
0000
2000
0000
0000
3002
0000
0000
2003
0000
0000
3010
0100
0010
0200
0000
0000
0310
0000
0000
,
0002
0000
0203
0000
2300
0000
3002
0000
0023
0000
0130
0010
1000
0000
1000
0000
,
0002
0103
0010
2000
3200
0300
0001
0000
2000
0000
3001
0000
0200
0000
1300
0000
,
0020
0000
0230
0000
0320
0000
2030
0000
3002
0013
0100
1000
0020
0000
0000
0000
,
1030
0010
0100
0001
0100
0010
1000
0000
0001
0100
0010
1000
0010
0100
0001
0000
,
1000
0100
0010
0001
0010
0100
1000
0000
0001
0010
0100
1000
0100
0010
0001
0000
,
1000
0010
1000
0001
1000
0100
1000
0000
0001
0010
0001
1000
0001
0100
0001
0000
,
MM2M
0000
0000
0000
0130
0010
0100
0000
0010
0100
1000
0000
0001
0000
1000
0010
,
0100
0001
0100
0001
0010
0000
1000
0000
0010
0100
1000
0000
0001
0100
0010
0000
,
0001
0010
0100
0000
0010
1000
0100
0000
1000
0001
1000
0000
0001
0000
0010
0001
,
0100
0000
1000
0000
0001
0000
0010
0000
1000
0100
0010
0000
0001
0000
1000
0010
,
0100
0001
0010
0001
0100
0010
1000
0001
0010
M100
001M
0100
1000
0000
1000
0000
,
0010
0001
1000
1000
0100
0001
0010
0010
,
1000
0000
0001
0000
0100
0000
0100
0000
1000
0000
0010
0000
0001
0000
1000
0100
,
0010
0100
0001
0000
0010
0000
1000
0000
0001
0000
0100
0000
1000
0000
0010
1000
,
0100
0000
0010
0000
0001
0100
0001
0100
0020
M00M
0M30
0000
2002
0000
0000
0000
,
3003
0000
0000
0000
1000
0010
1000
0000
0001
0010
0001
0000
0011
0000
0100
0000
,
1000
0000
0010
0000
1010
0000
0100
0000
0001
1000
0001
0000
1000
0000
0010
1000
,
0100
0000
0001
0000
1000
0000
0010
0000
0001
0100
0010
0000
1000
0000
0001
0010
,
0100
1000
0010
1000
0100
0010
0001
1000
0010
010M
M010
0100
0001
0000
0001
0000
,
0010
1000
0001
0001
0100
1000
0010
0010
,
0001
0000
1000
0000
0100
0000
0100
0000
0001
0000
0010
0000
1000
0000
0001
0100
,
0010
0100
1000
0000
0010
0000
0001
0000
1000
0000
0100
0000
0001
0000
0010
0001
,
1000
0000
0001
0000
0100
0010
0100
0010
2000
000M
0M00
00M0
3001
0100
0010
0000
,
1000
0010
0100
0000
0001
0010
0100
0000
1000
0100
0010
0000
0100
1000
0010
0000
,
0100
0001
0010
0000
0100
0010
0001
0000
0100
0010
1000
0000
0001
1000
0100
0000
,
1000
0001
0100
0000
0010
1000
0001
0000
0010
0001
1000
0000
0001
0100
0001
0000
,
1000
0100
1000
0000
0001
0100
0010
0100
0000
0010
0100
0010
1000
0100
0010
0000
,
0001
0010
0100
0000
1000
0010
0100
0000
0001
0100
0010
0000
0100
0001
0010
0000
,
0100
1000
0010
0000
0100
0010
1000
0000
0100
0010
0001
0000
1000
0001
0100
0000
,
0001
1000
0100
0000
0010
0001
1000
0000
0010
1000
0001
1000
0100
0000
0000
0000
,
1002
0000
0100
0000
1003
0100
0010
0000
1000
0010
0100
0000
1000
0010
0100
0000
,
1000
0100
0010
0000
0100
0001
0010
0000
0100
0010
0001
0000
0100
0010
0001
0000
,
0010
0100
0001
0000
1000
0100
0010
0000
1000
0010
0100
0000
0010
0001
0100
0000
,
1000
0100
0010
0000
1000
0001
1000
0000
0001
1000
0001
0000
0010
0001
0100
0010
,
0000
0100
0010
1000
0001
0010
0100
0000
0001
0100
0010
0000
0001
0100
0010
0000
,
0001
0010
0100
0000
0010
1000
0100
0000
0010
0100
1000
0000
0010
0100
1000
0000
,
0100
0010
1000
0000
0001
0010
0001
0000
1000
0100
1000
0000
0001
0100
0001
0000
,
1000
0100
0010
0001
1000
0010
1000
0010
0100
0010
0100
0010
0100
0001
0100
0001
,
1000
0100
0010
0001
1000
0000
0000
0000
0000
0000
0000
0000
0000
0000
0000
0000
;

//---------------dance-single - ----------------
#NOTEDATA:;
#CHARTNAME:;
#STEPSTYPE:dance-single;
#DESCRIPTION:;
#CHARTSTYLE:;
#DIFFICULTY:Hard;
#METER:14;
#RADARVALUES:0.724785,0.725766,0.232729,0.549241,0.176874,545.000000,520.000000,25.000000,59.000000,0.000000,0.000000,6.000000,0.000000,0.000000,0.724785,0.725766,0.232729,0.549241,0.176874,545.000000,520.000000,25.000000,59.000000,0.000000,0.000000,6.000000,0.000000,0.000000;
#CREDIT:;
#DISPLAYBPM:90.000000:180.000000;
#NOTES:
0000
0000
0000
0000
,
0000
0000
0000
0000
,
0000
0000
0000
0000
,
0000
0000
0000
0000
,
1001
0000
1000
0010
0100
0000
0001
0010
,
0100
0000
1000
0100
0001
0000
0001
0100
,
1000
0000
0000
0000
0001
1000
0001
0000
1000
0000
0010
0000
0001
0000
0010
0000
,
1000
0000
0100
0000
0001
0000
0100
0000
1000
0001
1000
0001
2000
0000
0000
0000
,
3001
0010
1000
0010
0001
0100
0010
0000
,
1010
0101
0011
1100
,
1000
0000
0100
0010
0100
0000
1000
0000
0001
0000
0100
0000
0001
1000
0001
0000
,
1000
0100
0001
0100
1000
0010
0200
0000
,
0301
0001
0010
0001
1000
1000
0010
1000
,
0001
0001
1000
0100
1000
1000
0001
0100
,
0001
0000
0010
0100
0010
0000
0001
0000
0100
0000
1000
0000
0100
0000
0001
0000
,
1000
0000
0100
0010
0100
0000
0010
0000
0001
1000
0001
1000
0002
0000
0000
0000
,
2003
0000
3001
0100
0001
0100
0010
1000
,
0200
0000
0301
0100
1000
0001
1000
0000
,
0002
0000
1003
0100
1000
0100
0010
0001
,
0200
0000
1300
0100
0001
1000
0001
0000
,
2000
0000
3001
0010
0001
0010
0100
0001
,
0200
0000
1300
0010
0200
0000
1300
0000
,
0100
0010
1000
0001
1000
0001
1000
0100
,
0002
0000
0103
1000
0010
0100
0002
0000
1003
0000
0010
0000
0100
0000
0010
0000
,
0001
0010
0100
0010
1000
0100
0010
0001
,
4000
0040
0000
0000
0000
0000
3030
0000
0001
0000
0010
0000
0100
0000
0010
0000
,
1000
0010
0100
0010
0001
0100
0010
1000
,
0004
0040
0000
0000
0000
0000
0033
0000
1000
0000
0100
0000
0010
0000
0100
0000
,
0001
0100
0010
0100
1000
0010
0100
0001
,
4000
0400
0000
0000
0000
0000
3300
0000
0001
0000
0100
0000
1000
0000
0100
0000
,
0010
0000
1000
0000
0001
0000
0010
0000
2000
0000
3010
0001
0100
0010
1000
0001
,
2000
0000
3020
0032
0023
0000
2030
0000
,
3200
0000
0302
0000
0203
0000
2300
0000
3020
0000
1030
0001
1000
0000
0100
0000
,
0200
0000
0000
0320
0032
0000
0000
0000
0203
0000
0000
0000
2300
0000
0000
0000
,
3200
0000
0302
0000
0023
0000
2030
0000
3020
0000
0031
0000
1000
0010
1000
0000
,
0002
0000
0023
2030
3002
0000
0203
0000
,
2300
0000
3020
0000
0032
0000
2003
0000
3002
0000
0013
0100
0010
0000
1000
0000
,
2000
0000
0000
3200
0320
0000
0000
0000
2030
0000
0000
0000
3002
0000
0000
0000
,
2003
3020
0032
0203
2300
0000
3100
0000
,
0101
0101
1010
1010
,
1100
0000
1100
0000
0011
0000
0011
0010
,
0001
0100
1000
0100
0001
0010
1000
0010
,
0002
0003
0101
0000
1100
0000
1000
0010
,
0001
1000
0100
0001
0010
0000
1100
0000
,
0011
0000
0000
0000
0101
0000
0000
0000
1010
0000
0000
0000
1000
0000
0100
0010
,
0100
0000
0001
0000
1000
0000
0010
0000
0100
0010
0100
0000
1000
0000
0001
0000
,
0100
1000
0100
0001
0020
0000
0031
0001
,
0100
1000
0100
0100
0010
1000
0100
0100
,
0001
0000
0100
0000
1000
0000
1000
0000
0001
0000
0100
0000
0010
0000
1000
0001
,
1000
0000
0100
0000
0001
0000
1000
0000
0010
0000
0001
0000
0100
0000
0010
1000
,
0010
0000
0100
0000
0001
1000
0001
1000
0002
0000
0000
0000
1003
0000
0000
0000
,
0000
0000
1100
0000
0101
0000
0011
0010
,
0001
0000
0000
0000
1010
0000
0010
0000
1000
0000
0000
0000
0001
0000
0100
0010
,
0100
0000
1000
0000
0001
0000
0010
0000
0100
0010
0100
0000
0001
0000
1000
0000
,
0100
0001
0100
1000
0020
0000
1030
1000
,
0100
0001
0100
0100
0010
0001
0100
0100
,
1000
0000
0100
0000
0001
0000
0001
0000
1000
0000
0100
0000
0010
0000
0001
1000
,
0001
0000
0100
0000
1000
0000
0001
0000
0010
0000
1000
0000
0100
0000
0010
0100
,
0010
0000
0100
0000
1000
0001
1000
0001
2000
0000
0000
0000
3001
0000
0100
0000
,
0001
0100
1000
0100
1000
0100
0001
0010
,
0001
0010
1000
0010
1000
0010
0001
0100
,
0001
0100
0010
1000
0010
1000
0001
1000
,
0001
0000
1000
0000
0100
0000
0010
0001
0000
0010
0001
0000
1000
0000
0100
0000
,
1000
0100
0001
0100
0001
0100
1000
0010
,
1000
0010
0001
0010
0001
0010
1000
0100
,
1000
0100
0010
0001
0010
0001
1000
0000
,
2001
0100
3001
0100
1000
0100
0010
0100
,
1000
0100
0001
0010
1000
0010
0100
0010
,
1000
0010
0001
0100
0010
0001
1000
0100
,
0010
0000
1000
0000
0001
0000
1000
0000
0100
0000
0001
0000
0100
0000
0010
0001
,
0000
0010
0001
0000
1000
0000
0100
0000
0001
0000
0100
0000
0010
0000
0100
0000
,
0001
0100
1000
0010
0001
0010
0100
0010
,
0001
0010
1000
0000
1000
0000
0001
0000
,
0001
0010
1000
0010
0001
0100
1000
0100
,
0001
1001
0000
0000
;

//---------------dance-single - ----------------
#NOTEDATA:;
#CHARTNAME:;
#STEPSTYPE:dance-single;
#DESCRIPTION:;
#CHARTSTYLE:;
#DIFFICULTY:Medium;
#METER:10;
#RADARVALUES:0.494716,0.589503,0.167565,0.484077,0.000000,372.000000,354.000000,18.000000,52.000000,0.000000,0.000000,0.000000,0.000000,0.000000,0.494716,0.589503,0.167565,0.484077,0.000000,372.000000,354.000000,18.000000,52.000000,0.000000,0.000000,0.000000,0.000000,0.000000;
#CREDIT:;
#OFFSET:-0.005730;
#BPMS:0.000000=180.000000
,92.000000=90.000000
,94.000000=180.000000
,122.000000=90.000000
,124.000000=180.000000
,264.000000=90.000000
,266.000000=180.000000
;
#STOPS:;
#DELAYS:;
#WARPS:;
#TIMESIGNATURES:0.000000=4=4
;
#TICKCOUNTS:0.000000=4
;
#COMBOS:0.000000=1
;
#SPEEDS:0.000000=1.000000=0.000000=0
;
#SCROLLS:0.000000=1.000000
;
#FAKES:;
#LABELS:0.000000=Song Start
;
#DISPLAYBPM:90.000000:180.000000;
#NOTES:
0000
0000
0000
0000
,
0000
0000
0000
0000
,
0000
0000
0000
0000
,
0000
0000
0000
0000
,
1001
0000
0000
0001
0010
0000
0000
0000
,
0001
0000
0000
1000
0010
0000
1000
0001
,
1000
0000
0100
0000
0010
0001
0100
0000
,
0001
1000
0001
1000
0100
0000
0110
0000
,
1001
0000
0001
0100
0010
1000
0100
0000
,
0011
1100
1010
0101
,
0001
0100
0010
0000
1000
0100
0010
0000
,
0001
1000
0001
1000
0001
0000
0100
0000
,
0010
0010
1000
1000
,
0001
0001
0010
0010
,
0100
0000
0010
0001
0100
0010
1000
0000
,
0010
1000
0100
0010
0002
0000
1003
0000
,
2000
0000
3001
0100
0001
0000
0010
0000
,
0200
0000
0310
0001
1000
0000
1000
0000
,
0002
0000
1003
0100
1000
0000
0010
0000
,
0200
0000
0310
1000
0001
0000
0001
0000
,
2000
0000
3100
0010
0100
0000
1000
0000
,
0002
0103
0020
1030
,
0001
0000
0010
0100
1000
0000
0010
0100
,
0002
0003
0001
0010
,
1000
0000
0010
0000
0001
0000
0100
0001
,
1000
0100
1000
0100
1000
0000
0010
0000
,
0001
0000
0010
0000
1000
0000
0100
1000
,
0001
0100
0001
0100
0001
0000
0100
0000
,
1000
0000
0100
0000
0001
0000
0010
0100
,
1000
0001
1000
0001
0100
0000
1000
0000
,
0100
0001
2000
3000
,
2000
0000
3020
0230
0320
0000
2030
0000
,
3002
0023
0032
0023
0230
0000
1300
0000
,
0002
0203
0320
2030
,
3002
0023
0230
2300
3020
0000
1030
0000
,
0002
0000
0023
0230
0320
0000
2030
0000
,
3020
0230
0320
0230
2300
0000
3001
0000
,
2000
3020
0032
0023
,
2030
3002
2003
3002
2000
0000
3003
0000
,
0001
0001
0100
0100
,
0010
0010
1000
1000
,
0001
1000
0001
1000
0001
1000
0001
1000
,
0200
0300
1100
0011
,
1001
0000
1000
0010
1000
0100
0010
0000
,
0011
0101
1100
1010
,
0010
1000
0100
0000
0010
0001
0100
0000
,
0001
1000
0001
1000
0001
0000
0100
0000
,
0001
0001
0010
0010
,
1000
1000
0100
0100
,
0001
0000
0010
0001
0100
0001
0010
0000
,
0100
1000
0010
1000
0200
0000
0310
0000
,
1001
0000
1000
1000
,
0010
0100
0001
0000
0001
0010
0100
0000
,
0010
0001
0100
0000
0010
1000
0100
0000
,
1000
0001
1000
0001
1000
0000
0100
0000
,
1000
1000
0010
0010
,
0001
0001
0100
0100
,
1000
0000
0010
1000
0100
1000
0010
0000
,
0100
0001
0100
0001
2000
0000
3100
0000
,
1000
1000
0010
0010
,
0100
0100
0001
0001
,
0010
0010
0100
0100
,
1000
0000
1000
0000
0001
0100
0010
0100
,
0001
0001
0010
0010
,
0100
0100
1000
1000
,
0010
0010
0100
0100
,
0001
0000
0110
1001
0001
0010
0001
0000
,
1000
0100
1000
0000
0010
1000
0010
0000
,
0100
0001
0100
0000
0001
0010
0001
0000
,
1000
0010
1000
0000
0001
1000
0001
0000
,
0100
0010
0100
0010
1000
0001
1000
0000
,
0100
0010
0100
0000
1000
0001
1000
0000
,
0010
0100
0010
0000
1000
0000
1000
0000
,
0001
0001
0020
0000
,
0000
0030
1001
0000
;

//---------------dance-single - ----------------
#NOTEDATA:;
#CHARTNAME:;
#STEPSTYPE:dance-single;
#DESCRIPTION:;
#CHARTSTYLE:;
#DIFFICULTY:Easy;
#METER:7;
#RADARVALUES:0.372367,0.416120,0.121019,0.363058,0.000000,280.000000,267.000000,13.000000,39.000000,0.000000,0.000000,0.000000,0.000000,0.000000,0.372367,0.416120,0.121019,0.363058,0.000000,280.000000,267.000000,13.000000,39.000000,0.000000,0.000000,0.000000,0.000000,0.000000;
#CREDIT:;
#OFFSET:-0.005730;
#BPMS:0.000000=180.000000
,92.000000=90.000000
,94.000000=180.000000
,122.000000=90.000000
,124.000000=180.000000
,264.000000=90.000000
,266.000000=180.000000
;
#STOPS:;
#DELAYS:;
#WARPS:;
#TIMESIGNATURES:0.000000=4=4
;
#TICKCOUNTS:0.000000=4
;
#COMBOS:0.000000=1
;
#SPEEDS:0.000000=1.000000=0.000000=0
;
#SCROLLS:0.000000=1.000000
;
#FAKES:;
#LABELS:0.000000=Song Start
;
#DISPLAYBPM:90.000000:180.000000;
#NOTES:
0000
0000
0000
0000
,
0000
0000
0000
0000
,
0000
0000
0000
0000
,
0000
0000
0000
0000
,
0011
0000
1001
0000
,
1010
0000
1001
1000
,
0001
0000
0010
0100
,
1000
0001
0200
0300
,
0010
1000
0001
1000
,
0100
0100
0010
0010
,
0001
0100
0010
1000
,
0001
0010
0100
0100
,
1000
0010
1000
0001
,
1000
0100
1000
0001
,
0100
0010
1000
0100
,
0010
0001
1000
0110
,
0001
0001
1000
0010
,
1000
1000
0001
0001
,
1000
1000
0001
0010
,
0001
0001
1000
1000
,
0001
0001
0100
0010
,
1000
1000
0001
0001
,
1000
0100
0010
0001
,
2000
3000
0001
0100
,
0010
1000
0100
0010
,
0021
0130
1000
0100
,
0010
0001
0100
0010
,
2010
3001
1000
0010
,
0100
0001
1000
0100
,
0210
1300
0001
0100
,
1000
0100
0002
0003
,
2000
3020
0230
0302
,
0023
0230
2300
0010
,
3002
0023
0230
2300
,
3020
0230
0302
0010
,
2003
3020
0230
0320
,
0032
0023
2030
0100
,
3002
0023
0230
0320
,
2030
3020
0002
0033
,
0001
0001
0100
0100
,
1000
1000
0010
0010
,
0001
0100
1000
0010
,
0002
0000
0103
0100
,
0001
0010
1000
0010
,
0001
0001
0100
0100
,
1000
0100
0010
0100
,
0001
1000
0100
0100
,
0010
0001
1000
0001
,
0100
0001
1000
0001
,
0010
1000
0010
0001
,
0100
0010
1000
0110
,
1001
0000
1000
1000
,
0012
0103
2010
3100
,
0001
0100
0010
0100
,
1000
0001
0100
0100
,
0010
1000
0001
1000
,
0100
1000
0001
1000
,
0010
0001
0010
1000
,
0100
0100
0100
0010
,
0001
0100
0001
0100
,
0010
1000
0010
1000
,
0001
0010
0001
0010
,
0100
1000
0001
0001
,
1000
0100
1000
0100
,
0010
0001
0010
0001
,
1000
0010
1000
0010
,
0200
0300
0001
0010
,
0001
0010
1000
0010
,
1000
0010
0001
0100
,
0001
0100
1000
0100
,
0001
0001
1000
0010
,
1000
0010
0001
0010
,
0001
0010
1000
0000
,
0001
0000
0020
0000
,
0000
0030
1001
0000
;

//---------------dance-single - ----------------
#NOTEDATA:;
#CHARTNAME:;
#STEPSTYPE:dance-single;
#DESCRIPTION:;
#CHARTSTYLE:;
#DIFFICULTY:Beginner;
#METER:4;
#RADARVALUES:0.228740,0.247624,0.037237,0.046546,0.000000,172.000000,168.000000,4.000000,5.000000,0.000000,0.000000,0.000000,0.000000,0.000000,0.228740,0.247624,0.037237,0.046546,0.000000,172.000000,168.000000,4.000000,5.000000,0.000000,0.000000,0.000000,0.000000,0.000000;
#CREDIT:;
#OFFSET:-0.005730;
#BPMS:0.000000=180.000000
;
#STOPS:;
#DELAYS:;
#WARPS:;
#TIMESIGNATURES:0.000000=4=4
;
#TICKCOUNTS:0.000000=4
;
#COMBOS:0.000000=1
;
#SPEEDS:0.000000=1.000000=0.000000=0
;
#SCROLLS:0.000000=1.000000
;
#FAKES:;
#LABELS:0.000000=Song Start
;
#DISPLAYBPM:90.000000:180.000000;
#NOTES:
0000
0000
0000
0000
,
0000
0000
0000
0000
,
0000
0000
0000
0000
,
0000
0000
0000
0000
,
0001
0000
0001
0000
,
1000
0000
1000
0000
,
0010
0000
0100
0000
,
0010
0010
0010
0000
,
1000
1000
1000
0000
,
0100
0000
0010
0000
,
0001
0000
1000
0000
,
0001
1000
0001
0000
,
0100
0100
0100
0000
,
0010
0010
0010
0000
,
1000
0000
0001
0000
,
1000
0001
1000
0000
,
0001
0000
0010
0000
,
0001
0010
0001
0000
,
1000
0000
0010
0000
,
1000
0010
1000
0000
,
0001
0000
1000
0000
,
0001
1000
0001
0000
,
0010
0000
0001
0000
,
0100
0000
0000
0000
,
0100
0000
0100
0000
,
0001
0001
2000
3000
,
0100
0000
0100
0000
,
1000
1000
0002
0003
,
1000
0000
1000
0000
,
0001
0001
0200
0300
,
0010
0000
1000
0000
,
0100
0000
0000
0000
,
1000
0000
0001
0000
,
0100
0010
0100
0000
,
0001
0000
1000
0000
,
0100
0010
0100
0000
,
0010
0000
0001
0000
,
0100
0010
1000
0000
,
0010
0000
1000
0000
,
0100
0010
0001
0000
,
1000
0000
1000
0000
,
0001
0000
0001
0000
,
0100
0010
0100
0010
,
0200
0000
0300
0000
,
0001
0001
0001
0000
,
0010
0000
0001
0000
,
0100
0000
0010
0000
,
1000
0001
1000
0000
,
0001
0001
0001
0000
,
0010
0010
0010
0000
,
0100
0000
1000
0000
,
0010
0100
0010
0000
,
1001
0000
0000
0000
,
0110
0000
1001
0000
,
0100
0000
0010
0000
,
0001
1000
0001
0000
,
1000
1000
1000
0000
,
0010
0010
0010
0000
,
1000
0000
0100
0000
,
0010
0100
0010
0000
,
0001
0000
0001
0000
,
1000
0000
1000
0000
,
0001
0000
0001
0000
,
0100
0000
0100
0100
,
0001
0000
0001
0000
,
1000
0000
1000
0000
,
0001
0000
0001
0000
,
0010
0000
0000
0000
,
0001
0000
0100
0000
,
0010
0000
1000
0000
,
0001
0000
0100
0000
,
0010
0000
0010
0010
,
1000
0000
0100
0000
,
0010
0000
0001
0000
,
1000
0000
0001
0000
,
0200
0000
0000
0300
,
1001
0000
0000
0000
;

//---------------dance-single - [B-SIDE] Panic----------------
#NOTEDATA:;
#CHARTNAME:[B-SIDE] Panic;
#STEPSTYPE:dance-single;
#DESCRIPTION:[B-SIDE] Panic;
#CHARTSTYLE:;
#DIFFICULTY:Edit;
#METER:18;
#RADARVALUES:1.093162,1.105929,0.465458,0.521313,1.196228,822.000000,772.000000,50.000000,56.000000,29.000000,0.000000,3.000000,0.000000,0.000000,1.093162,1.105929,0.465458,0.521313,1.196228,822.000000,772.000000,50.000000,56.000000,29.000000,0.000000,3.000000,0.000000,0.000000;
#CREDIT:[B-SIDE] Panic;
#DISPLAYBPM:90.000000:180.000000;
#NOTES:
// measure 0
0000
0000
0000
0000
,  // measure 1
0000
0000
0000
0000
,  // measure 2
0000
0000
0000
0000
,  // measure 3
0000
0000
0000
0000
,  // measure 4
1001
0000
0001
0101
1001
0000
0010
0010
,  // measure 5
1001
0000
1000
1100
1001
0000
0110
0110
,  // measure 6
1001
0000
0000
0000
0001
1000
0001
0000
0011
0000
1000
0000
1010
0000
0001
0000
,  // measure 7
0010
0000
0010
0000
0100
0000
0100
0000
0010
0001
0100
0010
2000
000M
00M0
0M00
,  // measure 8
3001
0000
1000
0100
0010
0001
0100
0010
1000
0000
0010
0000
1000
0001
0010
0000
,  // measure 9
0100
1000
0100
M00M
0100
0001
0010
M00M
0010
1000
0010
0000
1000
0001
1000
0000
,  // measure 10
0100
0000
0100
0010
0001
0000
0100
0000
0010
0000
0100
0000
0100
0010
1000
0000
,  // measure 11
0100
0000
1000
0100
0010
0001
0010
0100
1000
0010
1000
0010
0100
0001
1000
0100
,  // measure 12
0010
0010
0011
0100
1000
1000
1010
0100
,  // measure 13
0001
0001
0011
1000
0100
0100
0110
0001
,  // measure 14
1000
0000
0001
0100
0010
1000
0100
0000
0001
0000
0100
0000
1000
0000
0010
0000
,  // measure 15
0100
0000
1000
0100
0010
0000
1000
0000
0001
0010
0100
1000
0020
M000
0M00
000M
,  // measure 16
2030
0000
0000
0000
3010
1000
0010
M00M
0010
0001
0010
0000
0012
0000
1003
0000
,  // measure 17
0101
0000
0000
0000
1000
0100
1000
0000
0001
0000
1000
0010
1000
0000
0001
0000
,  // measure 18
0002
0000
0000
0000
0013
0001
0010
M00M
0010
1000
0010
0000
2010
0000
3001
0000
,  // measure 19
1100
0000
0000
0000
0001
0100
0001
0000
1000
0000
0001
0010
0001
0000
1000
0000
,  // measure 20
0020
0000
0000
0000
1030
0001
0100
M00M
0100
1000
0001
0000
2001
0000
3100
0000
,  // measure 21
1001
0000
0000
0000
0010
0100
0010
0000
1001
0000
0000
0000
1000
0000
1000
0000
,  // measure 22
0100
0000
0010
0000
0001
0100
1000
0000
1000
0100
0001
0000
0010
0000
0100
0000
,  // measure 23
2000
0000
0000
0000
3001
0010
0001
0000
0010
0000
0100
0000
2000
0000
0000
0000
3001
0000
0100
0000
0010
0000
1000
0000
0001
0000
0100
0000
0010
0000
0100
0000
,  // measure 24
0001
0010
0100
1000
0001
1000
0100
0010
0001
1000
0010
0100
0010
1000
0001
1000
,  // measure 25
0400
0001
0000
0010
0000
1000
0300
0000
1000
0100
0010
0001
1000
0100
0010
0100
,  // measure 26
1000
0010
0100
0001
1000
0001
0100
0010
1000
0001
0010
0100
0010
0001
1000
0001
,  // measure 27
0400
1000
0000
0010
0000
0001
0300
0000
0001
0010
0100
1000
0001
0010
0100
0010
,  // measure 28
0001
0100
0010
1000
0001
1000
0100
0010
0001
0010
0100
1000
0001
1000
0010
0100
,  // measure 29
0040
0001
0000
0100
0000
1000
0030
0000
1000
0100
0010
0001
0010
0100
1000
0100
,  // measure 30
0001
0000
0100
0000
1000
0000
0100
0000
0010
0000
0001
0000
0100
0000
0010
0000
2000
0000
0000
0000
3001
1000
0001
0000
1000
0000
0010
0000
0100
0000
0010
0000
,  // measure 31
2000
0000
0000
0000
0000
0000
0100
0000
0000
0000
0000
0000
3002
0000
0000
0000
0000
0000
0023
0000
0000
0000
0000
0000
0032
0000
0000
0000
0000
0000
0103
0000
0010
0000
0100
0000
0002
0000
0000
0000
0000
0000
0103
0000
0000
0020
0000
0000
,  // measure 32
2030
0000
3200
0000
0302
0000
0203
0000
2300
0000
3010
0100
0001
0000
0001
0000
,  // measure 33
0020
0130
1000
0020
0230
0000
0001
0000
0320
0000
1000
0000
0230
0000
0001
0000
,  // measure 34
0320
0000
2030
0000
3200
0000
0302
0000
0203
0310
0001
1000
0010
0100
0001
0000
,  // measure 35
0021
0000
0000
0000
0000
0000
0130
0000
0000
0000
0000
0000
0011
0000
0000
0000
0000
0000
1001
0000
0000
0000
0000
0000
2010
0000
0000
0000
0000
0000
3010
0000
0100
0000
0010
0000
2000
0000
0000
0000
0000
0000
3100
0000
0000
0020
0000
0000
,  // measure 36
0031
0000
0101
0000
1001
0000
1100
0000
1002
0000
0103
0010
0100
0000
0001
0000
,  // measure 37
2001
0000
3100
0020
0032
0000
0103
0000
2010
0000
3100
0000
0012
0000
0103
0000
,  // measure 38
0020
0000
2030
0000
3002
0000
0023
0000
0230
1300
0001
0100
0020
0000
0000
0000
,  // measure 39
1030
0010
1000
0010
0100
0001
0010
0000
0001
0010
0001
0010
0100
1000
0010
0000
,  // measure 40
1000
0010
0100
0001
0010
0001
0100
0000
0001
0100
0010
1000
0100
1000
0010
0000
,  // measure 41
1000
0100
0010
0100
0010
0100
0001
0000
0001
0100
0010
0100
0010
0100
1000
0000
,  // measure 42
MM2M
0000
0000
0000
0130
0010
0100
0000
0001
1000
0001
0000
0010
0000
0100
1000
,  // measure 43
0010
0100
0010
0100
1000
0000
0100
0000
0001
0010
0100
0000
1000
0001
0100
M00M
,  // measure 44
0100
1000
0010
M00M
0010
0001
0100
0000
0010
1000
0010
0000
1000
0000
1000
0100
,  // measure 45
0001
0000
0100
0000
0010
0000
0001
0000
0001
0100
1000
0000
0100
0000
0010
1000
,  // measure 46
0010
0100
0010
0001
0010
1000
0010
1000
0100
0010
0001
0100
0010
0000
0010
0000
,  // measure 47
1010
0100
0001
0001
0011
0100
1000
1000
,  // measure 48
1100
0000
0001
0000
0100
0000
0100
0000
0110
0000
1010
0000
1001
0000
0001
0010
,  // measure 49
0100
0010
1000
0000
0001
0000
1000
0000
0010
0000
0001
0000
0100
0000
1000
0100
,  // measure 50
0001
0000
0010
0000
0100
0010
0001
0100
0020
M00M
0M30
0000
2002
0000
0000
0000
,  // measure 51
3003
0000
0000
0000
1000
0100
1000
0000
0001
0100
0001
0000
0012
0000
0103
0000
,  // measure 52
1010
0000
0000
0000
2010
0000
3100
0000
0010
0001
0010
0000
0001
0000
0001
0100
,  // measure 53
1000
0000
0100
0000
0010
0000
1000
0000
1000
0100
0001
0000
0100
0000
0010
0001
,  // measure 54
0010
0100
0010
1000
0010
0001
0010
0001
0100
0010
1000
0100
0010
0000
0010
0000
,  // measure 55
0011
0100
1000
1000
1010
0100
0001
0001
,  // measure 56
0101
0000
1000
0000
0100
0000
0100
0000
0110
0000
0011
0000
1001
0000
1000
0010
,  // measure 57
0100
0010
0001
0000
1000
0000
0001
0000
0010
0000
1000
0000
0100
0000
0010
0001
,  // measure 58
1000
0000
0100
0000
0010
0001
0100
0010
2000
000M
0M00
00M0
3001
0100
0010
0000
,  // measure 59
0010
0100
0001
0000
0001
0010
0100
0000
0100
1000
0010
0000
1000
0100
0010
0000
,  // measure 60
0010
0100
0001
0000
0001
0100
0010
0000
0010
0100
1000
0000
0001
0100
0010
0000
,  // measure 61
0010
1000
0001
0000
0001
1000
0100
0000
0100
0010
0001
0000
1000
0100
1000
0000
,  // measure 62
0001
0100
0001
0000
1000
0010
0100
1000
0000
1000
0100
0010
1000
0100
0010
0000
,  // measure 63
0010
0100
1000
0000
1000
0010
0100
0000
0100
0001
0010
0000
0001
0100
0010
0000
,  // measure 64
0010
0100
1000
0000
1000
0100
0010
0000
0010
0100
0001
0000
1000
0100
0010
0000
,  // measure 65
0010
0001
1000
0000
1000
0001
0100
0000
0100
0010
1000
0001
0020
0000
0000
0000
,  // measure 66
0130
0000
1001
0000
1000
0100
0001
0000
0001
0100
0010
0000
0010
0100
0001
0000
,  // measure 67
0001
0100
1000
0000
0001
0100
0010
0000
0010
0001
1000
0000
1000
0001
0010
0000
,  // measure 68
0010
0100
0001
0000
1000
0100
0010
0000
0010
0100
0001
0000
0001
0100
0010
0000
,  // measure 69
0010
0001
1000
0000
0001
0100
0010
0000
1000
0010
0100
0000
0001
0010
0100
0001
,  // measure 70
0000
0001
0100
0010
0001
0100
1000
0000
1000
0100
0010
0000
0010
0100
1000
0000
,  // measure 71
1000
0100
0001
0000
1000
0100
0010
0000
0010
1000
0001
0000
0001
1000
0010
0000
,  // measure 72
0010
0100
1000
0000
0001
0100
0001
0000
0100
0010
0100
0000
0010
1000
0010
0000
,  // measure 73
1000
0100
0010
0001
1000
0010
1000
0010
0100
0010
0100
0010
0100
0001
0100
0001
,  // measure 74
1000
0100
0010
0100
0001
0000
0000
0000
0000
0000
0000
0000
0000
0000
0000
0000
;
