#VERSION:0.83;
#TITLE:Do Back Burn;
#SUBTITLE:;
#ARTIST:PRASTIK DANCEFLOOR;
#TITLETRANSLIT:;
#SUBTITLETRANSLIT:;
#ARTISTTRANSLIT:;
#GENRE:Electro;
#ORIGIN:;
#CREDIT:;
#BANNER:Do Back Burn.png;
#BACKGROUND:Do Back Burn-bg.png;
#PREVIEWVID:;
#JACKET:Do Back Burn-jacket.png;
#CDIMAGE:;
#DISCIMAGE:;
#LYRICSPATH:;
#CDTITLE:cdtitle.png;
#MUSIC:Do Back Burn.ogg;
#OFFSET:-0.374312;
#SAMPLESTART:70.963547;
#SAMPLELENGTH:14.117645;
#SELECTABLE:YES;
#BPMS:0.000=136.000;
#STOPS:;
#DELAYS:;
#WARPS:;
#TIMESIGNATURES:0.000=4=4;
#TICKCOUNTS:0.000=4;
#COMBOS:0.000=1;
#SPEEDS:0.000=1.000=0.000=0;
#SCROLLS:0.000=1.000;
#FAKES:;
#LABELS:0.000=Song Start;
#BGCHANGES:;
#KEYSOUNDS:;
#ATTACKS:
;

//---------------dance-single - ----------------
#NOTEDATA:;
#CHARTNAME:;
#STEPSTYPE:dance-single;
#DESCRIPTION:;
#CHARTSTYLE:;
#DIFFICULTY:Challenge;
#METER:13;
#RADARVALUES:0.592884,0.602952,0.009788,0.137035,0.543244,424.000000,423.000000,1.000000,14.000000,4.000000,0.000000,0.000000,0.000000,0.000000,0.592884,0.602952,0.009788,0.137035,0.543244,424.000000,423.000000,1.000000,14.000000,4.000000,0.000000,0.000000,0.000000,0.000000;
#CREDIT:;
#NOTES:
// measure 0
0000
0000
0000
0000
,  // measure 1
0000
0000
0000
0000
,  // measure 2
0000
0000
0000
0000
,  // measure 3
0000
0000
0000
0000
,  // measure 4
1000
0000
0010
0000
1000
0200
0000
0000
0320
0000
0000
0031
0000
0002
0000
0000
,  // measure 5
0103
0000
0100
0000
0100
0000
1000
0100
,  // measure 6
0001
0000
0010
0000
0001
0200
0000
0000
0320
0000
0000
1030
0000
2000
0000
0000
,  // measure 7
3001
0000
0000
0100
0000
0000
0010
0000
0000
1000
0000
0000
0000
0000
0000
0000
0000
0000
0010
0000
0000
1000
0000
0000
0001
0000
0000
0000
0010
0000
0000
0000
0100
0000
0000
0000
1000
0000
0000
0000
0000
0000
0001
0000
0000
0000
0000
0000
,  // measure 8
1001
0000
0000
0000
0001
0000
0100
0010
1000
0000
0000
0000
1000
0000
0100
0010
,  // measure 9
0001
0000
0000
0000
0001
0000
0100
0010
1000
0000
0001
0000
0010
0000
0001
0100
,  // measure 10
0010
0000
0000
0000
0010
0000
1000
0100
0010
0000
0000
0000
0010
0000
0001
0100
,  // measure 11
0010
0000
0000
0000
0010
0000
1000
0100
0010
0000
0001
0000
0100
0000
0010
1000
,  // measure 12
0001
0000
0000
0000
0001
0000
0010
0001
1000
0000
0000
0000
1000
0000
0100
1000
,  // measure 13
0001
0000
0000
0000
0001
0000
0100
0001
1000
0000
0010
0000
1000
0000
0001
0010
,  // measure 14
0100
0000
0000
0000
0100
0000
0010
0100
1000
0000
0000
0000
1000
0000
0001
0100
,  // measure 15
0010
0000
1000
0000
0100
0000
1000
0001
0000
0001
1000
0000
0100
0000
0010
0100
,  // measure 16
1000
0000
0000
0000
0001
0000
0010
0001
0100
0000
0000
0000
0100
0000
0010
1000
,  // measure 17
0100
0000
0000
0000
0100
0000
0010
0001
0100
0000
1000
0000
0100
0000
0010
1000
,  // measure 18
0001
0000
0000
0000
0001
0000
0100
0001
0010
0000
0000
0000
0010
0000
0100
1000
,  // measure 19
0010
0000
0000
0000
0010
0000
0100
0001
0010
0000
1000
0000
0010
0000
0001
1000
,  // measure 20
0010
0000
0000
0000
0010
0000
0100
0001
1000
0000
0000
0000
1000
0000
0010
1000
,  // measure 21
0100
0000
0000
0000
0100
0000
0010
0001
0100
0000
1000
0000
0100
0000
0010
0100
,  // measure 22
0001
0000
0000
0000
0001
0000
0010
0100
1000
0000
0000
0000
1000
0000
0010
0100
,  // measure 23
0001
0000
0010
0000
0100
0000
1000
0001
0000
0001
1000
0000
0100
0010
0100
0010
,  // measure 24
0001
1000
0000
0000
0001
0000
0100
0010
0000
0010
0000
0000
1000
0000
0001
0000
,  // measure 25
0010
0001
0000
0000
1000
0000
0010
1000
0000
0001
0000
0000
0100
0000
0001
0000
,  // measure 26
1000
0100
0000
0000
1000
0000
0001
0100
0000
0100
0000
0000
0001
0000
1000
0000
,  // measure 27
0001
0010
0000
0000
0001
0000
0100
1000
0000
0100
0000
0000
0010
0000
1000
0000
,  // measure 28
0001
0010
0000
0000
0001
0000
1000
0010
0000
0010
0000
0000
1000
0000
0100
0000
,  // measure 29
0010
0001
0000
0000
1000
0000
0001
0100
0000
0010
0000
0000
0100
0000
0001
0000
,  // measure 30
1000
0100
0000
0000
1000
0000
0001
0100
0000
0100
0000
0000
0010
0000
2000
0002
,  // measure 31
0000
0000
0000
0000
0000
0000
0000
0000
3003
0000
0000
0000
0001
1000
0001
1000
,  // measure 32
0100
0000
0000
0000
0100
0000
0010
0001
0100
0000
00M0
0000
0100
1000
0010
0000
,  // measure 33
1000
1000
0010
0010
0100
0100
0001
0001
,  // measure 34
1000
0000
0000
0000
1000
0000
0010
1000
0100
0000
00M0
0000
0100
0001
0010
0000
,  // measure 35
0100
0010
0100
0010
1000
0010
0001
0100
,  // measure 36
0001
0000
0000
0000
0001
0000
0100
0001
0010
0000
0M00
0000
0010
1000
0100
0000
,  // measure 37
0010
0010
0001
0001
1000
1000
0010
0010
,  // measure 38
0100
0000
0000
0000
0100
0000
0001
1000
0100
0000
00M0
0000
0100
0001
1000
0000
,  // measure 39
0010
0000
1000
0000
0001
0000
0010
0001
0000
0010
0001
0000
1000
0001
1000
0001
,  // measure 40
0100
0000
0010
0000
1000
0010
0000
1000
0100
0000
0010
0001
0000
0010
0001
0000
,  // measure 41
1000
0001
0100
0001
1000
0001
0100
0001
,  // measure 42
1000
0000
0100
0000
0010
0001
0000
0100
0001
0000
1000
0010
0000
1000
0010
0000
,  // measure 43
1000
0100
0010
0100
1000
0100
0001
0100
,  // measure 44
1000
0000
0001
0000
0100
0010
0000
1000
0001
0000
1000
0100
0000
1000
0100
0000
,  // measure 45
0010
0001
0100
0001
0010
0001
0100
0001
,  // measure 46
1000
0000
0010
0000
0100
0001
0000
1000
0100
0000
0010
0001
0000
0010
0001
0000
,  // measure 47
1000
0010
1000
0000
0010
0000
0000
0100
0010
0000
1000
0000
0100
0000
0010
0000
,  // measure 48
0001
0000
1000
0000
0001
2000
0000
0000
3200
0000
0000
0310
0000
0002
0000
0000
,  // measure 49
0103
0010
0100
0010
0100
0010
0100
0010
,  // measure 50
1000
0000
0100
0000
0010
0002
0000
0000
2003
0000
0000
3010
0000
2000
0000
0000
,  // measure 51
3001
0010
0100
1000
0001
0100
1000
0100
,  // measure 52
0001
0100
0010
1000
,  // measure 53
0001
1000
0100
0010
,  // measure 54
0001
1000
0001
0100
,  // measure 55
0010
0000
0000
0000
1000
0000
0000
0010
0000
1000
0001
1000
0001
0010
0100
1000
,  // measure 56
0001
0000
0000
0000
;

//---------------dance-single - ----------------
#NOTEDATA:;
#CHARTNAME:;
#STEPSTYPE:dance-single;
#DESCRIPTION:;
#CHARTSTYLE:;
#DIFFICULTY:Hard;
#METER:11;
#RADARVALUES:0.464240,0.465918,0.146823,0.137035,0.210446,332.000000,317.000000,15.000000,14.000000,0.000000,0.000000,0.000000,0.000000,0.000000,0.464240,0.465918,0.146823,0.137035,0.210446,332.000000,317.000000,15.000000,14.000000,0.000000,0.000000,0.000000,0.000000,0.000000;
#CREDIT:;
#NOTES:
// measure 0
0000
0000
0000
0000
,  // measure 1
0000
0000
0000
0000
,  // measure 2
0000
0000
0000
0000
,  // measure 3
0000
0000
0000
0000
,  // measure 4
0001
0000
1000
0000
0100
0000
0000
0000
0020
0000
0000
0031
0000
0002
0000
0000
,  // measure 5
0103
0000
0100
0000
0100
0000
0010
0100
,  // measure 6
0001
0000
1000
0000
0100
0000
0000
0000
0020
0000
0000
0031
0000
0002
0000
0000
,  // measure 7
2003
0000
0000
0000
0000
0000
0000
0000
0000
3000
0000
0000
0000
0000
0000
0000
0000
0000
0000
0000
0000
0000
0000
0000
1000
0000
0000
0000
0010
0000
0000
0000
1000
0000
0000
0000
0010
0000
0000
0000
0000
0000
0000
0000
0000
0000
0000
0000
,  // measure 8
1001
0000
0001
1000
0100
0000
0010
0100
,  // measure 9
1000
0000
0001
1000
0100
0010
0001
0100
,  // measure 10
0001
0000
1000
0001
0100
0000
0010
0100
,  // measure 11
0001
0000
1000
0001
0100
0010
1000
0100
,  // measure 12
0010
0000
0001
0100
0010
0000
1000
0100
,  // measure 13
0010
0000
0001
0100
0010
1000
0100
1000
,  // measure 14
0001
0000
0010
0001
0100
0000
0010
1000
,  // measure 15
0100
0000
1000
0000
0000
0000
0001
1000
0000
0001
1000
0000
0000
0000
0010
0000
,  // measure 16
0110
0000
0010
1000
0100
0000
0001
0100
,  // measure 17
1000
0000
0010
1000
0100
0001
0100
1000
,  // measure 18
0001
0000
0010
0001
0100
0000
1000
0100
,  // measure 19
0001
0000
0010
0001
0100
1000
0100
0001
,  // measure 20
1000
0000
0010
1000
0100
0000
0010
0001
,  // measure 21
0100
0000
0010
1000
0100
0001
0100
1000
,  // measure 22
0010
0000
0100
0001
0010
0000
0100
1000
,  // measure 23
0010
0000
1000
0000
0000
0000
0001
1000
0000
0001
1000
0000
0000
0000
0001
0000
,  // measure 24
1001
0000
0000
0000
0001
0000
0000
0100
0000
0100
0000
0000
0001
0000
1000
0000
,  // measure 25
0001
0000
0000
0000
1000
0000
0000
0010
0000
0010
0000
0000
1000
0000
0001
0000
,  // measure 26
1000
0000
0000
0000
0100
0000
0000
1000
0000
1000
0000
0000
0001
0000
0010
0000
,  // measure 27
0001
0000
0000
0000
1000
0000
0000
0010
0000
0010
0000
0000
0100
0000
0001
0000
,  // measure 28
0100
0000
0000
0000
0001
0000
0000
1000
0000
0010
0000
0000
0100
0000
0010
0000
,  // measure 29
1000
0000
0000
0000
0100
0000
0000
0010
0000
0100
0000
0000
0010
0000
0001
0000
,  // measure 30
1000
0000
0000
0000
0001
0000
0000
1000
0000
0010
0000
0000
1000
0000
0002
2000
,  // measure 31
0000
0000
0000
0000
3003
0000
0001
1000
,  // measure 32
0001
0000
0001
0100
1000
0000
1000
0100
,  // measure 33
0001
0000
1000
1000
0010
0010
1000
1000
,  // measure 34
0100
0000
1000
0100
0001
0000
0001
0100
,  // measure 35
1000
0000
0001
0001
0010
0010
0100
1000
,  // measure 36
0010
0000
1000
0010
0001
0000
0001
0010
,  // measure 37
1000
0000
0001
0001
0010
0010
0001
0001
,  // measure 38
0100
0000
0001
0100
1000
0000
0001
0010
,  // measure 39
1000
0000
0010
1000
0100
0010
0001
0001
,  // measure 40
1000
0000
0100
0000
1000
0100
0000
0000
0020
0000
0000
0031
0000
1000
0000
0000
,  // measure 41
1100
0101
1100
0101
,  // measure 42
0001
0000
0100
0000
0001
0100
0000
0000
0020
0000
0000
1030
0000
0001
0000
0000
,  // measure 43
0101
0000
1100
0000
0101
0000
1000
0010
,  // measure 44
0100
0000
0001
0000
0100
0001
0000
0000
0020
0000
0000
0130
0000
1000
0000
0000
,  // measure 45
1100
0011
0101
1010
,  // measure 46
0010
0000
1000
0000
0010
1000
0000
0000
0200
0000
0000
0310
0000
0001
0000
0000
,  // measure 47
0010
0000
0001
0000
0100
0000
0000
0001
0100
0000
0010
0000
1000
0000
0000
0000
,  // measure 48
1001
0000
0000
0000
0001
0000
0000
0000
0020
0000
0000
0031
0000
0002
0000
0000
,  // measure 49
0103
0010
0100
0010
0100
0010
0100
0010
,  // measure 50
1000
0000
0001
0000
0010
0000
0000
0000
0100
0000
0000
1000
0000
2000
0000
0000
,  // measure 51
3010
0100
0010
0100
0010
0100
1000
0100
,  // measure 52
0001
0010
0100
1000
,  // measure 53
0010
0010
0010
0010
,  // measure 54
1000
0100
0010
0001
,  // measure 55
0100
0000
0000
0000
0100
0000
0000
0100
0000
0000
0010
0000
1000
0000
0100
0000
,  // measure 56
0001
0000
0000
0000
;

//---------------dance-single - ----------------
#NOTEDATA:;
#CHARTNAME:;
#STEPSTYPE:dance-single;
#DESCRIPTION:;
#CHARTSTYLE:;
#DIFFICULTY:Medium;
#METER:7;
#RADARVALUES:0.359366,0.438511,0.264281,0.048941,0.004894,257.000000,230.000000,27.000000,5.000000,0.000000,0.000000,0.000000,0.000000,0.000000,0.359366,0.438511,0.264281,0.048941,0.004894,257.000000,230.000000,27.000000,5.000000,0.000000,0.000000,0.000000,0.000000,0.000000;
#CREDIT:;
#NOTES:
// measure 0
0000
0000
0000
0000
,  // measure 1
0000
0000
0000
0000
,  // measure 2
0000
0000
0000
0000
,  // measure 3
0000
0000
0000
0000
,  // measure 4
1000
0010
0100
0001
,  // measure 5
1000
0000
1000
0000
1000
0000
1000
0001
,  // measure 6
0010
0001
0100
0010
,  // measure 7
2000
0000
0000
3000
0000
0000
0000
0000
1000
0000
0000
0000
0100
0000
0000
0000
,  // measure 8
1001
0001
1000
1000
,  // measure 9
0010
0000
0010
0000
1000
0100
0010
0001
,  // measure 10
0100
0100
0010
0010
,  // measure 11
1000
0000
1000
0000
0010
0100
0001
0010
,  // measure 12
0100
0100
0010
0010
,  // measure 13
0100
0000
0100
0000
1000
0010
0100
0001
,  // measure 14
1000
1000
0001
0001
,  // measure 15
0100
0010
0000
1000
0000
1000
0000
0001
,  // measure 16
1000
1000
0100
0100
,  // measure 17
0010
0000
0010
0000
0001
0100
0010
1000
,  // measure 18
0100
0100
1000
1000
,  // measure 19
0010
0000
0010
0000
1000
0100
0010
0001
,  // measure 20
0100
0100
0001
0001
,  // measure 21
0010
0000
0010
0000
0001
1000
0010
1000
,  // measure 22
0100
0100
0010
0010
,  // measure 23
0001
0100
0000
0010
0000
0010
0000
0100
,  // measure 24
0001
0000
1000
1000
0000
0000
0010
0000
,  // measure 25
1000
0000
0001
0001
0000
0000
0010
0000
,  // measure 26
0001
0000
0100
0100
0000
0000
0001
0000
,  // measure 27
1000
0000
0100
0100
0000
0000
0010
0000
,  // measure 28
0001
0000
0001
0100
0000
0000
0010
0000
,  // measure 29
1000
0000
1000
0100
0000
0000
0010
0000
,  // measure 30
0001
0000
0000
0000
0001
0000
1000
0000
0000
0000
0000
0000
0001
0000
0000
2002
,  // measure 31
0000
0000
3003
0010
,  // measure 32
1001
0000
1000
0001
0010
0000
0010
0001
,  // measure 33
0100
1010
0101
0011
,  // measure 34
1100
0000
1000
0100
0010
0000
0010
0001
,  // measure 35
1000
0000
1001
0000
0110
0000
1000
0001
,  // measure 36
1000
0000
0001
0100
0010
0000
0010
1000
,  // measure 37
0001
0101
1010
1100
,  // measure 38
0011
0000
0001
1000
0010
0000
0100
0001
,  // measure 39
0010
0000
0001
0000
1000
0000
0010
0010
,  // measure 40
0010
1000
0100
0010
,  // measure 41
0011
1100
0011
1100
,  // measure 42
0010
0001
0100
0010
,  // measure 43
1010
0000
0101
0000
1010
0000
0010
0100
,  // measure 44
0001
0010
0100
1000
,  // measure 45
1100
1001
0101
1001
,  // measure 46
1000
0010
0100
0001
,  // measure 47
0010
0100
0010
0000
0100
0010
0001
0000
,  // measure 48
1000
0001
1000
0010
,  // measure 49
0201
0001
1000
1000
,  // measure 50
0301
1000
0001
0010
,  // measure 51
1200
1000
0001
0310
,  // measure 52
0110
0000
1000
0000
,  // measure 53
0001
0000
1000
0000
,  // measure 54
0010
0000
0100
0000
,  // measure 55
0010
0000
1000
0000
0100
0010
0001
1000
,  // measure 56
0100
0000
0000
0000
;

//---------------dance-single - ----------------
#NOTEDATA:;
#CHARTNAME:;
#STEPSTYPE:dance-single;
#DESCRIPTION:;
#CHARTSTYLE:;
#DIFFICULTY:Easy;
#METER:4;
#RADARVALUES:0.198560,0.191848,0.019576,0.019576,0.000000,142.000000,140.000000,2.000000,2.000000,0.000000,0.000000,0.000000,0.000000,0.000000,0.198560,0.191848,0.019576,0.019576,0.000000,142.000000,140.000000,2.000000,2.000000,0.000000,0.000000,0.000000,0.000000,0.000000;
#CREDIT:;
#NOTES:
// measure 0
0000
0000
0000
0000
,  // measure 1
0000
0000
0000
0000
,  // measure 2
0000
0000
0000
0000
,  // measure 3
0000
0000
0000
0000
,  // measure 4
0001
0000
0010
0000
,  // measure 5
0100
0100
0100
1000
,  // measure 6
0001
0000
0100
0000
,  // measure 7
0010
0000
0010
0100
,  // measure 8
1001
0000
1000
0000
,  // measure 9
0001
0000
1000
0010
,  // measure 10
0100
0000
0001
0000
,  // measure 11
0100
0000
0001
0010
,  // measure 12
0100
0000
1000
0000
,  // measure 13
0100
0000
1000
0001
,  // measure 14
0100
0000
0010
0000
,  // measure 15
0100
0010
0010
0010
,  // measure 16
1000
0000
0100
0000
,  // measure 17
0010
0000
0100
1000
,  // measure 18
0001
0000
0100
0000
,  // measure 19
0010
0000
0100
0001
,  // measure 20
1000
0000
0010
0000
,  // measure 21
0100
0000
0001
0010
,  // measure 22
0100
0000
0010
0000
,  // measure 23
0001
1000
0010
0100
,  // measure 24
0001
1000
0000
1000
,  // measure 25
0000
0001
0000
0001
,  // measure 26
0000
0010
0000
0010
,  // measure 27
0000
0100
0000
1000
,  // measure 28
0000
0001
0000
0001
,  // measure 29
0000
1000
0000
1000
,  // measure 30
0000
0010
0000
0100
,  // measure 31
2002
0000
0000
3003
,  // measure 32
0001
0000
1000
0000
,  // measure 33
0001
0100
1000
0100
,  // measure 34
0001
0000
1000
0000
,  // measure 35
0001
0010
1000
0010
,  // measure 36
0001
0000
0001
0000
,  // measure 37
1000
0010
0001
0010
,  // measure 38
1000
0000
0001
0000
,  // measure 39
1000
0100
0001
0100
,  // measure 40
1000
0000
0010
0000
,  // measure 41
1000
0001
1000
0001
,  // measure 42
0100
0000
0010
0000
,  // measure 43
1000
0001
1000
0100
,  // measure 44
0010
0000
0001
0000
,  // measure 45
1000
0100
1000
0100
,  // measure 46
0010
0000
0001
0000
,  // measure 47
0100
0010
1000
0001
,  // measure 48
0100
0000
0001
0000
,  // measure 49
0010
0010
0010
0010
,  // measure 50
0100
0000
1000
0000
,  // measure 51
0010
0010
0010
1000
,  // measure 52
0001
1000
0000
1000
,  // measure 53
0000
0001
0000
0001
,  // measure 54
0000
0010
0000
0010
,  // measure 55
0000
0001
0010
0100
,  // measure 56
1000
0000
0000
0000
;

//---------------dance-single - ----------------
#NOTEDATA:;
#CHARTNAME:;
#STEPSTYPE:dance-single;
#DESCRIPTION:;
#CHARTSTYLE:;
#DIFFICULTY:Beginner;
#METER:2;
#RADARVALUES:0.146823,0.191848,0.029365,0.019576,0.000000,105.000000,102.000000,3.000000,2.000000,0.000000,0.000000,0.000000,0.000000,0.000000,0.146823,0.191848,0.029365,0.019576,0.000000,105.000000,102.000000,3.000000,2.000000,0.000000,0.000000,0.000000,0.000000,0.000000;
#CREDIT:;
#NOTES:
// measure 0
0000
0000
0000
0000
,  // measure 1
0000
0000
0000
0000
,  // measure 2
0000
0000
0000
0000
,  // measure 3
0000
0000
0000
0000
,  // measure 4
0001
0000
0001
0000
,  // measure 5
1000
1000
1000
1000
,  // measure 6
1000
0000
1000
0000
,  // measure 7
0001
0000
0000
0000
,  // measure 8
1001
0000
0001
0000
,  // measure 9
0001
0000
1000
0000
,  // measure 10
0100
0000
0100
0000
,  // measure 11
0100
0000
0010
0000
,  // measure 12
0001
0000
0001
0000
,  // measure 13
0001
0000
0100
0000
,  // measure 14
0010
0000
0010
0000
,  // measure 15
1000
0000
0001
0000
,  // measure 16
1000
0000
1000
0000
,  // measure 17
1000
0000
0100
0000
,  // measure 18
0010
0000
0010
0000
,  // measure 19
0010
0000
0001
0000
,  // measure 20
0100
0000
0100
0000
,  // measure 21
0100
0000
0010
0000
,  // measure 22
1000
0000
1000
0000
,  // measure 23
1000
0000
0001
0000
,  // measure 24
1001
0000
0000
0000
,  // measure 25
1000
0000
0000
0000
,  // measure 26
0100
0000
0000
0000
,  // measure 27
0010
0000
0000
0000
,  // measure 28
0001
0000
0000
0000
,  // measure 29
0100
0000
0000
0000
,  // measure 30
0010
0000
0000
0000
,  // measure 31
2002
0000
3003
0000
,  // measure 32
0001
0000
0010
0000
,  // measure 33
0001
0000
0100
0000
,  // measure 34
0010
0000
1000
0000
,  // measure 35
0100
0000
0010
0000
,  // measure 36
0100
0000
1000
0000
,  // measure 37
0010
0000
1000
0000
,  // measure 38
0001
0000
0010
0000
,  // measure 39
0001
0000
0100
0000
,  // measure 40
0010
0000
0010
0000
,  // measure 41
1000
0000
0001
0000
,  // measure 42
1000
0000
1000
0000
,  // measure 43
0100
0000
0010
0000
,  // measure 44
0100
0000
0100
0000
,  // measure 45
1000
0000
0001
0000
,  // measure 46
1000
0000
1000
0000
,  // measure 47
0010
0000
0100
0000
,  // measure 48
0001
0000
0001
0000
,  // measure 49
1000
1000
1000
1000
,  // measure 50
1000
0000
1000
0000
,  // measure 51
0001
0001
0001
0001
,  // measure 52
0001
0000
0100
0000
,  // measure 53
0010
0000
1000
0000
,  // measure 54
0001
0000
0100
0000
,  // measure 55
0010
0000
1000
0000
,  // measure 56
0100
0000
0000
0000
;

//---------------dance-single - [B-SIDE] Do Another Back Burn----------------
#NOTEDATA:;
#CHARTNAME:[B-SIDE] Do Another Back Burn;
#STEPSTYPE:dance-single;
#DESCRIPTION:[B-SIDE] Do Another Back Burn;
#CHARTSTYLE:;
#DIFFICULTY:Edit;
#METER:15;
#RADARVALUES:0.790046,0.822207,0.215340,0.274069,0.910301,565.000000,543.000000,22.000000,28.000000,0.000000,0.000000,0.000000,0.000000,0.000000,0.790046,0.822207,0.215340,0.274069,0.910301,565.000000,543.000000,22.000000,28.000000,0.000000,0.000000,0.000000,0.000000,0.000000;
#CREDIT:[B-SIDE] Do Another Back Burn;
#NOTES:
0000
0000
0000
0000
,
0000
0000
0000
0000
,
0000
0000
0000
0000
,
0000
0000
0000
0000
,
0001
0000
0000
0000
0010
0001
0010
0000
0001
0000
2000
0000
3010
0000
0000
0000
1010
0000
0000
0000
0010
0000
1000
0000
0000
0000
0200
0000
0000
0000
0300
0000
,
1100
0000
0000
0000
1001
0000
0000
0000
0101
0000
0000
0000
0100
0010
0100
0010
,
1000
0000
0000
0000
0010
1000
0010
0000
1000
0000
0002
0000
0013
0000
0000
0000
0011
0000
0000
0000
0010
0000
0001
0000
0000
0000
0200
0000
0000
0000
0000
0000
,
0310
0000
0000
0000
0000
0000
0000
0000
0000
0000
0000
0000
1000
0000
0000
0000
0000
0000
0000
0000
0000
0000
0000
0000
0001
0000
0000
0000
0000
0000
0000
0000
0000
0000
0000
0000
0010
0000
0000
0000
0000
0000
0000
0000
0000
0000
0000
0000
0000
0000
0000
0000
0000
0000
0000
0000
0000
0000
0000
0000
0000
0000
0000
0000
0000
0000
0000
0000
0000
0000
0000
0000
0010
0000
0000
0000
0000
0000
0100
0000
0000
0000
0000
0000
0010
0000
0000
0000
0000
0000
0100
0000
0000
0000
0000
0000
0010
0000
0000
0000
0000
0000
0000
0000
0000
0000
0000
0000
0000
0000
0000
0000
0001
0000
0000
0000
0000
0000
0000
0000
0000
0000
0000
0000
0000
0000
0000
0000
1000
0000
0000
0000
0000
0000
0000
0000
0000
0000
0000
0000
0000
0000
0000
0000
0010
0000
0000
0000
0000
0000
0000
0000
0000
0000
0000
0000
0000
0000
0000
0000
0000
0000
0000
0000
0000
0000
0000
0000
0110
0000
0000
0000
0000
0000
0000
0000
0000
0000
0000
0000
0000
0000
0000
0000
0000
0000
0000
0000
0000
0000
0000
0000
,
1002
0000
0100
0000
0103
0000
0001
0100
0020
0000
0100
0000
0130
0000
0010
1000
,
0002
0000
1000
0000
1003
0000
0010
1000
0001
0000
0010
0000
1000
0000
0010
0100
,
0020
0000
0001
0000
0031
0000
0010
0001
2000
0000
0001
0000
3001
0000
1000
0010
,
0200
0000
0010
0000
0310
0000
0100
0001
0010
0000
1000
0000
0010
0000
0001
1000
,
0002
0000
0100
0000
0103
0000
0010
1000
0200
0000
1000
0000
1300
0000
0100
1000
,
0020
0000
1000
0000
1030
0000
0010
0100
0001
0000
0010
0000
1000
0000
0010
0100
,
0020
0000
0001
0000
0031
0000
0100
0010
2000
0000
0010
0000
3010
0000
1000
0100
,
0010
0000
0001
0000
0100
0000
0010
1000
0000
0010
1000
0000
0001
0000
0100
0010
,
2000
0000
0100
0000
3100
0000
1000
0100
0020
0000
0100
0000
0130
0000
0010
0001
,
2000
0000
0001
0000
3001
0000
0010
0001
1000
0000
0010
0000
0001
0000
0010
0100
,
0020
0000
1000
0000
1030
0000
0010
1000
0002
0000
1000
0000
1003
0000
0001
0010
,
0200
0000
0010
0000
0310
0000
0100
1000
0010
0000
0001
0000
0010
0000
1000
0001
,
2000
0000
0100
0000
3100
0000
0010
0001
0200
0000
0001
0000
0301
0000
0100
0001
,
0020
0000
0001
0000
0031
0000
0010
0100
1000
0000
0010
0000
0001
0000
0010
0100
,
0020
0000
1000
0000
1030
0000
0100
0010
0002
0000
0010
0000
0013
0000
0001
0100
,
0010
0000
1000
0000
0100
0000
0010
0001
0000
0010
0001
0000
1000
0010
0100
0001
,
1000
0100
0000
0000
0100
0000
1000
0100
0000
0100
0000
0000
1000
0100
0010
0001
,
1000
0010
0000
0000
0010
1000
0001
0010
0000
0100
0000
0000
0100
0010
0100
1000
,
0001
0100
0000
0000
0100
0000
0001
0100
0000
0100
0000
0000
0001
0100
0010
1000
,
0001
0010
0000
0000
0010
0001
0100
0010
0000
1000
0000
0000
1000
0010
0100
0001
,
0010
0100
0000
0000
0100
0000
0010
0100
0000
0100
0000
0000
0010
0001
1000
0001
,
0100
0010
0000
0000
0010
0100
0001
1000
0000
0100
0000
0000
0100
1000
0010
0100
,
0001
1000
0000
0000
1000
0000
0001
1000
0000
1000
0000
0000
0001
0010
0200
2000
,
0000
0000
0000
0000
0000
0000
0000
0000
3300
0000
0000
0000
1000
0100
0010
0001
,
0100
0000
0000
0000
0100
0000
0001
0100
1000
0000
0000
0000
1000
0100
0001
0000
,
0010
0010
0011
0001
1001
1000
1010
1000
,
1100
0000
0000
0000
0100
0000
1000
0100
0001
0000
0000
0000
0001
0100
1000
0000
,
0010
0010
1010
1000
1001
0001
0011
0001
,
0101
0000
0000
0000
0100
0000
0001
0100
1000
0000
0000
0000
1000
0100
0001
0000
,
0010
0010
0011
0001
1001
1000
1010
0010
,
0110
0000
0000
0000
0100
0000
0010
1000
0100
0000
0000
0000
0010
0001
0100
0000
,
0010
0000
1000
0000
0100
0000
0010
0100
0000
1000
0001
0000
0010
0001
0100
0010
,
1000
0000
0000
0000
0010
1000
0010
0000
1000
0000
0001
0000
0000
0000
0001
0000
0010
0000
0000
0000
0010
0000
0100
0000
0000
0000
0100
0000
1000
0000
0000
0000
,
0001
0000
0100
0001
1000
0000
0100
1000
0001
0000
0100
0001
1000
0000
0100
1000
,
0001
0000
0000
0000
0010
0001
0010
0000
0001
0000
1000
0000
0000
0000
1000
0000
0010
0000
0000
0000
0010
0000
0100
0000
0000
0000
0100
0000
0001
0000
0000
0000
,
1000
0000
0100
1000
0001
0000
0100
0001
1000
0000
0100
1000
0010
0000
0100
0000
,
0001
0000
0000
0000
1000
0010
1000
0000
0001
0000
0010
0000
0000
0000
0010
0000
0100
0000
0000
0000
0100
0000
1000
0000
0000
0000
1000
0000
0010
0000
0000
0000
,
1000
0000
0100
0010
0001
0000
0100
0010
1000
0000
0100
0010
0001
0000
0100
0010
,
1000
0000
0000
0000
0001
0010
0001
0000
1000
0000
0010
0000
0000
0000
0010
0000
0100
0000
0000
0000
0100
0000
0001
0000
0000
0000
0001
0000
0010
0000
0000
0000
,
0100
1000
0010
0000
0100
0000
0000
0010
0100
0000
0001
0000
1000
0100
0010
0001
,
1000
0000
0000
0000
0001
1000
0001
0000
1000
0000
0100
0000
1000
0000
0000
0000
1010
0000
0000
0000
0010
0000
1000
0000
0000
0000
0100
0000
0010
0000
0000
0000
,
0001
0000
1000
0010
1000
0000
0001
0010
0001
0000
1000
0010
1000
0000
0001
0010
,
0001
0000
0000
0000
1000
0001
1000
0000
0001
0000
0100
0000
0001
0000
0000
0000
0011
0000
0000
0000
0010
0000
0001
0000
0000
0000
0100
0000
0010
0000
0000
0000
,
1000
0000
0001
0010
0001
0000
1000
0010
1000
0000
0001
0010
0100
0000
1000
0001
,
0100
0000
0000
0000
0110
0000
1000
0010
1000
0010
1000
0010
0100
0000
0001
0010
,
0001
0010
0001
0010
0100
0000
0010
0001
0010
0001
0010
0001
1000
0000
0010
1000
,
0010
1000
0010
1000
0100
0000
0010
0001
0010
0001
0010
0001
0100
0000
0001
1000
,
0001
1000
0001
1000
0100
0000
0010
0100
0000
0100
0010
0001
1000
0010
0100
0001
,
1000
0000
0000
0000
;
