#TITLE:Destiny Bond;
#SUBTITLE:[Lavender Town Glitchhop Mix];
#ARTIST:YZYX & Trickywi;
#TITLETRANSLIT:;
#SUBTITLETRANSLIT:;
#ARTISTTRANSLIT:;
#GENRE:Glitch Hop;
#CREDIT:;
#BANNER:Destiny Bond [Lavender Town Glitchhop Mix].png;
#BACKGROUND:Destiny Bond [Lavender Town Glitchhop Mix]-bg.png;
#LYRICSPATH:;
#CDTITLE:cdtitle.png;
#MUSIC:Destiny Bond [Lavender Town Glitchhop Mix].ogg;
#OFFSET:-2.466005;
#SAMPLESTART:54.468006;
#SAMPLELENGTH:18.265713;
#SELECTABLE:YES;
#BPMS:0.000000=105.000000
;
#STOPS:
;
#BGCHANGES:;
#KEYSOUNDS:;
#ATTACKS:;

//---------------dance-single - ----------------
#NOTES:
     dance-single:
     :
     Challenge:
     14:
     0.634094,0.619839,0.221490,0.593593,0.726487,501.000000,476.000000,25.000000,67.000000,0.000000,0.000000,0.634094,0.619839,0.221490,0.593593,0.726487,501.000000,476.000000,25.000000,67.000000,0.000000,0.000000:
// measure 0
0000
0000
0000
0000
,  // measure 1
0000
0000
0000
0000
,  // measure 2
0001
0000
0010
0000
0001
0000
0100
0000
0000
0010
0000
0000
1010
0000
0000
1000
0000
0000
1001
0000
0000
1000
0100
1000
,  // measure 3
0100
0000
0000
0010
0000
0100
1000
0000
0000
0001
0000
0000
0101
0000
0000
0110
0000
0000
0101
0000
0000
0001
1000
0001
,  // measure 4
1000
0000
0010
0000
1000
0000
0100
0000
0000
0010
0000
0000
0011
0000
0000
0001
0000
0000
1001
0000
0000
0001
0100
0001
,  // measure 5
0100
0000
0000
0010
0000
0000
0100
0000
0001
0000
1000
0000
1001
0000
0000
0110
0000
0000
1001
0000
0000
0001
1000
0001
,  // measure 6
1000
0000
0010
0000
0100
0000
0001
0000
0000
0010
0000
0100
1000
0000
0000
0010
0000
0100
0001
0000
1000
0100
0000
0000
,  // measure 7
0120
0000
0000
0000
0000
0000
0031
0000
0001
0100
0000
0000
0120
0000
0000
0000
0000
0000
1030
0000
1000
0100
0000
0000
,  // measure 8
0010
0001
0010
0001
0000
1000
0001
0000
0000
0100
0000
1000
0200
0000
0000
0301
0000
0100
0001
0000
0000
0010
0000
0000
,  // measure 9
0210
0000
0000
0000
0000
0000
1300
0000
1000
0010
0000
0000
0210
0000
0000
0000
0000
0000
0301
0000
0001
0010
0000
0000
,  // measure 10
0100
1000
0100
1000
0000
0001
1000
0000
0000
0001
0100
0001
0100
0000
0000
0010
0000
0100
0001
0000
0000
1000
0000
0000
,  // measure 11
2001
0000
0000
0000
0000
0000
3100
0000
0010
0001
0000
0000
1002
0000
0000
0000
0000
0000
0103
0000
0010
1000
0000
0000
,  // measure 12
0001
0100
0001
0100
0000
0001
1000
0000
0000
0100
0000
0001
0200
0000
0000
1300
0000
0100
1000
0000
0000
0001
0000
0000
,  // measure 13
2002
0000
0000
0003
0000
0000
3100
0000
0000
0010
0000
0100
1000
0000
0000
0001
0100
0001
0100
0000
0000
0010
0000
0000
,  // measure 14
0220
0000
0000
0030
0000
0000
0301
0000
0001
0010
0000
0100
2000
0000
0000
3100
0000
0000
2002
0000
0000
3003
0000
0000
,  // measure 15
1001
0000
0000
0001
0000
0000
0100
0000
0000
0001
0000
0001
0010
0000
0000
0100
0000
0010
0001
0000
0001
1000
0000
0000
,  // measure 16
1001
0000
0000
1000
0000
0000
0010
0000
0000
1000
0000
1000
0100
0000
0000
0010
0000
0010
0100
0000
0000
1000
0000
0000
,  // measure 17
0010
0000
1000
0100
0000
0000
0001
0000
0000
1000
0000
0000
0010
0000
0000
0001
0000
0000
0100
0000
0010
1000
0000
0000
,  // measure 18
0100
0010
0100
0010
0000
0001
1000
0000
0000
0010
0100
0010
0100
0000
0000
0001
0000
0010
0100
0000
0000
0010
0000
0000
,  // measure 19
2002
0000
0000
3003
0000
0000
1000
0000
1000
0010
0000
0010
0100
0000
0000
0001
0000
1000
0100
0000
0100
1000
0000
0000
,  // measure 20
0001
0100
0001
0100
0000
0010
1000
0000
0000
0001
0000
0010
0100
0000
0000
0010
0000
0000
1000
0000
0000
0010
0000
0000
,  // measure 21
0001
0000
0100
0010
0000
0000
1000
0000
0000
0100
0000
0010
0001
0000
0000
0100
0000
0010
1000
0000
1000
0001
0000
0000
,  // measure 22
1000
0000
0100
0000
0100
0000
0100
0000
0000
1000
0100
0010
0001
0000
0000
0001
0100
0010
1000
0000
0000
0001
0000
0000
,  // measure 23
2002
0000
0000
0000
0000
0000
0000
0000
0000
0003
0000
0000
0000
0000
0000
0000
0000
0000
3010
0000
0000
0000
1000
0000
0001
0000
0000
0000
0000
0000
0020
0000
0000
0000
0000
0000
0000
0000
0000
0000
0000
0000
0031
0000
0000
0000
0000
0000
,  // measure 24
0200
0000
0000
0000
0000
0000
0000
0000
0000
2300
0000
0000
0000
0000
0000
0000
0000
0000
3100
0000
0000
0000
0100
0000
0010
0000
0000
0000
0000
0000
2000
0000
0000
0000
0000
0000
3200
0000
0000
0000
0000
0000
0320
0000
0000
0000
0000
0000
,  // measure 25
0032
0000
0000
0000
0000
0000
0000
0000
0000
0023
0000
0000
0000
0000
0000
0000
0000
0000
1030
0000
0000
0000
1000
0000
0010
0000
0000
0000
0000
0000
0002
0000
0000
0000
0000
0000
0203
0000
0000
0000
0000
0000
0310
0000
0000
0000
0000
0000
,  // measure 26
2000
0000
0000
0000
0000
0000
0000
0000
0000
3200
0000
0000
0000
0000
0000
0000
0000
0000
0301
0000
0000
0000
0001
0000
0200
0000
0000
0000
0000
0000
0000
0000
0000
0320
0000
0000
0000
0000
0000
0000
0000
0000
0031
0000
0000
0000
0000
0000
,  // measure 27
1002
0000
0000
0000
0000
0000
0000
0000
0000
0203
0000
0000
0000
0000
0000
0000
0000
0000
1300
0000
0000
0000
1000
0000
0100
0000
0000
0000
0000
0000
0020
0000
0000
0000
0000
0000
0000
0000
0000
0000
0000
0000
0130
0000
0000
0000
0000
0000
,  // measure 28
0002
0000
0000
0000
0000
0000
0000
0000
0000
0023
0000
0000
0000
0000
0000
0000
0000
0000
1030
0000
0000
0000
1000
0000
0020
0000
0000
0000
0000
0000
0000
0000
0000
0032
0000
0000
0000
0000
0000
0000
0000
0000
0203
0000
0000
0000
0000
0000
,  // measure 29
2300
0000
0000
0000
0000
0000
0000
0000
0000
3200
0000
0000
0000
0000
0000
0000
0000
0000
0301
0000
0000
0000
0001
0000
0010
0000
0000
0000
0000
0000
0200
0000
0000
0000
0000
0000
0000
0000
0000
0000
0000
0000
1300
0000
0000
0000
0000
0000
,  // measure 30
0020
0000
0000
0000
0000
0000
0000
0000
0000
0230
0000
0000
0000
0000
0000
0000
0000
0000
0301
0000
0000
0000
1000
0000
0100
0000
0000
0000
0000
0000
0020
0000
0000
0000
0000
0000
0230
0000
0000
0000
0000
0000
1300
0000
0000
0000
0000
0000
,  // measure 31
1002
0000
0000
0000
0000
0000
0000
0000
0000
0203
0000
0000
0000
0000
0000
0000
0000
0000
0310
0000
0000
0000
0100
0000
0001
0000
0000
0000
0000
0000
0020
0000
0000
0000
0000
0000
2030
0000
0000
0000
0000
0000
0000
0000
0000
3010
0000
0000
,  // measure 32
0002
0000
0000
0000
0000
0000
0000
0000
0000
0203
0000
0000
0000
0000
0000
0000
0000
0000
1300
0000
0000
0000
0100
0000
0010
0000
0000
0000
0000
0000
0200
0000
0000
0000
0000
0000
0302
0000
0000
0000
0000
0000
2003
0000
0000
0000
0000
0000
,  // measure 33
3002
0000
0000
0000
0000
0000
1003
0000
0000
0200
0000
0000
0000
0000
0000
0000
0310
0000
0000
0000
0000
0000
0001
0000
2000
0000
0000
0000
0000
0000
3001
0000
0000
0000
0000
0000
1000
0000
0000
0000
0000
0000
0001
0000
0100
0000
0010
0000
,  // measure 34
1000
0000
0000
0001
0000
0000
0100
0000
0000
0001
1000
0001
1000
0000
0000
0001
0000
0001
0010
0000
0000
0001
0000
0000
,  // measure 35
1000
0000
0001
1000
0000
0000
0100
0000
0000
1000
0000
1000
0001
0000
0000
1000
0000
1000
0010
0000
0000
0001
0000
0000
,  // measure 36
0010
1000
0010
1000
0000
0001
1000
0000
0000
0100
1000
0100
1000
0000
0000
0010
0000
1000
0100
0000
0000
0010
0000
0000
,  // measure 37
0001
0000
1000
0001
0000
0000
0100
0000
0000
0001
0000
0001
0010
0000
0000
0001
0000
0001
0100
0000
0100
0010
0000
0010
,  // measure 38
1000
0000
0100
0000
0100
0000
0100
0000
0000
1000
0100
0010
0001
0000
0000
0001
0100
0010
1000
0000
0000
0001
0000
0000
,  // measure 39
0010
0000
0000
0100
0000
0000
0001
0000
0000
0100
0010
0100
0010
0000
0000
0001
0000
0100
0010
0000
0000
0100
0000
0000
,  // measure 40
1000
0000
0100
0010
0000
0000
1000
0000
0000
0001
0000
0010
0100
0000
0000
0001
0000
0100
0010
0000
0000
0001
0000
0000
,  // measure 41
0100
0010
0100
0010
0000
1000
0001
0000
0000
0010
0100
0010
0100
0000
0000
0010
0000
1000
0010
0000
0000
0001
0000
0000
,  // measure 42
0100
0000
0010
0100
0000
0000
1000
0000
0000
0100
0000
0001
0010
0000
0000
0100
0000
1000
0010
0000
0010
0100
0000
0000
,  // measure 43
0001
0000
1000
0000
1000
0000
0100
0000
0000
0010
0001
0100
0010
0000
0000
0100
0010
1000
0200
0000
0000
0000
0000
0000
,  // measure 44
1300
0000
0100
0000
1000
0000
0001
0000
0000
0000
0000
0001
0100
0000
0000
1000
0000
0000
0200
0000
0000
0000
0000
0000
,  // measure 45
0301
0000
0000
0000
0000
0001
1000
0000
0000
0000
0000
0000
0001
0000
0000
0010
0000
0000
1000
0000
0000
0010
0000
0000
,  // measure 46
0001
0000
0000
0000
0100
0000
0000
0000
0100
0000
0000
0000
0100
0000
0000
0000
0000
0000
0010
0000
0000
0000
0000
0000
0100
0000
0000
0001
0000
0000
0020
0000
0000
0000
0000
0000
0230
0000
0000
1000
0000
0000
0300
0000
0000
0000
0000
0000
,  // measure 47
1000
0000
0000
0010
0000
0000
0000
0000
0000
0200
0000
0000
0301
0000
0000
0000
0000
0000
1000
0000
0000
0000
0000
0000
0001
0000
1000
0000
0001
0000
1000
0000
0001
0000
1000
0000
0002
0000
0000
0000
0000
0000
0000
0000
0000
0000
0000
0000
,  // measure 48
2000
3003
0000
0000
;

//---------------dance-single - ----------------
#NOTES:
     dance-single:
     :
     Hard:
     9:
     0.434120,0.448849,0.124034,0.806223,0.239209,343.000000,329.000000,14.000000,91.000000,0.000000,0.000000,0.434120,0.448849,0.124034,0.806223,0.239209,343.000000,329.000000,14.000000,91.000000,0.000000,0.000000:
// measure 0
0000
0000
0000
0000
,  // measure 1
0000
0000
0000
0000
,  // measure 2
1000
0000
0001
0000
1000
0000
0100
0000
0000
0000
0000
0100
0010
0000
0000
0100
0000
0000
1000
0000
0000
0000
0000
0000
,  // measure 3
1001
0000
0000
0000
0000
0001
0100
0000
0000
0000
0000
0000
0010
0000
0000
0010
0000
0000
0100
0000
0000
0000
0000
0000
,  // measure 4
0001
0000
1000
0000
0001
0000
0010
0000
0000
0000
0000
0010
0100
0000
0000
0010
0000
0000
0001
0000
0000
0000
0000
0000
,  // measure 5
1001
0000
0000
0000
0000
0000
1000
0000
0010
0000
1000
0000
0001
0000
0000
0001
0000
0000
0100
0000
0000
0000
0000
0000
,  // measure 6
0010
0000
1000
0000
0100
0000
1000
0000
0010
0000
1000
0000
0001
0010
0100
1000
,  // measure 7
0002
0000
0103
0001
2000
0000
3100
1000
,  // measure 8
0002
0000
0000
0000
0000
0000
0000
0000
0000
0000
0000
0000
1003
0000
0000
0000
0000
0000
0010
0000
0000
0000
0100
0000
0020
0000
0000
0000
0000
0000
1030
0000
0000
0001
0000
0000
1000
0000
0000
0000
0000
0000
0100
0000
0000
0000
0000
0000
,  // measure 9
0020
0000
0031
1000
0020
0000
1030
0001
,  // measure 10
0020
0000
0000
0000
0000
0000
0000
0000
0000
0000
0000
0000
0130
0000
0000
0000
0000
0000
0010
0000
0000
0000
0100
0000
0010
0000
0000
0000
0000
0000
0001
0000
0000
0000
0000
0000
1000
0000
0000
0001
0000
0000
0100
0000
0000
0010
0000
0000
,  // measure 11
2000
0000
3100
0010
0002
0000
0103
0010
,  // measure 12
2000
0000
0000
0000
0000
0000
0000
0000
0000
0000
0000
0000
3001
0000
0000
0000
0000
0000
0010
0000
0000
0000
0100
0000
0010
0000
0000
0000
0000
0000
0001
0000
0000
1000
0000
0000
0001
0000
0000
0000
0000
0000
1000
0000
0000
0001
0000
0000
,  // measure 13
0200
0000
0000
0000
0310
0000
0100
0000
0001
0000
1000
0001
1000
0000
0001
1000
,  // measure 14
0200
0000
0000
0000
0000
0000
0310
0000
0010
0100
0000
0000
1000
0000
0000
0001
0000
0000
0200
0000
0000
0300
0000
0000
,  // measure 15
1002
0000
0103
0010
1000
0001
0010
0001
,  // measure 16
2001
0000
3100
0010
0001
1000
0010
1000
,  // measure 17
0001
0100
0010
0100
1000
0100
0010
0100
,  // measure 18
0001
0010
0100
0010
1000
0010
0001
0100
,  // measure 19
1002
0000
0000
0000
0000
0000
1003
0000
1000
0001
0000
0000
0020
0000
0000
0000
0000
0000
0130
0000
0000
0010
0000
0000
,  // measure 20
0002
0000
0000
0000
0000
0000
0103
0000
0100
0010
0000
0000
2000
0000
0000
0000
0000
0000
3001
0000
0000
0010
0000
0000
,  // measure 21
0200
0000
0000
0000
0000
0000
0310
0000
0010
0001
0000
0000
2000
0000
0000
0000
0000
0000
3010
0000
0000
0100
0000
0000
,  // measure 22
0001
0000
1000
0000
0001
0000
1000
0000
0000
1001
0000
0000
0100
0000
0000
1001
0000
0000
0100
0000
0000
0010
0000
0000
,  // measure 23
2002
0000
0000
3000
0000
0000
0203
0000
0000
0000
0320
0000
0000
0000
1030
0000
,  // measure 24
0200
0000
0000
0320
0000
0000
0230
0000
0000
0000
0302
0000
0203
0000
2300
0000
,  // measure 25
3020
0000
0000
0032
0000
0000
0023
0000
0000
0000
2030
0000
3200
0000
0000
0000
,  // measure 26
0320
0000
0000
0032
0000
0000
0203
0000
2300
0000
0000
3200
0000
0000
0302
0000
,  // measure 27
0023
0000
0000
2030
0000
0000
3020
0000
0000
0000
0032
0000
0000
0000
0103
0000
,  // measure 28
0020
0000
0000
0230
0000
0000
2300
0000
3200
0000
0000
0302
0000
0000
0023
0000
,  // measure 29
0230
0000
0000
0302
0000
0000
0203
0000
0000
0000
2300
0000
0000
0000
3010
0000
,  // measure 30
2000
0000
0000
3200
0000
0000
0302
0000
0000
0000
2003
0000
3020
0000
0032
0000
,  // measure 31
0203
0000
0000
2300
0000
0000
3200
0000
0000
0000
0302
0000
0023
0000
0000
0130
,  // measure 32
2000
0000
0000
3002
0000
0000
2003
0000
0000
0000
3002
0000
0203
0000
0320
0000
,  // measure 33
2030
0000
0000
0000
0000
0000
3100
0000
0000
0020
0000
0000
0000
0000
0000
0000
0130
0000
0000
0000
0000
0000
0010
0000
0100
0000
0000
0000
0000
0000
0000
0000
0000
0000
0000
0000
1001
0000
0000
0000
0000
0000
1000
0000
0000
0000
0000
0000
,  // measure 34
0010
1000
0100
0001
0100
1000
0100
0001
,  // measure 35
0100
1000
0010
0100
0001
0001
1000
0100
,  // measure 36
0010
0001
0100
1000
0100
0001
0100
1000
,  // measure 37
0100
0001
1000
0100
0001
0100
1000
0001
,  // measure 38
0100
0000
0010
0000
0100
0000
0010
0000
0000
1001
0000
0000
0100
0000
0000
1001
0000
0000
0100
0000
0000
0010
0000
0000
,  // measure 39
1001
1000
0200
0000
0302
0000
0103
0100
,  // measure 40
0010
0001
0200
0000
2300
0000
3200
0302
,  // measure 41
0020
0000
0000
0030
0000
0000
2003
0000
0000
0000
0002
0000
3000
0000
0000
0000
,  // measure 42
1003
0100
0001
0100
1000
0010
0001
0010
,  // measure 43
1000
0000
0001
0000
1000
0000
0001
0000
0000
0110
0000
0000
1000
0000
0000
0110
0000
0000
0002
0000
0000
0000
0000
0000
,  // measure 44
1003
0000
0001
0000
1000
0000
0001
0000
0000
0000
0000
1000
0100
0000
0000
0010
0000
0000
0002
0000
0000
0000
0000
0000
,  // measure 45
1003
0000
0000
0000
0000
0001
0100
0000
0000
0000
0000
0000
0010
0000
0000
0010
0000
0000
1000
0000
0000
0001
0000
0000
,  // measure 46
1000
0000
0000
0000
0100
0000
0000
0000
1000
0000
0000
0000
0100
0000
0000
0000
0000
0000
0010
0000
0000
0000
0000
0000
0001
0000
0000
1000
0000
0000
0002
0000
0000
0000
0000
0000
2000
0000
0000
0000
0000
0000
3003
0000
0000
0000
0000
0000
,  // measure 47
0001
0000
0000
2000
3010
0000
1000
0000
0100
0000
0010
0000
0002
0000
0000
0000
,  // measure 48
2000
3003
0000
0000
;

//---------------dance-single - ----------------
#NOTES:
     dance-single:
     :
     Medium:
     7:
     0.327805,0.363354,0.062017,0.549295,0.000000,259.000000,252.000000,7.000000,62.000000,0.000000,0.000000,0.327805,0.363354,0.062017,0.549295,0.000000,259.000000,252.000000,7.000000,62.000000,0.000000,0.000000:
// measure 0
0000
0000
0000
0000
,  // measure 1
0000
0000
0000
0000
,  // measure 2
1001
0000
0001
0000
0010
0010
0001
0000
,  // measure 3
0100
0000
0010
0000
1000
1000
0100
0000
,  // measure 4
1000
0000
1000
0000
0010
0010
1000
0000
,  // measure 5
0100
0000
0010
0000
0001
0001
0100
0000
,  // measure 6
0001
1000
0001
1000
0100
0010
0100
0010
,  // measure 7
0002
0203
2300
3200
,  // measure 8
0302
0000
0023
0000
0130
0010
0001
0001
,  // measure 9
2000
0000
3010
0100
0020
0000
0032
0000
,  // measure 10
0023
0000
2030
0000
3100
0010
0010
0100
,  // measure 11
2000
3200
0302
0203
,  // measure 12
2300
0000
3010
0200
0010
0310
1000
0001
,  // measure 13
0020
0000
0230
0000
0310
0100
1000
0001
,  // measure 14
0200
0320
1030
0002
,  // measure 15
2003
3200
0320
0032
,  // measure 16
0203
0320
2030
3002
,  // measure 17
2003
3200
0302
0203
,  // measure 18
2300
3020
0230
0310
,  // measure 19
1002
0000
0100
0100
1003
0000
0002
0000
,  // measure 20
2003
0000
0100
0100
3001
0000
1001
0000
,  // measure 21
0110
0000
1001
0000
0001
1000
0100
0000
,  // measure 22
0010
0100
0010
0100
1000
0001
0100
0001
,  // measure 23
1002
0000
0000
0103
0010
2000
0000
3100
,  // measure 24
0020
0000
0130
1000
0001
1000
0010
0000
,  // measure 25
0200
0000
0310
1000
0001
1000
0100
0000
,  // measure 26
0020
0000
0130
1000
0010
1000
0100
0000
,  // measure 27
0020
0000
0031
0100
0010
0100
0001
0000
,  // measure 28
2000
0000
3001
0100
0010
1000
0100
0000
,  // measure 29
0020
0000
0130
1000
0010
0100
0001
0000
,  // measure 30
2000
0000
3100
0010
0100
1000
0010
1000
,  // measure 31
0002
0000
1003
0100
0001
0100
1000
0000
,  // measure 32
0002
0000
0103
0010
0100
0001
1000
0100
,  // measure 33
0010
0000
0100
0010
0100
0000
0100
0010
,  // measure 34
0001
1000
0001
0000
0001
0100
0001
0000
,  // measure 35
1000
0100
1000
0000
0010
1000
0001
1000
,  // measure 36
0200
0000
0000
0001
0000
0010
0000
0000
,  // measure 37
1300
0010
1000
0000
0001
0100
0001
0000
,  // measure 38
1000
0100
0010
0001
0100
0010
1000
0001
,  // measure 39
1001
0000
0002
0000
0203
0000
0001
0001
,  // measure 40
0301
0000
2000
0000
3200
0000
0310
0001
,  // measure 41
0200
0000
0000
1000
0000
0010
0000
0000
,  // measure 42
0301
0100
0001
0000
1000
0100
1000
0000
,  // measure 43
0001
0100
0010
1000
0100
0010
0002
0000
,  // measure 44
1003
0010
0001
0100
,  // measure 45
1000
0010
0001
0100
,  // measure 46
1000
0001
1000
0000
0001
0200
0320
0030
,  // measure 47
1000
0000
0001
0000
1000
0100
0020
0000
,  // measure 48
0200
0330
0000
0000
;

//---------------dance-single - ----------------
#NOTES:
     dance-single:
     :
     Easy:
     3:
     0.182254,0.213738,0.017719,0.310086,0.000000,144.000000,142.000000,2.000000,35.000000,0.000000,0.000000,0.182254,0.213738,0.017719,0.310086,0.000000,144.000000,142.000000,2.000000,35.000000,0.000000,0.000000:
// measure 0
0000
0000
0000
0000
,  // measure 1
0000
0000
0000
0000
,  // measure 2
0001
0001
0010
0000
,  // measure 3
0001
0001
0100
0000
,  // measure 4
1000
1000
0010
0000
,  // measure 5
1000
1000
0100
0000
,  // measure 6
0001
0010
0100
1000
,  // measure 7
0001
0001
0100
0100
,  // measure 8
0020
2000
0000
3030
,  // measure 9
1000
1000
0100
0100
,  // measure 10
0020
0002
0000
0033
,  // measure 11
0001
0001
1000
1000
,  // measure 12
0020
0200
0000
0330
,  // measure 13
2000
0020
0000
3030
,  // measure 14
0002
0020
0000
0033
,  // measure 15
1000
0100
1000
0100
,  // measure 16
0010
0001
0010
0001
,  // measure 17
0100
0010
0100
0010
,  // measure 18
1000
0100
0010
0001
,  // measure 19
2002
3003
0001
0100
,  // measure 20
0020
0000
1030
0001
,  // measure 21
0001
0020
0000
0130
,  // measure 22
0010
0001
0100
0000
,  // measure 23
2001
0000
3002
0000
,  // measure 24
2003
0000
3100
1000
,  // measure 25
0002
0000
0103
0001
,  // measure 26
2000
0000
3100
0010
,  // measure 27
0002
0000
0103
0010
,  // measure 28
2000
0000
3100
1000
,  // measure 29
0020
0000
0130
0001
,  // measure 30
0020
0000
0031
0010
,  // measure 31
2000
0000
3010
1000
,  // measure 32
0200
0000
1300
0100
,  // measure 33
0001
0000
0001
0001
,  // measure 34
1000
0100
0010
0000
,  // measure 35
0001
0100
0010
2000
,  // measure 36
3200
0000
0010
0000
,  // measure 37
0310
0100
1000
0001
,  // measure 38
0100
0000
0100
0100
,  // measure 39
0010
2000
3200
0000
,  // measure 40
0310
0002
0203
0310
,  // measure 41
2000
0000
0001
0000
,  // measure 42
3001
0010
0100
1000
,  // measure 43
0001
0010
0001
0200
,  // measure 44
0301
0000
1000
0000
,  // measure 45
0001
0000
1000
0000
,  // measure 46
0100
0000
0010
0000
,  // measure 47
0100
0100
0010
0200
,  // measure 48
0020
0330
0000
0000
;

//---------------dance-single - ----------------
#NOTES:
     dance-single:
     :
     Beginner:
     1:
     0.093659,0.106869,0.008860,0.177192,0.000000,74.000000,73.000000,1.000000,20.000000,0.000000,0.000000,0.093659,0.106869,0.008860,0.177192,0.000000,74.000000,73.000000,1.000000,20.000000,0.000000,0.000000:
// measure 0
0000
0000
0000
0000
,  // measure 1
0000
0000
0000
0000
,  // measure 2
1000
0000
1000
0000
,  // measure 3
0001
0000
0001
0000
,  // measure 4
1000
0000
1000
0000
,  // measure 5
0001
0000
0001
0000
,  // measure 6
0010
0000
0010
0000
,  // measure 7
0001
0000
0100
0000
,  // measure 8
0002
0000
0003
0000
,  // measure 9
1000
0000
0010
0000
,  // measure 10
2000
0000
3000
0000
,  // measure 11
0001
0000
0010
0000
,  // measure 12
0002
0000
0003
0000
,  // measure 13
0200
0000
0300
0000
,  // measure 14
0020
0000
0030
0000
,  // measure 15
1000
0000
1000
0000
,  // measure 16
0001
0000
0001
0000
,  // measure 17
1000
0000
0100
0000
,  // measure 18
0010
0000
0001
0000
,  // measure 19
2000
0000
3000
0000
,  // measure 20
0002
0000
0003
0000
,  // measure 21
0200
0000
0300
0000
,  // measure 22
0010
0000
0010
0000
,  // measure 23
2002
0000
3003
0000
,  // measure 24
2000
0000
3000
0000
,  // measure 25
0020
0000
0030
0000
,  // measure 26
2000
0000
3000
0000
,  // measure 27
0200
0000
0300
0000
,  // measure 28
0020
0000
0030
0000
,  // measure 29
0002
0000
0003
0000
,  // measure 30
0200
0000
0300
0000
,  // measure 31
2000
0000
3000
0000
,  // measure 32
0020
0000
0030
0000
,  // measure 33
0001
0000
1000
0000
,  // measure 34
0001
0000
0001
0000
,  // measure 35
0100
0000
0100
0000
,  // measure 36
0010
0000
1000
0000
,  // measure 37
0001
0000
0001
0000
,  // measure 38
1000
0000
0001
0000
,  // measure 39
1000
0000
0100
0000
,  // measure 40
0100
0000
0010
0000
,  // measure 41
0001
0000
1000
0000
,  // measure 42
0001
0000
0001
0000
,  // measure 43
1000
0000
0001
0000
,  // measure 44
1000
0000
0000
0000
,  // measure 45
0001
0000
0000
0000
,  // measure 46
0010
0000
0100
0000
,  // measure 47
0010
0000
0100
0000
,  // measure 48
0020
0030
0000
0000
;
